osu file format v14

[General]
AudioFilename: audio.mp3
AudioLeadIn: 0
PreviewTime: 50127
Countdown: 0
SampleSet: Soft
StackLeniency: 0.7
Mode: 0
LetterboxInBreaks: 0
WidescreenStoryboard: 0

[Editor]
DistanceSpacing: 1.3
BeatDivisor: 4
GridSize: 4
TimelineZoom: 2.599999

[Metadata]
Title:Iolite (TV Size)
TitleUnicode:アイオライト (TV Size)
Artist:joy
ArtistUnicode:joy
Creator:kunka
Version:Hard
Source:エウレカセブンAO
Tags:ed ending anime japanese pop jpop j-pop EUREKA SEVEN AO ASTRAL OCEAN kunkakunkakunkakunka
BeatmapID:3185810
BeatmapSetID:1559665

[Difficulty]
HPDrainRate:5
CircleSize:4
OverallDifficulty:6
ApproachRate:8
SliderMultiplier:1.4
SliderTickRate:1

[Events]
//Background and Video events
0,0,"BG.jpg",0,0
Video,9,"Iolite.mp4"
//Break Periods
//Storyboard Layer 0 (Background)
//Storyboard Layer 1 (Fail)
//Storyboard Layer 2 (Pass)
//Storyboard Layer 3 (Foreground)
//Storyboard Layer 4 (Overlay)
//Storyboard Sound Samples

[TimingPoints]
840,344.827586206897,4,2,2,20,1,0
840,-142.857142857143,4,2,2,20,0,0
11012,-142.857142857143,4,2,2,20,0,0
11184,-200.000000000001,4,2,2,30,0,0
11852,344.827586206897,4,2,1,70,1,0
11852,-90.9090909090909,4,2,1,70,0,0
22886,-100,4,2,1,50,0,0
25903,-100,4,2,1,5,0,0
25989,-100,4,2,1,50,0,0
31420,-100,4,2,1,5,0,0
31507,-100,4,2,1,50,0,0
36938,-100,4,2,1,5,0,0
37024,-100,4,2,1,50,0,0
42455,-100,4,2,1,5,0,0
42541,-100,4,2,1,50,0,0
44955,-117.647058823529,4,2,1,45,0,0
46852,-117.647058823529,4,2,1,20,0,0
47024,-117.647058823529,4,2,1,45,0,0
47541,-117.647058823529,4,2,1,30,0,0
47714,-100,4,2,1,60,0,0
48920,-95.2380952380952,4,2,1,65,0,0
49179,-95.2380952380952,4,2,1,5,0,0
49265,-95.2380952380952,4,2,1,55,0,0
49783,-95.2380952380952,4,2,1,60,0,0
50127,-95.2380952380952,4,2,1,65,0,0
50460,344.827586206897,4,2,1,70,1,0
50460,-90.9090909090909,4,2,1,70,0,1
69080,-90.9090909090909,4,2,1,65,0,1
69425,-90.9090909090909,4,2,1,60,0,1
69684,-90.9090909090909,4,2,1,60,0,0
69770,-90.9090909090909,4,2,1,70,0,1
87701,-125,4,2,1,70,0,0

[Colours]
Combo1 : 255,112,43
Combo2 : 0,213,0
Combo3 : 0,234,234
Combo4 : 255,85,85
Combo5 : 213,213,0
Combo6 : 255,128,255

[HitObjects]
370,236,840,6,0,P|319:235|272:249,1,97.9999970092774,8|8,0:0|0:0,0:0:0:0:
185,288,1529,2,0,P|136:287|88:275,1,97.9999970092774,8|8,0:0|0:0,0:0:0:0:
19,204,2219,2,0,L|31:106,1,97.9999970092774,8|8,0:0|0:0,0:0:0:0:
110,49,2908,2,0,P|158:49|206:61,1,97.9999970092774,8|10,0:0|0:0,0:0:0:0:
252,79,3426,1,2,3:2:0:0:
252,79,3598,6,0,L|240:177,1,97.9999970092774,10|10,3:2|0:0,0:0:0:0:
144,199,4288,2,0,L|156:297,1,97.9999970092774,8|10,0:0|0:0,0:0:0:0:
251,272,4977,2,0,P|299:264|343:286,2,97.9999970092774,8|8|8,0:0|0:0|0:0,0:0:0:0:
155,296,6012,1,8,0:0:0:0:
72,212,6357,6,0,P|67:164|78:116,1,97.9999970092774,10|10,3:2|0:0,0:0:0:0:
147,46,7046,2,0,P|195:41|243:52,1,97.9999970092774,8|8,0:0|0:0,0:0:0:0:
292,52,7564,1,2,3:2:0:0:
292,52,7736,2,0,P|339:41|388:45,1,97.9999970092774,10|10,3:2|0:0,0:0:0:0:
454,117,8426,2,0,L|448:214,1,97.9999970092774,10|10,0:0|0:0,0:0:0:0:
361,260,9115,6,0,P|335:300|340:348,2,97.9999970092774,10|8|8,3:2|0:0|0:0,0:0:0:0:
447,214,10150,1,10,0:0:0:0:
374,147,10495,2,0,B|327:167|324:135|278:155,1,97.9999970092774,10|8,3:2|0:0,0:0:0:0:
234,177,11012,1,2,0:0:0:0:
234,177,11184,1,2,0:0:0:0:
234,177,11852,6,0,L|241:255,1,77.0000023498536,4|0,3:2|0:0,0:0:0:0:
171,325,12196,1,8,0:0:0:0:
33,185,12541,1,0,3:0:0:0:
33,185,12714,1,2,3:2:0:0:
117,131,12886,1,10,0:0:0:0:
207,174,13058,6,0,P|278:194|350:159,1,154.000004699707,2|0,3:2|3:0,0:0:0:0:
412,83,13576,1,8,0:0:0:0:
412,83,13748,1,0,3:0:0:0:
292,30,13920,2,0,P|243:32|216:43,1,77.0000023498536,2|0,0:0|3:0,0:0:0:0:
121,70,14265,2,0,P|101:62|81:62,3,38.5000011749268,8|8|8|8,0:0|0:0|0:0|0:0,0:0:0:0:
36,78,14610,6,0,B|19:113|19:113|29:156,1,77.0000023498536,4|0,3:2|0:0,0:0:0:0:
60,244,14955,1,8,0:0:0:0:
258,216,15300,1,0,3:0:0:0:
258,216,15472,1,2,3:2:0:0:
333,282,15645,1,10,0:0:0:0:
420,234,15817,6,0,P|455:167|434:93,1,154.000004699707,0|0,3:2|3:0,0:0:0:0:
357,31,16334,1,8,0:0:0:0:
357,31,16507,1,0,3:0:0:0:
266,125,16679,2,0,P|273:162|279:205,1,77.0000023498536,2|0,0:0|3:0,0:0:0:0:
349,271,17024,2,0,P|348:295|340:318,3,38.5000011749268,8|8|8|8,0:0|0:0|0:0|0:0,0:0:0:0:
300,334,17369,6,0,L|221:324,1,77.0000023498536,4|0,3:2|0:0,0:0:0:0:
127,354,17714,1,8,0:0:0:0:
173,159,18058,1,0,3:0:0:0:
173,159,18231,1,0,3:0:0:0:
83,113,18403,1,8,0:0:0:0:
9,181,18576,6,0,P|-4:257|32:323,1,154.000004699707,2|0,3:2|3:0,0:0:0:0:
127,354,19093,1,8,0:0:0:0:
127,354,19265,1,0,3:0:0:0:
246,297,19438,2,0,P|284:296|321:305,1,77.0000023498536,2|0,0:0|3:0,0:0:0:0:
415,340,19783,2,0,P|435:337|457:329,3,38.5000011749268,8|8|8|8,0:0|0:0|0:0|0:0,0:0:0:0:
495,306,20127,6,0,P|491:268|485:229,1,77.0000023498536,4|0,3:2|0:0,0:0:0:0:
463,131,20472,1,8,0:0:0:0:
297,18,20817,1,0,3:0:0:0:
297,18,20989,1,2,3:2:0:0:
220,83,21162,1,10,0:0:0:0:
274,166,21334,6,0,P|351:153|409:197,1,154.000004699707,2|0,3:2|3:0,0:0:0:0:
456,284,21852,1,8,0:0:0:0:
456,284,22024,1,2,3:2:0:0:
341,347,22196,2,0,P|303:333|265:327,1,77.0000023498536,2|2,0:0|3:2,0:0:0:0:
177,281,22541,2,0,P|157:281|139:286,3,38.5000011749268,10|10|10|10,0:0|0:0|0:0|0:0,0:0:0:0:
103,256,22886,6,0,L|110:185,1,70,4|0,3:2|0:0,0:0:0:0:
69,104,23231,1,8,0:0:0:0:
230,19,23576,1,2,3:2:0:0:
230,19,23748,1,2,3:2:0:0:
311,57,23920,1,8,0:0:0:0:
270,138,24093,6,0,P|247:206|269:269,1,140,2|2,3:2|3:2,0:0:0:0:
340,323,24610,1,8,0:0:0:0:
416,273,24783,2,0,P|439:205|417:142,1,140,2|2,3:2|3:2,0:0:0:0:
345,87,25300,1,8,0:0:0:0:
345,87,25472,1,2,3:2:0:0:
234,133,25645,6,0,B|182:139|193:97|137:107,1,105,2|0,3:2|0:0,0:0:0:0:
101,136,25989,2,0,P|88:167|87:204,1,70,10|2,0:0|0:0,0:0:0:0:
128,284,26334,1,0,3:0:0:0:
128,284,26507,1,2,3:2:0:0:
216,261,26679,1,8,0:0:0:0:
299,297,26852,6,0,P|367:320|430:298,1,140,2|2,3:2|3:2,0:0:0:0:
489,230,27369,1,8,0:0:0:0:
430,159,27542,2,0,P|362:136|299:158,1,140,2|2,3:2|3:2,0:0:0:0:
236,222,28059,1,8,0:0:0:0:
236,222,28231,1,0,3:0:0:0:
248,312,28403,6,0,L|175:320,1,70,2|0,3:2|0:0,0:0:0:0:
87,331,28748,1,8,0:0:0:0:
25,159,29093,1,2,3:2:0:0:
25,159,29265,1,2,3:2:0:0:
83,88,29438,1,8,0:0:0:0:
169,117,29610,6,0,P|234:134|296:98,1,140,2|2,3:2|3:2,0:0:0:0:
345,23,30127,1,8,0:0:0:0:
429,58,30300,2,0,B|450:87|450:87|434:131|437:191,1,140,2|2,3:2|3:2,0:0:0:0:
457,278,30817,1,8,0:0:0:0:
457,278,30989,1,2,3:2:0:0:
340,253,31162,6,0,P|285:270|273:312,1,105,2|0,3:2|0:0,0:0:0:0:
274,357,31507,2,0,L|198:348,1,70,8|0,0:0|0:0,0:0:0:0:
128,298,31852,1,0,3:0:0:0:
128,298,32024,1,0,3:0:0:0:
45,336,32196,1,10,0:0:0:0:
3,254,32369,6,0,P|-4:181|15:116,1,140,2|0,3:2|3:0,0:0:0:0:
69,44,32886,1,8,0:0:0:0:
69,44,33058,1,0,3:0:0:0:
148,89,33231,2,0,L|217:92,1,70,2|0,0:0|3:0,0:0:0:0:
308,99,33576,1,8,0:0:0:0:
308,99,33748,1,0,3:0:0:0:
305,218,33920,6,0,P|298:253|305:290,1,70,4|0,3:2|0:0,0:0:0:0:
359,358,34265,1,8,0:0:0:0:
502,245,34610,1,2,3:2:0:0:
502,245,34783,1,2,3:2:0:0:
428,191,34955,1,8,0:0:0:0:
364,255,35127,6,0,P|296:278|233:256,1,140,2|2,3:2|3:2,0:0:0:0:
170,191,35644,1,8,0:0:0:0:
234,127,35817,2,0,P|302:104|365:126,1,140,2|2,3:2|3:2,0:0:0:0:
428,191,36334,1,8,0:0:0:0:
428,191,36507,1,2,3:2:0:0:
495,92,36679,6,0,B|507:26|507:26|486:33|467:33,1,105,2|0,3:2|0:0,0:0:0:0:
426,49,37024,2,0,L|357:36,1,70,10|2,0:0|0:0,0:0:0:0:
266,25,37369,1,0,3:0:0:0:
266,25,37541,1,2,3:2:0:0:
209,96,37714,1,8,0:0:0:0:
251,177,37886,6,0,P|251:248|211:301,1,140,2|2,3:2|3:2,0:0:0:0:
130,341,38403,1,8,0:0:0:0:
89,261,38576,2,0,P|88:189|128:136,1,140,2|2,3:2|3:2,0:0:0:0:
209,96,39093,1,8,0:0:0:0:
209,96,39265,1,0,3:0:0:0:
287,142,39438,6,0,L|358:132,1,70,2|0,3:2|0:0,0:0:0:0:
446,119,39783,1,8,0:0:0:0:
393,292,40127,1,2,3:2:0:0:
393,292,40300,1,2,3:2:0:0:
307,261,40472,1,8,0:0:0:0:
236,318,40645,6,0,P|179:347|106:332,1,140,2|2,3:2|3:2,0:0:0:0:
25,290,41162,1,8,0:0:0:0:
3,201,41334,2,0,B|18:97|18:97|32:117|50:118,1,140,2|2,3:2|3:2,0:0:0:0:
120,170,41852,1,8,0:0:0:0:
120,170,42024,1,2,3:2:0:0:
220,106,42196,6,0,B|276:96|265:138|317:132,1,105,2|0,3:2|0:0,0:0:0:0:
357,109,42541,2,0,P|388:98|425:105,1,70,8|0,0:0|0:0,0:0:0:0:
497,158,42886,1,0,3:0:0:0:
497,158,43058,1,0,3:0:0:0:
478,247,43231,1,8,0:0:0:0:
389,265,43403,6,0,P|317:264|264:304,1,140,2|0,3:2|3:0,0:0:0:0:
200,367,43920,1,8,0:0:0:0:
200,367,44093,1,0,3:0:0:0:
115,334,44265,2,0,P|110:298|103:264,1,70,2|0,0:0|3:0,0:0:0:0:
59,185,44610,1,8,0:0:0:0:
141,97,44783,1,0,3:0:0:0:
141,97,44869,1,0,3:0:0:0:
141,97,44955,6,0,P|168:88|200:86,1,59.5000011348725,4|0,3:2|0:0,0:0:0:0:
276,83,45300,1,8,0:0:0:0:
405,167,45645,1,0,3:0:0:0:
405,167,45817,1,0,3:0:0:0:
278,255,46162,6,0,P|250:246|219:244,1,59.5000011348725,10|0,0:0|0:0,0:0:0:0:
156,288,46507,1,0,3:0:0:0:
201,350,46679,2,0,P|228:359|260:361,1,59.5000011348725,8|0,0:0|0:0,0:0:0:0:
323,318,47024,1,0,3:0:0:0:
323,318,47196,1,0,3:0:0:0:
395,289,47369,2,0,P|424:291|452:300,1,59.5000011348725,10|0,0:0|0:0,0:0:0:0:
436,181,47714,5,12,0:0:0:0:
436,181,47886,1,0,3:0:0:0:
430,62,48058,1,8,0:0:0:0:
430,62,48231,1,0,3:0:0:0:
330,126,48403,1,10,0:0:0:0:
436,181,48576,1,0,3:0:0:0:
172,99,48920,6,0,P|178:155|180:210,1,110.249996635437,4|0,3:2|0:0,0:0:0:0:
182,256,49265,1,8,0:0:0:0:
114,323,49438,1,8,0:0:0:0:
32,276,49610,1,8,0:0:0:0:
63,185,49783,2,0,L|57:149,3,36.749998878479,8|8|8|8,0:0|0:0|0:0|0:0,0:0:0:0:
23,115,50127,2,0,L|29:79,3,36.749998878479,10|8|8|8,0:0|0:0|0:0|0:0,0:0:0:0:
57,46,50460,6,0,P|93:35|137:44,1,77.0000023498536,4|0,3:2|0:0,0:0:0:0:
208,104,50804,1,8,0:0:0:0:
172,197,50977,2,0,P|158:268|195:339,1,154.000004699707,2|0,3:2|3:0,0:0:0:0:
293,323,51494,2,0,P|307:252|270:181,1,154.000004699707,10|0,0:0|3:0,0:0:0:0:
208,104,52011,5,2,3:2:0:0:
278,32,52184,2,0,P|315:19|352:14,1,77.0000023498536,8|0,0:0|0:0,0:0:0:0:
441,58,52528,2,0,P|454:95|459:132,1,77.0000023498536,2|0,3:2|3:0,0:0:0:0:
470,232,52873,1,10,0:0:0:0:
240,358,53218,6,0,P|202:348|164:346,1,77.0000023498536,2|0,3:2|0:0,0:0:0:0:
89,279,53563,1,8,0:0:0:0:
151,200,53735,2,0,P|224:183|289:221,1,154.000004699707,0|0,3:0|3:0,0:0:0:0:
381,180,54253,2,0,L|391:104,1,77.0000023498536,10|2,0:0|0:0,0:0:0:0:
298,11,54597,5,2,3:2:0:0:
298,11,54770,1,2,3:2:0:0:
207,53,54942,1,10,0:0:0:0:
108,32,55115,2,0,P|37:51|10:122,1,154.000004699707,2|2,3:2|3:2,0:0:0:0:
34,218,55632,1,10,0:0:0:0:
260,87,55977,6,0,L|251:166,1,77.0000023498536,4|0,3:2|0:0,0:0:0:0:
241,263,56322,1,8,0:0:0:0:
148,299,56494,2,0,P|77:313|6:276,1,154.000004699707,2|0,3:2|3:0,0:0:0:0:
22,178,57011,2,0,P|93:164|164:201,1,154.000004699707,10|0,0:0|3:0,0:0:0:0:
241,263,57528,5,2,3:2:0:0:
315,195,57701,2,0,L|303:115,1,77.0000023498536,8|0,0:0|0:0,0:0:0:0:
339,24,58046,2,0,P|373:10|414:15,1,77.0000023498536,2|0,3:2|3:0,0:0:0:0:
498,65,58391,1,10,0:0:0:0:
268,189,58735,6,0,L|280:266,1,77.0000023498536,2|0,3:2|0:0,0:0:0:0:
243,358,59080,1,8,0:0:0:0:
155,309,59253,2,0,P|88:285|9:308,1,154.000004699707,0|0,3:0|3:0,0:0:0:0:
7,206,59770,2,0,B|-3:168|-3:168|12:132,1,77.0000023498536,10|2,0:0|0:0,0:0:0:0:
117,53,60115,5,2,3:2:0:0:
117,53,60287,1,2,3:2:0:0:
185,126,60460,1,10,0:0:0:0:
267,70,60632,2,0,P|348:77|420:90,1,154.000004699707,2|8,3:2|3:0,0:0:0:0:
499,150,61149,1,10,0:0:0:0:
270,277,61494,6,0,P|257:239|263:201,1,77.0000023498536,4|0,3:2|3:0,0:0:0:0:
308,113,61839,1,10,0:0:0:0:
258,26,62011,2,0,B|206:14|206:14|154:38|154:38|110:26,1,154.000004699707,2|10,0:0|0:0,0:0:0:0:
10,110,62528,1,8,0:0:0:0:
10,110,62615,1,8,0:0:0:0:
10,110,62701,6,0,L|22:187,1,77.0000023498536,4|0,3:2|0:0,0:0:0:0:
3,284,63046,1,2,3:2:0:0:
73,355,63218,2,0,P|109:360|145:338,1,77.0000023498536,8|2,0:0|0:0,0:0:0:0:
179,248,63563,2,0,L|260:261,1,77.0000023498536,2|0,3:2|3:0,0:0:0:0:
266,160,63908,2,0,L|189:147,1,77.0000023498536,10|0,0:0|0:0,0:0:0:0:
246,28,64253,6,0,P|281:14|321:21,1,77.0000023498536,4|0,3:2|0:0,0:0:0:0:
402,74,64597,1,8,0:0:0:0:
449,162,64770,2,0,P|418:238|408:316,1,154.000004699707,2|0,3:2|3:0,0:0:0:0:
321,360,65287,2,0,P|313:321|295:286,1,77.0000023498536,10|0,0:0|0:0,0:0:0:0:
189,212,65632,5,2,3:2:0:0:
189,212,65804,1,2,3:2:0:0:
143,122,65977,2,0,P|156:84|179:52,1,77.0000023498536,10|0,0:0|3:0,0:0:0:0:
272,21,66322,1,2,0:0:0:0:
340,93,66494,2,0,L|416:103,1,77.0000023498536,2|8,3:2|0:0,0:0:0:0:
484,175,66839,1,2,0:0:0:0:
401,276,67011,6,0,L|322:265,1,77.0000023498536,4|0,3:2|3:0,0:0:0:0:
244,326,67356,1,10,0:0:0:0:
164,265,67528,2,0,P|91:252|32:298,1,154.000004699707,2|10,3:2|0:0,0:0:0:0:
4,169,68046,2,0,L|13:129,3,38.5000011749268,0|0|10|8,3:0|3:0|3:2|3:0,0:0:0:0:
47,94,68391,6,0,B|85:88|85:88|121:112,1,77.0000023498536,8|8,3:0|3:0,0:0:0:0:
213,135,68735,1,8,3:0:0:0:
300,84,68908,1,8,3:0:0:0:
394,115,69080,2,0,L|402:152,3,38.5000011749268,0|0|0|0,3:0|3:0|3:0|3:0,0:0:0:0:
443,182,69425,2,0,L|434:219,3,38.5000011749268,2|0|0|0,3:2|3:0|3:0|3:0,0:0:0:0:
407,262,69770,6,0,P|369:269|329:253,1,77.0000023498536,4|0,3:2|0:0,0:0:0:0:
253,196,70115,1,8,0:0:0:0:
162,154,70287,2,0,B|124:140|124:140|10:164,1,154.000004699707,2|0,3:2|3:0,0:0:0:0:
21,263,70804,2,0,B|59:277|59:277|173:253,1,154.000004699707,10|0,0:0|3:0,0:0:0:0:
253,196,71322,5,2,3:2:0:0:
330,258,71494,2,0,P|340:296|337:334,1,77.0000023498536,8|0,0:0|0:0,0:0:0:0:
427,288,71839,2,0,P|424:249|434:212,1,77.0000023498536,2|0,3:2|3:0,0:0:0:0:
490,130,72184,1,10,0:0:0:0:
243,42,72528,6,0,P|204:39|167:49,1,77.0000023498536,2|0,3:2|0:0,0:0:0:0:
82,101,72873,1,8,0:0:0:0:
77,201,73046,2,0,P|26:241|18:179,1,154.000004699707,0|0,3:0|3:0,0:0:0:0:
82,101,73563,2,0,P|120:98|157:108,1,77.0000023498536,10|2,0:0|0:0,0:0:0:0:
275,50,73908,5,2,3:2:0:0:
275,50,74080,1,2,3:2:0:0:
373,70,74253,1,10,0:0:0:0:
348,166,74425,2,0,B|301:232|359:247|308:312,1,154.000004699707,2|0,3:2|3:0,0:0:0:0:
226,367,74942,1,10,0:0:0:0:
19,207,75287,6,0,P|56:197|94:199,1,77.0000023498536,4|0,3:2|0:0,0:0:0:0:
189,230,75632,1,8,0:0:0:0:
263,162,75804,2,0,B|320:109|320:109|398:133,1,154.000004699707,2|0,3:2|3:0,0:0:0:0:
476,187,76322,2,0,B|419:240|419:240|341:216,1,154.000004699707,10|0,0:0|3:0,0:0:0:0:
263,162,76839,5,2,3:2:0:0:
189,230,77011,2,0,P|193:271|195:308,1,77.0000023498536,8|0,0:0|0:0,0:0:0:0:
94,313,77356,2,0,P|90:272|88:235,1,77.0000023498536,2|0,3:2|3:0,0:0:0:0:
134,147,77701,1,10,0:0:0:0:
370,277,78046,6,0,P|374:236|376:199,1,77.0000023498536,2|0,3:2|0:0,0:0:0:0:
385,100,78391,1,8,0:0:0:0:
313,29,78563,2,0,P|236:6|171:34,1,154.000004699707,0|0,3:0|3:0,0:0:0:0:
88,90,79080,2,0,P|49:94|11:92,1,77.0000023498536,10|2,0:0|3:2,0:0:0:0:
32,220,79425,5,10,0:0:0:0:
32,220,79597,2,0,L|52:298,1,77.0000023498536,0|0,3:0|3:0,0:0:0:0:
164,228,79942,1,10,0:0:0:0:
164,228,80115,2,0,L|184:150,1,77.0000023498536,0|0,3:0|3:0,0:0:0:0:
289,230,80460,1,10,0:0:0:0:
409,20,80804,6,0,P|343:3|278:52,1,154.000004699707,4|10,3:2|0:0,0:0:0:0:
203,119,81322,2,0,L|126:106,1,77.0000023498536,2|8,0:0|3:0,0:0:0:0:
46,165,81666,1,10,0:0:0:0:
46,165,81753,1,8,0:0:0:0:
46,165,81839,1,8,0:0:0:0:
72,297,82011,6,0,B|150:304|132:247|213:251,1,154.000004699707,4|2,3:2|3:2,0:0:0:0:
305,293,82528,1,8,0:0:0:0:
424,237,82701,2,0,P|408:160|389:88,1,154.000004699707,2|0,3:2|3:0,0:0:0:0:
308,26,83218,1,10,0:0:0:0:
133,221,83563,6,0,P|91:219|56:208,1,77.0000023498536,4|0,3:2|0:0,0:0:0:0:
8,121,83908,1,8,0:0:0:0:
71,43,84080,2,0,P|147:33|211:77,1,154.000004699707,2|0,3:2|3:0,0:0:0:0:
299,117,84597,2,0,P|340:115|376:104,1,77.0000023498536,10|0,0:0|0:0,0:0:0:0:
496,152,84942,5,2,3:2:0:0:
496,152,85115,1,0,3:0:0:0:
459,244,85287,2,0,P|447:280|446:319,1,77.0000023498536,10|0,0:0|3:0,0:0:0:0:
360,372,85632,1,2,0:0:0:0:
271,325,85804,2,0,P|230:327|194:338,1,77.0000023498536,2|8,3:2|0:0,0:0:0:0:
98,362,86149,1,2,0:0:0:0:
54,238,86322,6,0,P|54:199|66:162,1,77.0000023498536,4|0,3:2|3:0,0:0:0:0:
114,75,86666,1,12,0:0:0:0:
206,114,86839,1,10,0:0:0:0:
206,114,86925,1,8,0:0:0:0:
206,114,87011,2,0,L|290:105,1,77.0000023498536,8|8,0:0|3:0,0:0:0:0:
377,139,87356,1,8,0:0:0:0:
334,48,87528,1,2,3:2:0:0:
309,176,87701,5,12,0:0:0:0:
