osu file format v14

[General]
AudioFilename: audio.mp3
AudioLeadIn: 0
PreviewTime: 50127
Countdown: 0
SampleSet: Soft
StackLeniency: 0.7
Mode: 0
LetterboxInBreaks: 0
WidescreenStoryboard: 0

[Editor]
DistanceSpacing: 1.2
BeatDivisor: 4
GridSize: 4
TimelineZoom: 2.599999

[Metadata]
Title:Iolite (TV Size)
TitleUnicode:アイオライト (TV Size)
Artist:joy
ArtistUnicode:joy
Creator:kunka
Version:Easy
Source:エウレカセブンAO
Tags:ed ending anime japanese pop jpop j-pop EUREKA SEVEN AO ASTRAL OCEAN kunkakunkakunkakunka
BeatmapID:3185809
BeatmapSetID:1559665

[Difficulty]
HPDrainRate:3
CircleSize:3
OverallDifficulty:3
ApproachRate:4
SliderMultiplier:0.9
SliderTickRate:1

[Events]
//Background and Video events
0,0,"BG.jpg",0,0
Video,9,"Iolite.mp4"
//Break Periods
//Storyboard Layer 0 (Background)
//Storyboard Layer 1 (Fail)
//Storyboard Layer 2 (Pass)
//Storyboard Layer 3 (Foreground)
//Storyboard Layer 4 (Overlay)
//Storyboard Sound Samples

[TimingPoints]
840,344.827586206897,4,2,2,20,1,0
840,-111.111111111111,4,2,2,20,0,0
11184,-111.111111111111,4,2,2,30,0,0
11852,344.827586206897,4,2,1,70,1,0
11852,-111.111111111111,4,2,1,70,0,0
22886,-111.111111111111,4,2,1,50,0,0
44955,-111.111111111111,4,2,1,45,0,0
47714,-111.111111111111,4,2,1,60,0,0
48920,-111.111111111111,4,2,1,65,0,0
50460,344.827586206897,4,2,1,70,1,0
50460,-111.111111111111,4,2,1,70,0,1
69080,-111.111111111111,4,2,1,65,0,1
69425,-111.111111111111,4,2,1,60,0,1
69684,-111.111111111111,4,2,1,60,0,0
69770,-111.111111111111,4,2,1,70,0,1
87701,-111.111111111111,4,2,1,70,0,0

[Colours]
Combo1 : 255,112,43
Combo2 : 0,213,0
Combo3 : 0,234,234
Combo4 : 255,85,85
Combo5 : 213,213,0
Combo6 : 255,128,255

[HitObjects]
223,45,840,6,0,P|263:38|308:37,2,80.9999975280763,8|8|8,0:0|0:0|0:0,0:0:0:0:
152,112,1874,1,8,0:0:0:0:
81,179,2219,2,0,P|40:172|-4:171,2,80.9999975280763,8|8|8,0:0|0:0|0:0,0:0:0:0:
146,250,3253,1,10,0:0:0:0:
211,321,3598,6,0,P|251:314|296:313,1,80.9999975280763,10|10,3:2|0:0,0:0:0:0:
360,244,4288,2,0,P|361:203|368:163,1,80.9999975280763,8|10,0:0|0:0,0:0:0:0:
434,92,4977,2,0,P|472:102|514:94,2,80.9999975280763,8|8|8,0:0|0:0|0:0,0:0:0:0:
346,49,6012,1,8,0:0:0:0:
249,33,6357,6,0,P|208:34|168:41,1,80.9999975280763,10|10,3:2|0:0,0:0:0:0:
108,117,7046,2,0,P|109:157|116:197,1,80.9999975280763,8|8,0:0|0:0,0:0:0:0:
89,291,7736,2,0,P|51:301|11:293,2,80.9999975280763,10|10|10,3:2|0:0|0:0,0:0:0:0:
183,267,8771,1,10,0:0:0:0:
275,297,9115,6,0,P|282:336|283:377,2,80.9999975280763,10|8|8,3:2|0:0|0:0,0:0:0:0:
256,201,10150,1,10,0:0:0:0:
175,146,10495,2,0,P|134:147|94:154,1,80.9999975280763,10|8,3:2|0:0,0:0:0:0:
0,176,11184,1,2,0:0:0:0:
119,30,11852,6,0,P|159:31|199:38,1,80.9999975280763,4|8,3:2|0:0,0:0:0:0:
294,57,12541,1,0,3:0:0:0:
215,179,13058,2,0,P|191:232|213:295,1,121.499996292114,2|8,3:2|0:0,0:0:0:0:
284,350,13920,2,0,P|324:352|364:358,1,80.9999975280763,2|8,0:0|0:0,0:0:0:0:
458,333,14610,6,0,L|462:250,1,80.9999975280763,4|8,3:2|0:0,0:0:0:0:
467,154,15300,1,0,3:0:0:0:
415,17,15817,2,0,B|352:37|356:-10|297:7,1,121.499996292114,0|8,3:2|0:0,0:0:0:0:
206,39,16679,1,2,0:0:0:0:
182,133,17024,1,8,0:0:0:0:
222,222,17369,6,0,P|224:264|209:306,1,80.9999975280763,4|8,3:2|0:0,0:0:0:0:
152,377,18058,1,0,3:0:0:0:
37,286,18576,2,0,P|34:225|55:165,1,121.499996292114,2|8,3:2|0:0,0:0:0:0:
114,93,19438,2,0,L|195:89,1,80.9999975280763,2|8,0:0|0:0,0:0:0:0:
273,31,20127,6,0,L|354:35,1,80.9999975280763,4|8,3:2|0:0,0:0:0:0:
423,102,20817,1,0,3:0:0:0:
467,240,21334,2,0,P|410:252|351:225,1,121.499996292114,2|8,3:2|0:0,0:0:0:0:
285,158,22196,1,2,0:0:0:0:
193,124,22541,1,10,0:0:0:0:
96,132,22886,6,0,P|55:147|22:169,1,80.9999975280763,4|8,3:2|0:0,0:0:0:0:
6,263,23576,1,2,3:2:0:0:
116,358,24093,2,0,P|155:358|198:351,1,80.9999975280763,2|2,3:2|3:2,0:0:0:0:
259,276,24783,2,0,P|320:275|380:285,1,121.499996292114,2|8,3:2|0:0,0:0:0:0:
460,232,25645,6,0,B|475:194|475:194|460:152,1,80.9999975280763,2|10,3:2|0:0,0:0:0:0:
416,70,26334,1,0,3:0:0:0:
290,144,26852,2,0,P|277:183|284:228,1,80.9999975280763,2|2,3:2|3:2,0:0:0:0:
226,301,27541,2,0,P|171:329|113:316,1,121.499996292114,2|8,3:2|0:0,0:0:0:0:
32,266,28403,6,0,L|29:185,1,80.9999975280763,2|8,3:2|0:0,0:0:0:0:
56,91,29093,1,2,3:2:0:0:
195,48,29610,2,0,P|233:49|281:59,1,80.9999975280763,2|2,3:2|3:2,0:0:0:0:
349,120,30300,2,0,L|339:246,1,121.499996292114,2|8,3:2|0:0,0:0:0:0:
436,247,31162,6,0,L|442:162,1,80.9999975280763,2|8,3:2|0:0,0:0:0:0:
452,69,31852,1,0,3:0:0:0:
314,21,32369,2,0,B|253:22|276:73|208:70,1,121.499996292114,2|8,3:2|0:0,0:0:0:0:
115,95,33231,2,0,P|100:132|94:173,1,80.9999975280763,2|8,0:0|0:0,0:0:0:0:
187,200,33920,6,0,P|201:237|207:278,1,80.9999975280763,4|8,3:2|0:0,0:0:0:0:
164,365,34610,1,2,3:2:0:0:
44,281,35127,2,0,P|49:240|63:203,1,80.9999975280763,2|2,3:2|3:2,0:0:0:0:
138,140,35817,2,0,P|197:147|255:170,1,121.499996292114,2|8,3:2|0:0,0:0:0:0:
334,224,36679,6,0,P|373:218|411:202,1,80.9999975280763,2|10,3:2|0:0,0:0:0:0:
490,145,37369,1,0,3:0:0:0:
373,57,37886,2,0,P|333:62|295:78,1,80.9999975280763,2|2,3:2|3:2,0:0:0:0:
210,126,38576,2,0,B|151:142|158:87|94:110,1,121.499996292114,2|8,3:2|0:0,0:0:0:0:
36,187,39438,6,0,P|22:224|16:264,1,80.9999975280763,2|8,3:2|0:0,0:0:0:0:
71,344,40127,1,2,3:2:0:0:
211,302,40645,2,0,P|205:261|190:224,1,80.9999975280763,2|2,3:2|3:2,0:0:0:0:
169,129,41334,2,0,B|200:104|224:69|224:69|262:80,1,121.499996292114,2|8,3:2|0:0,0:0:0:0:
338,140,42196,6,0,P|322:177|317:217,1,80.9999975280763,2|8,3:2|0:0,0:0:0:0:
363,302,42886,1,0,3:0:0:0:
498,247,43403,2,0,P|490:186|466:130,1,121.499996292114,2|8,3:2|0:0,0:0:0:0:
373,102,44265,2,0,P|337:118|291:115,1,80.9999975280763,2|8,0:0|0:0,0:0:0:0:
202,89,44955,6,0,P|165:72|124:74,1,80.9999975280763,4|8,3:2|0:0,0:0:0:0:
40,122,45645,1,0,3:0:0:0:
105,252,46162,2,0,B|176:239|176:239|193:220|193:220|217:216,1,121.499996292114,10|8,0:0|0:0,0:0:0:0:
296,271,47024,2,0,P|314:276|335:277,2,40.4999987640381,0|0|10,3:0|3:0|0:0,0:0:0:0:
256,192,47714,12,4,48920,3:2:0:0:
314,184,50460,6,0,P|369:170|429:194,1,121.499996292114,4|2,3:2|3:2,0:0:0:0:
420,338,51494,2,0,P|365:352|305:328,1,121.499996292114,10|2,0:0|3:2,0:0:0:0:
169,280,52528,1,2,3:2:0:0:
72,292,52873,1,10,0:0:0:0:
16,211,53218,6,0,P|17:170|26:126,1,80.9999975280763,2|8,3:2|0:0,0:0:0:0:
187,24,54253,1,10,0:0:0:0:
253,94,54597,2,0,P|292:87|333:85,2,80.9999975280763,2|10|0,3:2|0:0|0:0,0:0:0:0:
197,174,55632,1,10,0:0:0:0:
263,244,55977,6,0,B|315:284|327:230|376:270,1,121.499996292114,4|2,3:2|3:2,0:0:0:0:
488,177,57011,2,0,P|483:113|453:62,1,121.499996292114,10|2,0:0|3:2,0:0:0:0:
314,22,58046,1,2,3:2:0:0:
223,56,58391,1,10,0:0:0:0:
126,66,58735,6,0,P|83:63|43:43,1,80.9999975280763,2|8,3:2|0:0,0:0:0:0:
1,236,59770,1,10,0:0:0:0:
76,296,60115,2,0,P|69:335|67:376,2,80.9999975280763,2|10|0,3:2|0:0|0:0,0:0:0:0:
137,220,61149,1,10,0:0:0:0:
62,160,61494,5,4,3:2:0:0:
111,22,62011,2,0,P|150:19|190:27,1,80.9999975280763,2|10,0:0|0:0,0:0:0:0:
273,78,62701,2,0,P|312:81|352:73,1,80.9999975280763,4|2,3:2|3:2,0:0:0:0:
492,31,63563,2,0,P|507:68|507:109,1,80.9999975280763,2|10,3:2|0:0,0:0:0:0:
458,193,64253,6,0,B|422:244|477:251|440:307,1,121.499996292114,4|2,3:2|3:2,0:0:0:0:
306,367,65287,1,10,0:0:0:0:
213,336,65632,2,0,P|173:327|130:336,1,80.9999975280763,2|10,3:2|0:0,0:0:0:0:
36,331,66322,2,0,P|38:291|46:251,1,80.9999975280763,2|8,0:0|0:0,0:0:0:0:
66,155,67011,5,4,3:2:0:0:
140,92,67356,2,0,P|97:59|32:64,2,121.499996292114,10|10|8,0:0|0:0|3:0,0:0:0:0:
185,178,68735,1,8,3:0:0:0:
111,241,69080,2,0,L|71:245,2,40.4999987640381,0|0|2,3:0|3:0|3:2,0:0:0:0:
156,327,69770,6,0,P|212:350|270:336,1,121.499996292114,4|2,3:2|3:2,0:0:0:0:
382,243,70804,2,0,P|437:221|495:235,1,121.499996292114,10|2,0:0|3:2,0:0:0:0:
485,89,71839,1,2,3:2:0:0:
410,28,72184,1,10,0:0:0:0:
323,69,72528,6,0,L|306:149,1,80.9999975280763,2|8,3:2|0:0,0:0:0:0:
350,337,73563,1,10,0:0:0:0:
430,282,73908,2,0,P|469:292|504:311,2,80.9999975280763,2|10|0,3:2|0:0|0:0,0:0:0:0:
349,227,74942,1,10,0:0:0:0:
269,282,75287,6,0,P|213:304|155:289,1,121.499996292114,4|2,3:2|3:2,0:0:0:0:
72,169,76322,2,0,B|113:117|60:103|101:55,1,121.499996292114,10|2,0:0|3:2,0:0:0:0:
244,20,77356,1,2,3:2:0:0:
339,38,77701,1,10,0:0:0:0:
408,106,78046,6,0,P|425:143|430:185,1,80.9999975280763,2|8,3:2|0:0,0:0:0:0:
273,298,79080,1,10,0:0:0:0:
187,252,79425,2,0,P|132:239|75:266,2,121.499996292114,10|10|10,0:0|0:0|0:0,0:0:0:0:
273,298,80804,5,4,3:2:0:0:
409,246,81322,2,0,P|404:202|396:164,1,80.9999975280763,2|10,0:0|0:0,0:0:0:0:
317,109,82011,2,0,P|273:113|235:122,1,80.9999975280763,4|2,3:2|3:2,0:0:0:0:
145,154,82701,2,0,P|79:163|37:133,1,121.499996292114,2|10,3:2|0:0,0:0:0:0:
54,37,83563,6,0,P|120:28|162:58,1,121.499996292114,4|2,3:2|3:2,0:0:0:0:
251,173,84597,1,10,0:0:0:0:
328,114,84942,2,0,P|368:106|414:107,1,80.9999975280763,2|10,3:2|0:0,0:0:0:0:
420,203,85632,2,0,P|380:211|334:210,1,80.9999975280763,2|8,0:0|0:0,0:0:0:0:
251,173,86322,5,4,3:2:0:0:
156,195,86666,1,12,0:0:0:0:
168,291,87011,2,0,P|155:307|148:327,2,40.4999987640381,8|8|8,0:0|3:0|0:0,0:0:0:0:
263,269,87701,1,12,0:0:0:0:
