osu file format v14

[General]
AudioFilename: audio.mp3
AudioLeadIn: 0
PreviewTime: 92682
Countdown: 0
SampleSet: Soft
StackLeniency: 0.3
Mode: 0
LetterboxInBreaks: 0
EpilepsyWarning: 1
WidescreenStoryboard: 1

[Editor]
Bookmarks: 21696,48393,59753,82475
DistanceSpacing: 1.7
BeatDivisor: 4
GridSize: 8
TimelineZoom: 1.7

[Metadata]
Title:YEAH RIGHT
TitleUnicode:YEAH RIGHT
Artist:Joji
ArtistUnicode:Joji
Creator:Mortem
Version:HARD
Source:
Tags:lofi 88rising empire records filthy frank george miller japan gordon123 kittyadventure gokugohan12468 smau5 ballads 1
BeatmapID:1714830
BeatmapSetID:817776

[Difficulty]
HPDrainRate:6.5
CircleSize:4.5
OverallDifficulty:6.5
ApproachRate:7.5
SliderMultiplier:1.84
SliderTickRate:1

[Events]
//Background and Video events
0,0,"background.jpg",0,0
//Break Periods
//Storyboard Layer 0 (Background)
//Storyboard Layer 1 (Fail)
//Storyboard Layer 2 (Pass)
//Storyboard Layer 3 (Foreground)
//Storyboard Sound Samples

[TimingPoints]
40,710.059171597633,4,2,1,60,1,0
11375,710.059171597633,4,2,1,60,1,0
21670,-100,4,2,0,25,0,0
22735,-100,4,2,3,60,0,0
23801,-100,4,2,2,60,0,0
24156,-100,4,2,1,60,0,0
24688,-100,4,2,2,60,0,0
26463,-100,4,2,1,60,0,0
26996,-100,4,2,2,60,0,0
27528,-100,4,2,1,60,0,0
29481,-100,4,2,2,60,0,0
29836,-100,4,2,3,60,0,0
30369,-100,4,2,4,60,0,0
34096,-100,4,2,3,60,0,0
35161,-100,4,2,2,60,0,0
35517,-100,4,2,1,60,0,0
36049,-100,4,2,2,60,0,0
37824,-100,4,2,1,60,0,0
38357,-100,4,2,2,60,0,0
38889,-100,4,2,1,60,0,0
40842,-100,4,2,2,60,0,0
41197,-100,4,2,3,60,0,0
41730,-100,4,2,4,60,0,0
47232,-100,4,2,0,25,0,0
48390,710.059171597633,4,2,3,60,1,0
49456,-100,4,2,2,60,0,0
49811,-100,4,2,1,60,0,0
50343,-100,4,2,2,60,0,0
52118,-100,4,2,1,60,0,0
52651,-100,4,2,2,60,0,0
53183,-100,4,2,1,60,0,0
55136,-100,4,2,2,60,0,0
55491,-100,4,2,3,60,0,0
56024,-100,4,2,4,60,0,0
59750,-100,4,2,3,60,0,0
60816,-100,4,2,2,60,0,0
61171,-100,4,2,1,60,0,0
61703,-100,4,2,2,60,0,0
63478,-100,4,2,1,60,0,0
64011,-100,4,2,2,60,0,0
64543,-100,4,2,1,60,0,0
66496,-100,4,2,2,60,0,0
66851,-100,4,2,3,60,0,0
67384,-100,4,2,4,60,0,0
71113,-100,4,2,3,60,0,0
72179,-100,4,2,2,60,0,0
72534,-100,4,2,1,60,0,0
73066,-100,4,2,2,60,0,0
74841,-100,4,2,1,60,0,0
75374,-100,4,2,2,60,0,0
75906,-100,4,2,1,60,0,0
77859,-100,4,2,2,60,0,0
78214,-100,4,2,3,60,0,0
78747,-100,4,2,4,60,0,0
82472,-100,4,2,0,25,0,0
93833,-100,4,2,3,60,0,0
94899,-100,4,2,2,60,0,0
95254,-100,4,2,1,60,0,0
95786,-100,4,2,2,60,0,0
97561,-100,4,2,1,60,0,0
98094,-100,4,2,2,60,0,0
98626,-100,4,2,1,60,0,0
100579,-100,4,2,2,60,0,0
100934,-100,4,2,3,60,0,0
101467,-100,4,2,4,60,0,0
105194,-100,4,2,3,60,0,0
106259,-100,4,2,2,60,0,0
106614,-100,4,2,1,60,0,0
107147,-100,4,2,2,60,0,0
108922,-100,4,2,1,60,0,0
109455,-100,4,2,2,60,0,0
109987,-100,4,2,1,60,0,0
111940,-100,4,2,2,60,0,0
112295,-100,4,2,3,60,0,0
112828,-100,4,2,4,60,0,0
116520,710.059171597633,4,2,3,60,1,0
117585,-100,4,2,2,60,0,0
117940,-100,4,2,1,60,0,0
118472,-100,4,2,2,60,0,0
120247,-100,4,2,1,60,0,0
120780,-100,4,2,2,60,0,0
121312,-100,4,2,1,60,0,0
123265,-100,4,2,2,60,0,0
123620,-100,4,2,3,60,0,0
124153,-100,4,2,4,60,0,0
127879,-100,4,2,3,60,0,0
128945,-100,4,2,2,60,0,0
129300,-100,4,2,1,60,0,0
129832,-100,4,2,2,60,0,0
131607,-100,4,2,1,60,0,0
132140,-100,4,2,2,60,0,0
132672,-100,4,2,1,60,0,0
134625,-100,4,2,2,60,0,0
134980,-100,4,2,3,60,0,0
135513,-100,4,2,4,60,0,0

[Colours]
Combo1 : 150,84,171
Combo2 : 83,132,172

[HitObjects]
441,306,21670,6,0,P|414:300|360:302,1,46,0|0,0:0|0:0,0:0:0:0:
331,343,22025,1,0,0:0:0:0:
274,288,22203,1,0,0:0:0:0:
205,325,22380,2,0,P|179:333|151:334,1,46,0|0,0:0|0:0,0:0:0:0:
38,235,22735,6,0,P|49:169|28:80,1,138,6|2,0:0|0:3,0:0:0:0:
82,36,23446,2,0,P|105:58|177:71,1,92,8|2,0:0|0:0,0:0:0:0:
231,38,23978,2,0,P|253:36|276:39,1,46,2|2,0:3|0:0,0:0:0:0:
335,90,24333,2,0,P|373:83|436:96,1,92,2|2,0:3|0:0,0:0:0:0:
484,143,24866,1,8,0:0:0:0:
438,206,25043,1,0,0:0:0:0:
476,279,25221,2,0,P|479:298|475:331,1,46,0|0,0:0|0:0,0:0:0:0:
323,292,25576,6,0,P|276:246|267:150,1,138,4|2,0:0|0:3,0:0:0:0:
261,98,26286,2,0,P|246:73|223:51,1,46,8|2,0:0|0:0,0:0:0:0:
179,116,26641,2,0,P|193:148|156:222,1,92,0|2,0:0|0:0,0:0:0:0:
125,257,27173,1,2,0:3:0:0:
52,118,27528,1,2,0:0:0:0:
52,118,27706,2,0,P|85:85|146:70,1,92,8|0,0:0|0:0,0:0:0:0:
204,59,28238,1,0,0:0:0:0:
331,150,28416,6,0,P|397:158|437:138,1,92,4|0,0:0|0:0,0:0:0:0:
485,107,28948,1,2,0:3:0:0:
419,149,29126,2,0,P|407:211|418:253,1,92,8|2,0:0|0:0,0:0:0:0:
362,298,29659,2,0,P|347:280|339:258,1,46,2|2,0:3|0:0,0:0:0:0:
283,203,30014,2,0,P|274:224|260:241,1,46,2|0,0:3|0:3,0:0:0:0:
200,292,30369,1,2,0:0:0:0:
129,258,30546,2,0,P|115:205|129:158,1,92,8|0,0:0|0:0,0:0:0:0:
342,43,31256,6,0,P|392:35|474:77,1,138,4|2,0:0|0:3,0:0:0:0:
411,124,31966,2,0,P|422:160|397:232,1,92,8|0,0:0|0:0,0:0:0:0:
363,274,32499,1,2,0:3:0:0:
291,243,32676,2,0,P|239:227|146:256,1,138,2|2,0:0|0:0,0:0:0:0:
96,200,33386,2,0,P|101:169|99:144,1,46,8|0,0:0|0:0,0:0:0:0:
30,118,33741,2,0,P|25:149|27:174,1,46,2|0,0:0|0:0,0:0:0:0:
104,299,34096,6,0,P|158:320|228:276,1,138,6|2,0:0|0:3,0:0:0:0:
297,311,34806,2,0,P|313:268|355:236,1,92,8|2,0:0|0:0,0:0:0:0:
419,208,35339,2,0,P|441:206|464:209,2,46,2|2|2,0:3|0:0|0:3,0:0:0:0:
361,154,35872,2,0,P|364:117|359:94,1,46,0|2,0:3|0:0,0:0:0:0:
288,132,36227,2,0,P|234:153|183:146,1,92,8|0,0:0|0:0,0:0:0:0:
441,350,36937,6,0,P|431:288|474:207,1,138,4|2,0:0|0:3,0:0:0:0:
442,144,37647,2,0,P|427:119|404:97,1,46,8|2,0:0|0:0,0:0:0:0:
344,72,38002,2,0,P|310:68|281:78,1,46,0|2,0:0|0:3,0:0:0:0:
231,110,38357,2,0,P|216:161|235:212,1,92,2|0,0:0|0:3,0:0:0:0:
257,268,38889,1,2,0:0:0:0:
318,318,39067,2,0,P|370:332|417:322,1,92,8|0,0:0|0:0,0:0:0:0:
178,111,39777,6,0,P|112:103|72:123,1,92,4|0,0:0|0:0,0:0:0:0:
30,162,40309,1,2,0:3:0:0:
87,214,40487,2,0,P|77:259|87:303,1,92,8|2,0:0|0:0,0:0:0:0:
144,355,41019,1,2,0:3:0:0:
144,355,41197,2,0,P|191:345|252:368,1,92,2|0,0:0|0:3,0:0:0:0:
372,286,41907,2,0,P|363:250|370:222,1,46,8|0,0:0|0:0,0:0:0:0:
422,189,42262,2,0,P|428:161|416:123,1,46,0|0,0:0|0:0,0:0:0:0:
290,64,42617,6,0,P|221:77|148:51,1,138,4|2,0:0|0:3,0:0:0:0:
100,110,43327,2,0,P|111:154|78:255,1,138,8|2,0:0|0:3,0:0:0:0:
46,308,44037,1,2,0:0:0:0:
196,350,44392,2,0,P|226:344|259:350,1,46,0|2,0:3|0:0,0:0:0:0:
299,287,44747,2,0,P|293:257|299:224,1,46,8|0,0:0|0:0,0:0:0:0:
238,186,45102,2,0,P|208:192|175:186,1,46,2|0,0:0|0:0,0:0:0:0:
63,102,45457,5,0,0:0:0:0:
215,351,48390,6,0,P|151:330|60:361,1,138,6|2,0:0|0:3,0:0:0:0:
47,275,49100,2,0,P|58:223|47:167,1,92,8|2,0:0|0:0,0:0:0:0:
163,74,49810,2,0,P|190:70|221:80,1,46,2|2,0:0|0:3,0:0:0:0:
263,129,50165,2,0,P|259:156|269:187,1,46,0|2,0:3|0:0,0:0:0:0:
318,229,50520,2,0,P|345:233|376:223,2,46,8|0|0,0:0|0:0|0:0,0:0:0:0:
30,352,51230,6,0,P|61:304|22:212,1,138,4|2,0:0|0:3,0:0:0:0:
84,163,51940,1,8,0:0:0:0:
84,163,52117,2,0,P|76:111|101:62,1,92,2|2,0:0|0:3,0:0:0:0:
147,124,52650,2,0,P|157:176|133:230,1,92,2|0,0:0|0:3,0:0:0:0:
183,280,53182,2,0,P|238:274|284:283,1,92,2|0,0:0|0:0,0:0:0:0:
344,314,53715,1,0,0:0:0:0:
468,174,54070,6,0,P|489:110|458:19,1,138,4|2,0:0|0:3,0:0:0:0:
405,80,54780,2,0,P|373:98|292:71,2,92,8|2|2,0:0|0:0|0:0,0:0:0:0:
474,42,55668,2,0,P|487:76|491:105,1,46,2|0,0:3|0:3,0:0:0:0:
464,159,56023,2,0,P|461:180|467:219,1,46,2|8,0:0|0:0,0:0:0:0:
483,280,56378,2,0,P|486:301|480:340,1,46,0|0,0:0|0:0,0:0:0:0:
162,274,56910,6,0,P|100:264|36:310,1,138,4|2,0:0|0:3,0:0:0:0:
114,347,57620,2,0,P|140:352|163:347,1,46,8|2,0:0|0:0,0:0:0:0:
340,199,58330,1,2,0:0:0:0:
340,199,58863,1,2,0:0:0:0:
474,149,59750,6,0,P|463:215|484:304,1,138,6|2,0:0|0:3,0:0:0:0:
430,348,60461,2,0,P|407:326|335:313,1,92,8|2,0:0|0:0,0:0:0:0:
281,346,60993,2,0,P|259:348|236:345,1,46,2|2,0:3|0:0,0:0:0:0:
177,294,61348,2,0,P|139:301|76:288,1,92,2|2,0:3|0:0,0:0:0:0:
28,241,61881,1,8,0:0:0:0:
74,178,62058,1,0,0:0:0:0:
36,105,62236,2,0,P|33:86|37:53,1,46,0|0,0:0|0:0,0:0:0:0:
189,92,62591,6,0,P|236:138|245:234,1,138,4|2,0:0|0:3,0:0:0:0:
251,286,63301,2,0,P|266:311|289:333,1,46,8|2,0:0|0:0,0:0:0:0:
333,268,63656,2,0,P|319:236|356:162,1,92,0|2,0:0|0:0,0:0:0:0:
387,127,64188,1,2,0:3:0:0:
460,266,64543,1,2,0:0:0:0:
460,266,64721,2,0,P|427:299|366:314,1,92,8|0,0:0|0:0,0:0:0:0:
308,325,65253,1,0,0:0:0:0:
181,234,65431,6,0,P|115:226|75:246,1,92,4|0,0:0|0:0,0:0:0:0:
27,277,65963,1,2,0:3:0:0:
93,235,66141,2,0,P|105:173|94:131,1,92,8|2,0:0|0:0,0:0:0:0:
150,86,66674,2,0,P|165:104|173:126,1,46,2|2,0:3|0:0,0:0:0:0:
229,181,67029,2,0,P|238:160|252:143,1,46,2|0,0:3|0:3,0:0:0:0:
312,92,67384,1,2,0:0:0:0:
383,126,67561,2,0,P|397:179|383:226,1,92,8|2,0:0|0:3,0:0:0:0:
170,341,68271,6,0,P|120:349|38:307,1,138,4|2,0:0|0:3,0:0:0:0:
101,260,68981,2,0,P|90:224|115:152,1,92,8|0,0:0|0:0,0:0:0:0:
149,110,69514,1,2,0:3:0:0:
221,141,69691,2,0,P|273:157|366:128,1,138,2|2,0:0|0:0,0:0:0:0:
416,184,70401,2,0,P|411:215|413:240,1,46,8|0,0:0|0:0,0:0:0:0:
482,266,70756,2,0,P|487:235|485:210,1,46,2|0,0:0|0:0,0:0:0:0:
408,85,71111,6,0,P|354:64|284:108,1,138,6|2,0:0|0:3,0:0:0:0:
215,73,71821,2,0,P|199:116|157:148,1,92,8|2,0:0|0:0,0:0:0:0:
93,176,72354,2,0,P|71:178|48:175,2,46,2|2|2,0:3|0:0|0:3,0:0:0:0:
151,230,72887,2,0,P|148:267|153:290,1,46,0|2,0:3|0:0,0:0:0:0:
224,252,73242,2,0,P|278:231|329:238,1,92,8|0,0:0|0:0,0:0:0:0:
474,33,73952,6,0,P|484:95|441:176,1,138,4|2,0:0|0:3,0:0:0:0:
407,224,74662,2,0,P|386:246|358:260,1,46,8|2,0:0|0:0,0:0:0:0:
297,274,75017,2,0,P|263:278|234:268,1,46,0|2,0:0|0:3,0:0:0:0:
177,250,75372,2,0,P|162:199|181:148,1,92,2|0,0:0|0:3,0:0:0:0:
220,101,75904,1,2,0:0:0:0:
285,58,76082,2,0,P|337:44|384:54,1,92,8|0,0:0|0:0,0:0:0:0:
178,273,76792,6,0,P|112:281|72:261,1,92,4|0,0:0|0:0,0:0:0:0:
30,222,77324,1,2,0:3:0:0:
87,170,77502,2,0,P|77:125|87:81,1,92,8|2,0:0|0:0,0:0:0:0:
144,29,78034,1,2,0:3:0:0:
144,29,78212,2,0,P|191:39|252:16,1,92,2|0,0:0|0:3,0:0:0:0:
372,98,78922,2,0,P|363:134|370:162,1,46,8|0,0:0|0:0,0:0:0:0:
422,195,79277,2,0,P|428:223|416:261,1,46,0|0,0:0|0:0,0:0:0:0:
290,320,79632,6,0,P|221:307|148:333,1,138,4|2,0:0|0:3,0:0:0:0:
100,274,80342,2,0,P|111:230|78:129,1,138,8|2,0:0|0:3,0:0:0:0:
46,76,81052,1,2,0:0:0:0:
196,34,81407,2,0,P|226:40|259:34,1,46,0|2,0:3|0:0,0:0:0:0:
299,97,81762,2,0,P|293:127|299:160,1,46
238,198,82117,2,0,P|208:192|175:198,1,46,2|0,0:0|0:0,0:0:0:0:
63,282,82472,5,2,0:0:0:0:
63,282,84247,6,0,P|47:311|45:348,2,46
113,221,84780,1,0,0:0:0:0:
183,185,84958,2,0,P|217:188|249:203,1,46
296,229,85313,1,2,0:0:0:0:
449,102,87088,6,0,P|465:73|467:36,2,46
399,163,87621,1,0,0:0:0:0:
329,199,87799,2,0,P|295:196|263:181,1,46
216,155,88154,1,2,0:0:0:0:
84,57,89750,6,0,P|73:86|78:121,1,46
109,169,90105,1,0,0:0:0:0:
167,221,90283,2,0,P|187:230|210:232,2,46
84,57,90993,5,2,0:0:0:0:
256,192,91171,12,0,92768,0:0:0:0:
297,33,93833,6,0,P|361:54|452:23,1,138,6|2,0:0|0:3,0:0:0:0:
465,109,94543,2,0,P|454:161|465:217,1,92,8|2,0:0|0:0,0:0:0:0:
349,310,95253,2,0,P|322:314|291:304,1,46,2|2,0:0|0:3,0:0:0:0:
249,255,95608,2,0,P|253:228|243:197,1,46,0|2,0:3|0:0,0:0:0:0:
194,155,95963,2,0,P|167:151|136:161,2,46,8|0|0,0:0|0:0|0:0,0:0:0:0:
482,32,96673,6,0,P|451:80|490:172,1,138,4|2,0:0|0:3,0:0:0:0:
428,221,97383,1,8,0:0:0:0:
428,221,97560,2,0,P|436:273|411:322,1,92,2|2,0:0|0:3,0:0:0:0:
365,260,98093,2,0,P|355:208|379:154,1,92,2|0,0:0|0:3,0:0:0:0:
329,104,98625,2,0,P|274:110|228:101,1,92,2|0,0:0|0:0,0:0:0:0:
168,70,99158,1,0,0:0:0:0:
44,210,99513,6,0,P|23:274|54:365,1,138,4|2,0:0|0:3,0:0:0:0:
107,304,100223,2,0,P|139:286|220:313,2,92,8|2|2,0:0|0:0|0:0,0:0:0:0:
38,342,101111,2,0,P|25:308|21:279,1,46,2|0,0:3|0:3,0:0:0:0:
48,225,101466,2,0,P|51:204|45:165,1,46,2|8,0:0|0:0,0:0:0:0:
29,104,101821,2,0,P|26:83|32:44,1,46,0|0,0:0|0:0,0:0:0:0:
309,76,102354,6,0,P|371:86|435:40,1,138,4|2,0:0|0:3,0:0:0:0:
478,109,103064,2,0,P|435:155|439:234,1,138,8|2,0:0|0:3,0:0:0:0:
470,298,103774,2,0,P|423:308|377:283,1,92,2|0,0:0|0:3,0:0:0:0:
325,238,104307,1,2,0:0:0:0:
325,238,104484,2,0,P|283:255|239:245,1,92,8|2,0:0|0:0,0:0:0:0:
45,32,105194,6,0,P|67:84|45:166,1,138,6|2,0:0|0:3,0:0:0:0:
82,231,105904,2,0,P|108:218|128:184,1,46,8|0,0:0|0:0,0:0:0:0:
182,159,106259,2,0,P|207:165|231:161,1,46,2|2,0:0|0:3,0:0:0:0:
292,119,106614,2,0,P|337:111|389:124,1,92,2|0,0:0|0:3,0:0:0:0:
447,162,107147,1,2,0:0:0:0:
447,162,107324,2,0,P|434:206|454:271,1,92,8|0,0:0|0:0,0:0:0:0:
232,293,108034,6,0,P|175:330|89:326,1,138,4|2,0:0|0:3,0:0:0:0:
36,295,108745,2,0,P|23:266|20:227,1,46,8|2,0:0|0:0,0:0:0:0:
20,173,109100,2,0,P|25:150|35:130,1,46,0|2,0:0|0:3,0:0:0:0:
92,76,109455,2,0,P|141:62|209:90,1,92,2|0,0:0|0:3,0:0:0:0:
245,113,109987,1,2,0:0:0:0:
245,113,110165,2,0,P|259:165|249:212,1,92,8|0,0:0|0:0,0:0:0:0:
70,340,110875,6,0,P|62:274|82:234,1,92,4|0,0:0|0:0,0:0:0:0:
113,186,111407,1,2,0:3:0:0:
113,186,111585,2,0,P|103:142|113:98,1,92,8|2,0:0|0:0,0:0:0:0:
173,47,112117,1,2,0:3:0:0:
238,89,112295,2,0,P|266:86|300:94,1,46,2|2,0:0|0:3,0:0:0:0:
338,143,112650,2,0,P|341:171|333:205,1,46,0|2,0:3|0:0,0:0:0:0:
283,243,113005,2,0,P|247:244|217:237,1,46,8|2,0:0|0:3,0:0:0:0:
181,187,113360,2,0,P|180:151|187:121,1,46,2|0,0:3|0:0,0:0:0:0:
320,68,113715,6,0,P|371:56|446:96,1,138,4|2,0:0|0:3,0:0:0:0:
481,162,114425,2,0,P|485:189|481:211,1,46,8|2,0:0|0:0,0:0:0:0:
441,274,114780,1,0,0:0:0:0:
38,150,116520,6,0,P|49:216|28:305,1,138,6|2,0:0|0:3,0:0:0:0:
82,349,117231,2,0,P|105:327|177:314,1,92,8|2,0:0|0:0,0:0:0:0:
231,347,117763,2,0,P|253:349|276:346,1,46,2|2,0:3|0:0,0:0:0:0:
335,295,118118,2,0,P|373:302|436:289,1,92,2|2,0:3|0:0,0:0:0:0:
484,242,118651,1,8,0:0:0:0:
438,179,118828,1,0,0:0:0:0:
476,106,119006,2,0,P|479:87|475:54,1,46,0|0,0:0|0:0,0:0:0:0:
323,93,119361,6,0,P|276:139|267:235,1,138,4|0,0:0|0:0,0:0:0:0:
261,287,120071,2,0,P|246:312|223:334,1,46,8|2,0:0|0:0,0:0:0:0:
179,269,120425,2,0,P|193:237|156:163,1,92,0|2,0:0|0:0,0:0:0:0:
125,128,120958,1,2,0:3:0:0:
52,267,121313,1,2,0:0:0:0:
52,267,121491,2,0,P|85:300|146:315,1,92,8|0,0:0|0:0,0:0:0:0:
204,326,122023,1,0,0:0:0:0:
331,235,122201,6,0,P|397:227|437:247,1,92,4|0,0:0|0:0,0:0:0:0:
485,278,122733,1,2,0:3:0:0:
419,236,122911,2,0,P|407:174|418:132,1,92,8|2,0:0|0:0,0:0:0:0:
362,87,123444,2,0,P|347:105|339:127,1,46,2|2,0:3|0:0,0:0:0:0:
283,182,123799,2,0,P|274:161|260:144,1,46,2|0,0:3|0:0,0:0:0:0:
200,93,124154,1,2,0:0:0:0:
129,127,124331,2,0,P|115:180|129:227,1,92,8|0,0:0|0:0,0:0:0:0:
342,342,125041,6,0,P|392:350|474:308,1,138,4|2,0:0|0:3,0:0:0:0:
411,261,125751,2,0,P|422:225|397:153,1,92,8|0,0:0|0:0,0:0:0:0:
363,111,126284,1,2,0:3:0:0:
291,142,126461,2,0,P|239:158|146:129,1,138,2|2,0:0|0:0,0:0:0:0:
96,185,127171,2,0,P|101:216|99:241,1,46,8|2,0:0|0:3,0:0:0:0:
30,267,127526,2,0,P|25:236|27:211,1,46,2|0,0:0|0:0,0:0:0:0:
104,86,127881,6,0,P|158:65|228:109,1,138,6|2,0:0|0:3,0:0:0:0:
297,74,128591,2,0,P|313:117|355:149,1,92,8|2,0:0|0:0,0:0:0:0:
419,177,129124,2,0,P|441:179|464:176,2,46,2|2|0,0:3|0:0|0:0,0:0:0:0:
361,231,129657,2,0,P|364:268|359:291,1,46,0|2,0:3|0:0,0:0:0:0:
288,253,130012,2,0,P|234:232|183:239,1,92,8|0,0:0|0:0,0:0:0:0:
38,34,130722,6,0,P|28:96|71:177,1,138,4|0,0:0|0:0,0:0:0:0:
105,225,131431,2,0,P|126:247|154:261,1,46,8|2,0:0|0:0,0:0:0:0:
215,275,131787,2,0,P|249:279|278:269,1,46,0|0,0:0|0:0,0:0:0:0:
335,251,132142,2,0,P|350:200|331:149,1,92,2|0,0:0|0:0,0:0:0:0:
292,102,132674,1,2,0:0:0:0:
227,59,132852,2,0,P|175:45|128:55,1,92,8|0,0:0|0:0,0:0:0:0:
334,274,133562,6,0,P|400:282|440:262,1,92,4|0,0:0|0:0,0:0:0:0:
482,223,134094,1,2,0:3:0:0:
425,171,134272,2,0,P|435:126|425:82,1,92,8|2,0:0|0:0,0:0:0:0:
368,30,134804,1,2,0:3:0:0:
368,30,134982,2,0,P|321:40|260:17,1,92,2|0,0:0|0:0,0:0:0:0:
140,99,135692,2,0,P|149:135|142:163,1,46,8|0,0:0|0:0,0:0:0:0:
90,196,136047,2,0,P|84:224|96:262,1,46,0|0,0:0|0:0,0:0:0:0:
222,321,136402,6,0,P|291:308|364:334,1,138,4|2,0:0|0:3,0:0:0:0:
412,275,137112,2,0,P|401:231|434:130,1,138,8|2,0:0|0:3,0:0:0:0:
466,77,137822,1,2,0:0:0:0:
313,41,138177,2,0,P|283:35|250:41,1,46,0|2,0:3|0:0,0:0:0:0:
212,91,138532,2,0,P|206:121|212:154,1,46,0|0,0:0|0:0,0:0:0:0:
262,191,138887,2,0,P|292:197|325:191,1,46,2|0,0:0|0:0,0:0:0:0:
412,113,139242,5,4,0:0:0:0:
