osu file format v14

[General]
AudioFilename: audio.mp3
AudioLeadIn: 0
PreviewTime: 92682
Countdown: 0
SampleSet: Soft
StackLeniency: 0.4
Mode: 0
LetterboxInBreaks: 0
EpilepsyWarning: 1
WidescreenStoryboard: 1

[Editor]
Bookmarks: 21670,48393,59750,82472,139241
DistanceSpacing: 1.3
BeatDivisor: 4
GridSize: 4
TimelineZoom: 1.7

[Metadata]
Title:YEAH RIGHT
TitleUnicode:YEAH RIGHT
Artist:Joji
ArtistUnicode:Joji
Creator:Mortem
Version:GORDON'S NORMAL
Source:
Tags:lofi 88rising empire records filthy frank george miller japan gordon123 kittyadventure gokugohan12468 smau5 ballads 1
BeatmapID:1715159
BeatmapSetID:817776

[Difficulty]
HPDrainRate:4
CircleSize:3.5
OverallDifficulty:3
ApproachRate:4
SliderMultiplier:1.54
SliderTickRate:1

[Events]
//Background and Video events
0,0,"background.jpg",0,0
//Break Periods
2,46167,47055
2,82672,92513
//Storyboard Layer 0 (Background)
//Storyboard Layer 1 (Fail)
//Storyboard Layer 2 (Pass)
//Storyboard Layer 3 (Foreground)
//Storyboard Sound Samples

[TimingPoints]
40,710.059171597633,4,2,1,60,1,0
11375,710.059171597633,4,2,1,60,1,0
21670,-100,4,2,0,25,0,0
22735,-100,4,2,3,60,0,0
23801,-100,4,2,2,60,0,0
24156,-100,4,2,1,60,0,0
24688,-100,4,2,2,60,0,0
26463,-100,4,2,1,60,0,0
26996,-100,4,2,2,60,0,0
27528,-100,4,2,1,60,0,0
29481,-100,4,2,2,60,0,0
29836,-100,4,2,3,60,0,0
30369,-100,4,2,4,60,0,0
34096,-100,4,2,3,60,0,0
35161,-100,4,2,2,60,0,0
35517,-100,4,2,1,60,0,0
36049,-100,4,2,2,60,0,0
37824,-100,4,2,1,60,0,0
38357,-100,4,2,2,60,0,0
38889,-100,4,2,1,60,0,0
40842,-100,4,2,2,60,0,0
41197,-100,4,2,3,60,0,0
41730,-100,4,2,4,60,0,0
47232,-100,4,2,0,25,0,0
48390,710.059171597633,4,2,3,60,1,0
49456,-100,4,2,2,60,0,0
49811,-100,4,2,1,60,0,0
50343,-100,4,2,2,60,0,0
52118,-100,4,2,1,60,0,0
52651,-100,4,2,2,60,0,0
53183,-100,4,2,1,60,0,0
55136,-100,4,2,2,60,0,0
55491,-100,4,2,3,60,0,0
56024,-100,4,2,4,60,0,0
59750,-100,4,2,3,60,0,0
60816,-100,4,2,2,60,0,0
61171,-100,4,2,1,60,0,0
61703,-100,4,2,2,60,0,0
63478,-100,4,2,1,60,0,0
64011,-100,4,2,2,60,0,0
64543,-100,4,2,1,60,0,0
66496,-100,4,2,2,60,0,0
66851,-100,4,2,3,60,0,0
67384,-100,4,2,4,60,0,0
71113,-100,4,2,3,60,0,0
72176,-100,4,2,2,60,0,0
72532,-100,4,2,1,60,0,0
73064,-100,4,2,2,60,0,0
74839,-100,4,2,1,60,0,0
75372,-100,4,2,2,60,0,0
75904,-100,4,2,1,60,0,0
77857,-100,4,2,2,60,0,0
78212,-100,4,2,3,60,0,0
78745,-100,4,2,4,60,0,0
82472,-100,4,2,0,25,0,0
93833,-100,4,2,3,60,0,0
94899,-100,4,2,2,60,0,0
95254,-100,4,2,1,60,0,0
95786,-100,4,2,2,60,0,0
97561,-100,4,2,1,60,0,0
98094,-100,4,2,2,60,0,0
98626,-100,4,2,1,60,0,0
100579,-100,4,2,2,60,0,0
100934,-100,4,2,3,60,0,0
101467,-100,4,2,4,60,0,0
105194,-100,4,2,3,60,0,0
106259,-100,4,2,2,60,0,0
106614,-100,4,2,1,60,0,0
107147,-100,4,2,2,60,0,0
108922,-100,4,2,1,60,0,0
109455,-100,4,2,2,60,0,0
109987,-100,4,2,1,60,0,0
111940,-100,4,2,2,60,0,0
112295,-100,4,2,3,60,0,0
112827,-100,4,2,4,60,0,0
116520,710.059171597633,4,2,3,60,1,0
117585,-100,4,2,2,60,0,0
117940,-100,4,2,1,60,0,0
118472,-100,4,2,2,60,0,0
120247,-100,4,2,1,60,0,0
120780,-100,4,2,2,60,0,0
121312,-100,4,2,1,60,0,0
123265,-100,4,2,2,60,0,0
123620,-100,4,2,3,60,0,0
124153,-100,4,2,4,60,0,0
127880,-100,4,2,3,60,0,0
128946,-100,4,2,2,60,0,0
129301,-100,4,2,1,60,0,0
129833,-100,4,2,2,60,0,0
131608,-100,4,2,1,60,0,0
132141,-100,4,2,2,60,0,0
132673,-100,4,2,1,60,0,0
134626,-100,4,2,2,60,0,0
134981,-100,4,2,3,60,0,0
135514,-100,4,2,4,60,0,0

[Colours]
Combo1 : 150,84,171
Combo2 : 83,132,172

[HitObjects]
395,83,21670,6,0,P|403:119|395:163,2,77,0|0|0,0:0|0:0|0:0,0:0:0:0:
303,122,22735,6,0,L|149:108,1,154,6|8,0:0|0:0,0:0:0:0:
92,191,23801,2,0,L|168:198,1,77,2|2,0:0|0:0,0:0:0:0:
251,254,24511,2,0,P|262:300|252:346,2,77,0|8|0,0:3|0:0|0:0,0:0:0:0:
162,300,25576,6,0,P|114:313|22:251,1,154,4|8,0:0|0:0,0:0:0:0:
114,213,26641,2,0,L|127:125,1,77,0|2,0:0|0:0,0:0:0:0:
199,70,27351,1,0,0:3:0:0:
284,121,27706,2,0,L|272:197,1,77,8|0,0:0|0:0,0:0:0:0:
335,274,28416,6,0,P|399:301|485:265,1,154,4|8,0:0|0:0,0:0:0:0:
408,199,29481,1,2,0:0:0:0:
408,199,29836,1,2,0:0:0:0:
463,115,30191,2,0,L|469:29,2,77,0|8|0,0:3|0:0|0:0,0:0:0:0:
362,113,31256,6,0,B|330:97|330:97|199:101,1,154,4|8,0:0|0:0,0:0:0:0:
112,109,32321,1,0,0:0:0:0:
112,109,32676,1,2,0:0:0:0:
50,187,33031,2,0,L|61:273,1,77,0|8,0:3|0:0,0:0:0:0:
143,318,33741,1,2,0:0:0:0:
228,266,34096,6,0,P|187:201|218:112,1,154,6|8,0:0|0:0,0:0:0:0:
276,61,35161,2,0,L|367:65,1,77,2|2,0:0|0:0,0:0:0:0:
337,166,35872,2,0,L|428:170,1,77,0|8,0:3|0:0,0:0:0:0:
502,215,36582,1,0,0:0:0:0:
436,291,36937,6,0,B|409:274|409:274|280:268,1,154,4|8,0:0|0:0,0:0:0:0:
194,305,38002,2,0,P|155:312|112:303,2,77,0|2|0,0:0|0:0|0:3,0:0:0:0:
153,213,39067,2,0,L|140:112,1,77,8|0,0:0|0:0,0:0:0:0:
225,79,39777,6,0,P|183:44|76:63,1,154,4|8,0:0|0:0,0:0:0:0:
18,124,40842,1,2,0:0:0:0:
73,207,41197,2,0,L|82:283,1,77,2|0,0:0|0:3,0:0:0:0:
168,333,41907,2,0,P|219:342|256:332,1,77,8|0,0:0|0:0,0:0:0:0:
208,243,42617,5,4,0:0:0:0:
208,243,42972,1,0,0:0:0:0:
276,170,43327,2,0,L|285:93,1,77,8|0,0:0|0:0,0:0:0:0:
364,32,44037,1,2,0:0:0:0:
448,86,44392,2,0,P|463:52|461:13,2,77,0|8|2,0:3|0:0|0:0,0:0:0:0:
365,142,45457,5,0,0:0:0:0:
189,283,48390,6,0,L|106:289,1,77,6|0,0:0|0:0,0:0:0:0:
56,205,49100,2,0,L|132:199,1,77,8|2,0:0|0:0,0:0:0:0:
213,140,49810,2,0,P|236:104|229:31,2,115.5,2|2|0,0:0|0:0|0:0,0:0:0:0:
139,72,51230,5,4,0:0:0:0:
139,72,51585,1,0,0:0:0:0:
45,35,51940,2,0,P|38:76|50:116,1,77,8|0,0:0|0:0,0:0:0:0:
120,176,52650,1,2,0:0:0:0:
77,266,53005,2,0,L|-7:282,2,77,0|8|0,0:3|0:0|0:0,0:0:0:0:
176,257,54070,6,0,B|208:284|208:284|337:275,1,154,4|8,0:0|0:0,0:0:0:0:
396,211,55135,1,2,0:0:0:0:
400,111,55490,2,0,P|454:129|493:189,2,115.5,2|2|0,0:0|0:0|0:0,0:0:0:0:
300,103,56910,6,0,L|210:110,1,77,4|0,0:0|0:0,0:0:0:0:
130,70,57620,2,0,P|129:146|194:206,2,154,8|2|0,0:0|0:0|0:0,0:0:0:0:
40,25,59395,1,2,0:0:0:0:
1,117,59750,6,0,L|12:224,1,77,6|0,0:0|0:0,0:0:0:0:
85,258,60461,1,8,0:0:0:0:
120,351,60816,2,0,L|218:357,1,77,2|2,0:0|0:0,0:0:0:0:
259,277,61526,1,0,0:3:0:0:
328,349,61881,2,0,L|404:344,1,77,8|0,0:0|0:0,0:0:0:0:
489,290,62591,6,0,B|460:265|460:265|450:150,1,154,4|8,0:0|0:0,0:0:0:0:
417,55,63656,1,0,0:0:0:0:
333,111,64011,2,0,P|274:135|199:114,2,115.5,2|2|0,0:0|0:0|0:0,0:0:0:0:
265,37,65431,5,4,0:0:0:0:
265,37,65786,1,0,0:0:0:0:
166,51,66141,2,0,L|83:56,2,77,8|2|2,0:0|0:0|0:0,0:0:0:0:
224,127,67206,2,0,P|212:161|223:222,1,77,0|8,0:3|0:0,0:0:0:0:
311,177,67916,1,2,0:3:0:0:
381,105,68271,6,0,P|412:165|371:255,1,154,4|8,0:0|0:0,0:0:0:0:
312,310,69336,1,0,0:0:0:0:
215,336,69691,2,0,L|129:334,1,77,2|0,0:0|0:3,0:0:0:0:
182,246,70401,2,0,L|96:244,1,77,8|2,0:0|0:0,0:0:0:0:
21,188,71111,6,0,P|5:139|52:54,1,154,6|8,0:0|0:0,0:0:0:0:
105,138,72176,1,2,0:0:0:0:
196,97,72532,2,0,L|272:98,1,77,2|0,0:0|0:3,0:0:0:0:
327,182,73242,2,0,L|250:180,1,77,8|0,0:0|0:0,0:0:0:0:
157,218,73952,6,0,P|118:292|148:369,1,154,4|8,0:0|0:0,0:0:0:0:
217,296,75017,2,0,L|318:301,1,77,0|2,0:0|0:0,0:0:0:0:
391,322,75727,1,0,0:3:0:0:
448,239,76082,2,0,P|466:196|460:139,1,77,8|0,0:0|0:0,0:0:0:0:
386,106,76792,6,0,B|354:134|354:134|229:131,1,154,4|8,0:0|0:0,0:0:0:0:
181,210,77857,2,0,L|278:212,2,77,2|2|0,0:0|0:0|0:3,0:0:0:0:
107,141,78922,1,8,0:0:0:0:
107,141,79277,1,0,0:0:0:0:
71,47,79632,6,0,L|238:50,1,154,4|8,0:0|0:0,0:0:0:0:
325,49,80697,1,0,0:0:0:0:
409,102,81052,2,0,P|428:144|422:196,1,77,2|0,0:0|0:3,0:0:0:0:
329,160,81762,1,0,0:0:0:0:
258,230,82117,1,2,0:0:0:0:
187,159,82472,5,2,0:0:0:0:
408,248,93833,6,0,L|331:253,1,77,6|0,0:0|0:0,0:0:0:0:
257,321,94543,1,8,0:0:0:0:
257,321,94898,1,2,0:0:0:0:
184,252,95253,2,0,L|67:246,2,115.5,2|2|0,0:0|0:0|0:0,0:0:0:0:
198,152,96674,6,0,P|172:123|165:78,1,77,4|0,0:0|0:0,0:0:0:0:
263,74,97384,1,8,0:0:0:0:
360,49,97739,2,0,L|461:43,1,77,0|2,0:0|0:0,0:0:0:0:
492,127,98449,2,0,L|415:131,1,77,0|8,0:3|0:0,0:0:0:0:
326,176,99159,1,0,0:0:0:0:
414,222,99514,6,0,P|384:258|268:257,1,154,4|8,0:0|0:0,0:0:0:0:
190,305,100579,2,0,L|199:384,2,77,2|2|0,0:0|0:0|0:3,0:0:0:0:
90,296,101644,1,8,0:0:0:0:
24,220,101999,1,0,0:0:0:0:
120,193,102354,6,0,B|102:147|102:147|124:40,1,154,4|8,0:0|0:0,0:0:0:0:
222,31,103419,2,0,L|198:135,1,77,0|2,0:0|0:0,0:0:0:0:
248,196,104129,2,0,P|278:230|319:242,2,77,0|8|2,0:3|0:0|0:0,0:0:0:0:
333,143,105194,6,0,P|392:165|479:127,1,154,6|8,0:0|0:0,0:0:0:0:
398,66,106259,1,2,0:0:0:0:
305,28,106614,2,0,L|179:22,2,115.5,2|2|0,0:0|0:0|0:0,0:0:0:0:
327,125,108034,6,0,L|233:120,1,77,4|0,0:0|0:0,0:0:0:0:
156,156,108745,1,8,0:0:0:0:
81,223,109100,2,0,P|60:187|59:144,2,77,0|2|0,0:0|0:0|0:3,0:0:0:0:
175,256,110165,2,0,L|193:341,1,77,8|0,0:0|0:0,0:0:0:0:
281,373,110875,6,0,B|300:347|300:347|431:332,1,154,4|8,0:0|0:0,0:0:0:0:
468,245,111940,1,2,0:0:0:0:
468,245,112295,1,2,0:0:0:0:
391,181,112650,2,0,L|382:99,2,77,0|8|2,0:3|0:0|0:3,0:0:0:0:
331,261,113715,6,0,P|290:292|180:270,1,154,4|8,0:0|0:0,0:0:0:0:
251,199,114780,1,0,0:0:0:0:
251,199,116520,6,0,L|241:98,1,77,6|0,0:0|0:0,0:0:0:0:
320,58,117230,2,0,L|327:134,1,77,8|2,0:0|0:0,0:0:0:0:
336,234,117940,2,0,P|296:280|221:285,2,115.5,2|2|0,0:0|0:0|0:0,0:0:0:0:
398,155,119360,5,4,0:0:0:0:
474,219,119715,2,0,L|486:307,1,77,0|8,0:0|0:0,0:0:0:0:
421,373,120425,2,0,P|394:381|334:374,1,77,0|2,0:0|0:0,0:0:0:0:
264,319,121135,2,0,L|178:313,1,77,0|8,0:3|0:0,0:0:0:0:
103,258,121845,1,0,0:0:0:0:
144,166,122200,6,0,L|137:74,2,77,4|0|8,0:0|0:0|0:0,0:0:0:0:
103,258,123265,1,2,0:0:0:0:
103,258,123620,1,2,0:0:0:0:
57,347,123975,2,0,P|111:358|146:349,1,77,0|8,0:3|0:0,0:0:0:0:
207,288,124685,1,2,0:3:0:0:
297,329,125040,6,0,B|325:355|325:355|448:358,1,154,4|8,0:0|0:0,0:0:0:0:
508,284,126105,1,0,0:0:0:0:
439,211,126460,2,0,L|347:208,1,77,2|0,0:0|0:3,0:0:0:0:
308,123,127170,2,0,L|384:125,1,77,8|2,0:0|0:0,0:0:0:0:
439,41,127880,6,0,L|273:37,1,154,6|8,0:0|0:0,0:0:0:0:
198,88,128946,1,2,0:0:0:0:
102,119,129301,2,0,P|97:71|136:9,2,115.5,2|2|0,0:0|0:0|0:0,0:0:0:0:
173,189,130721,6,0,L|184:280,1,77,4|0,0:0|0:0,0:0:0:0:
256,332,131431,1,8,0:0:0:0:
256,332,131786,1,0,0:0:0:0:
327,262,132141,2,0,L|336:185,1,77,2|0,0:0|0:3,0:0:0:0:
436,183,132851,2,0,P|429:144|404:112,1,77,8|0,0:0|0:0,0:0:0:0:
326,55,133561,6,0,B|297:82|297:82|155:88,1,154,4|8,0:0|0:0,0:0:0:0:
82,95,134626,2,0,L|69:15,2,77,2|2|0,0:0|0:0|0:3,0:0:0:0:
140,176,135691,2,0,L|127:252,1,77,8|0,0:0|0:0,0:0:0:0:
191,328,136401,6,0,P|238:348|339:308,1,154,4|8,0:0|0:0,0:0:0:0:
256,250,137466,1,0,0:0:0:0:
178,186,137821,2,0,L|168:103,1,77,2|0,0:0|0:3,0:0:0:0:
251,53,138531,2,0,L|260:129,1,77,0|2,0:0|0:0,0:0:0:0:
345,182,139241,5,4,0:0:0:0:
