osu file format v14

[General]
AudioFilename: seal.mp4.mp3
AudioLeadIn: 0
PreviewTime: 6084
Countdown: 0
SampleSet: Soft
StackLeniency: 0.7
Mode: 0
LetterboxInBreaks: 0
WidescreenStoryboard: 0

[Editor]
DistanceSpacing: 1.5
BeatDivisor: 3
GridSize: 4
TimelineZoom: 2.7

[Metadata]
Title:seal.mp4
TitleUnicode:seal.mp4
Artist:joeyclassic
ArtistUnicode:joeyclassic
Creator:StarrStyx
Version:Seal
Source:
Tags:seal adorable snow white swing retro jazz jazzy thirds super mario land muda kingdom remix
BeatmapID:869310
BeatmapSetID:386151

[Difficulty]
HPDrainRate:5
CircleSize:4
OverallDifficulty:6
ApproachRate:7
SliderMultiplier:1.5
SliderTickRate:1

[Events]
//Background and Video events
0,0,"seal.png",0,0
Video,0,"real_mp4.avi"
//Break Periods
//Storyboard Layer 0 (Background)
//Storyboard Layer 1 (Fail)
//Storyboard Layer 2 (Pass)
//Storyboard Layer 3 (Foreground)
//Storyboard Sound Samples

[TimingPoints]
3156,366.032210834554,4,2,0,60,1,0
17797,-100,4,2,0,70,0,0
29510,-100,4,2,0,60,0,0
32438,-100,4,2,0,55,0,0
35244,-100,4,2,0,50,0,0
36098,-100,4,2,0,45,0,0
37441,-100,4,2,0,40,0,0
38661,-100,4,2,0,35,0,0
39393,-100,4,2,0,30,0,0
40125,-100,4,2,0,25,0,0
40491,-100,4,2,0,5,0,0

[Colours]
Combo1 : 108,182,255
Combo2 : 212,212,212
Combo3 : 170,230,255

[HitObjects]
88,112,3156,6,0,P|68:192|96:256,1,150,0|0,0:0|0:0,0:0:0:0:
252,252,3888,2,0,P|277:182|256:111,1,150,0|0,0:0|0:0,0:0:0:0:
172,180,4620,1,0,0:0:0:0:
304,308,4986,1,0,0:0:0:0:
404,204,5352,2,0,P|412:180|408:152,2,50,0|0|0,0:0|0:0|0:0,0:0:0:0:
327,171,5718,2,0,P|319:147|322:123,2,50
272,236,6084,6,0,L|120:240,1,150,4|8,0:0|0:0,0:0:0:0:
0,124,6694,1,0,0:0:0:0:
0,124,6816,2,0,P|38:104|96:116,1,100
173,143,7182,2,0,P|220:153|265:133,1,100,8|0,0:0|0:0,0:0:0:0:
344,112,7548,2,0,P|392:96|380:180,1,150,0|8,0:0|0:0,0:0:0:0:
300,288,8158,1,0,0:0:0:0:
300,288,8280,2,0,P|348:300|404:280,1,100,0|0,0:0|0:0,0:0:0:0:
344,220,8646,2,0,P|296:208|240:228,1,100,8|0,0:0|0:0,0:0:0:0:
172,292,9012,6,0,L|168:176,1,100,0|0,0:0|0:0,0:0:0:0:
80,164,9378,2,0,L|83:263,1,100,8|0,0:0|0:0,0:0:0:0:
108,352,9744,2,0,P|172:380|248:336,1,150,0|8,0:0|0:0,0:0:0:0:
316,164,10354,1,0,0:0:0:0:
316,164,10476,2,0,P|252:136|176:180,1,150,0|8,0:0|0:0,0:0:0:0:
236,368,11086,1,0,0:0:0:0:
236,368,11208,2,0,L|252:216,1,150,0|8,0:0|0:0,0:0:0:0:
420,160,11818,1,0,0:0:0:0:
420,160,11940,2,0,L|435:309,1,150,0|8,0:0|0:0,0:0:0:0:
332,216,12550,5,0,0:0:0:0:
332,216,12672,2,0,P|316:172|324:116,1,100,0|0,0:0|0:0,0:0:0:0:
244,64,13038,2,0,P|250:113|234:159,1,100,8|0,0:0|0:0,0:0:0:0:
180,240,13404,2,0,L|16:244,1,150,0|8,0:0|0:0,0:0:0:0:
188,352,14014,1,0,0:0:0:0:
188,352,14136,2,0,L|302:349,1,100,0|0,0:0|0:0,0:0:0:0:
372,304,14502,2,0,P|400:260|388:208,1,100,8|0,0:0|0:0,0:0:0:0:
348,124,14869,6,0,L|512:116,1,150,0|8,0:0|0:0,0:0:0:0:
324,24,15479,1,0,0:0:0:0:
324,24,15601,2,0,P|272:56|248:144,1,150,0|8,0:0|0:0,0:0:0:0:
60,220,16211,1,0,0:0:0:0:
60,220,16333,2,0,P|113:249|201:225,1,150,0|8,0:0|0:0,0:0:0:0:
368,344,16943,1,0,0:0:0:0:
368,344,17065,2,0,P|366:282|302:218,1,150,0|8,0:0|0:0,0:0:0:0:
200,79,17675,1,0,0:0:0:0:
200,79,17797,6,0,L|196:251,1,150,0|8,0:0|0:0,0:0:0:0:
136,312,18407,1,0,0:0:0:0:
136,312,18529,2,0,P|184:332|248:316,1,100,0|0,0:0|0:0,0:0:0:0:
305,270,18895,2,0,P|354:264|400:284,1,100,8|0,0:0|0:0,0:0:0:0:
484,328,19261,2,0,L|488:172,1,150,0|8,0:0|0:0,0:0:0:0:
344,60,19871,1,0,0:0:0:0:
344,60,19993,2,0,P|296:48|244:60,1,100,0|0,0:0|0:0,0:0:0:0:
196,160,20359,2,0,P|244:172|296:160,1,100,8|0,0:0|0:0,0:0:0:0:
388,124,20725,6,0,L|396:280,1,150,0|8,0:0|0:0,0:0:0:0:
228,336,21335,1,0,0:0:0:0:
228,336,21457,2,0,B|128:352|128:352|68:336,1,150,0|8,0:0|0:0,0:0:0:0:
196,160,22067,1,0,0:0:0:0:
196,160,22189,2,0,B|296:144|296:144|355:160,1,150,0|8,0:0|0:0,0:0:0:0:
436,320,22799,1,0,0:0:0:0:
436,320,22921,2,0,P|452:248|436:164,1,150,0|8,0:0|0:0,0:0:0:0:
244,192,23531,1,0,0:0:0:0:
244,192,23653,6,0,P|228:264|244:348,1,150,0|8,0:0|0:0,0:0:0:0:
332,172,24263,1,0,0:0:0:0:
332,172,24385,2,0,P|308:128|264:104,1,100,0|0,0:0|0:0,0:0:0:0:
184,136,24751,2,0,P|141:161|92:159,1,100,8|0,0:0|0:0,0:0:0:0:
20,248,25117,2,0,B|188:248,1,150,0|8,0:0|0:0,0:0:0:0:
308,124,25727,1,0,0:0:0:0:
308,124,25849,2,0,P|360:112|412:128,1,100,0|0,0:0|0:0,0:0:0:0:
476,180,26216,2,0,P|492:228|480:284,1,100,8|0,0:0|0:0,0:0:0:0:
404,320,26582,6,0,B|312:340|312:340|256:324,1,150,0|8,0:0|0:0,0:0:0:0:
68,104,27314,2,0,P|136:80|228:104,1,150,0|8,0:0|0:0,0:0:0:0:
380,248,28046,2,0,L|392:76,1,150,0|8,0:0|0:0,0:0:0:0:
144,176,28778,2,0,L|154:325,1,150,0|8,0:0|0:0,0:0:0:0:
420,220,29510,6,0,B|372:231|372:231|276:199,1,150,4|8,0:0|0:0,0:0:0:0:
80,104,30120,1,0,0:0:0:0:
80,104,30242,2,0,P|128:80|184:88,1,100,0|0,0:0|0:0,0:0:0:0:
264,108,30608,2,0,P|313:110|356:87,1,100,8|0,0:0|0:0,0:0:0:0:
444,128,30974,2,0,L|448:296,1,150,0|8,0:0|0:0,0:0:0:0:
320,344,31584,1,0,0:0:0:0:
320,344,31706,2,0,P|300:296|328:232,1,100
352,172,32072,1,8,0:0:0:0:
96,240,32438,6,0,P|172:252|244:216,1,150,0|8,0:0|0:0,0:0:0:0:
152,108,33048,1,0,0:0:0:0:
152,108,33170,2,0,P|76:96|4:132,1,150,0|8,0:0|0:0,0:0:0:0:
80,336,33780,1,0,0:0:0:0:
80,336,33902,2,0,L|92:168,1,150,0|8,0:0|0:0,0:0:0:0:
290,245,34512,1,0,0:0:0:0:
290,245,34634,2,0,L|280:96,1,150,0|8,0:0|0:0,0:0:0:0:
196,252,35244,1,0,0:0:0:0:
196,252,35366,6,0,P|127:280|55:263,1,150,0|8,0:0|0:0,0:0:0:0:
116,124,35976,1,0,0:0:0:0:
116,124,36098,2,0,P|162:107|210:119,1,100
288,164,36464,2,0,P|335:176|382:160,1,100,8|0,0:0|0:0,0:0:0:0:
464,128,36830,2,0,L|472:312,1,150,0|8,0:0|0:0,0:0:0:0:
296,340,37441,1,0,0:0:0:0:
296,340,37563,2,0,L|303:227,1,100,0|0,0:0|0:0,0:0:0:0:
308,148,37929,1,8,0:0:0:0:
256,192,38295,12,0,40491,0:0:0:0:
