osu file format v14

[General]
AudioFilename: seal.mp4.mp3
AudioLeadIn: 0
PreviewTime: 6084
Countdown: 0
SampleSet: Soft
StackLeniency: 0.7
Mode: 0
LetterboxInBreaks: 0
WidescreenStoryboard: 0

[Editor]
DistanceSpacing: 1
BeatDivisor: 3
GridSize: 4
TimelineZoom: 1.6

[Metadata]
Title:seal.mp4
TitleUnicode:seal.mp4
Artist:joeyclassic
ArtistUnicode:joeyclassic
Creator:StarrStyx
Version:Normal
Source:
Tags:seal adorable snow white swing retro jazz jazzy thirds super mario land muda kingdom remix
BeatmapID:843308
BeatmapSetID:386151

[Difficulty]
HPDrainRate:2
CircleSize:3
OverallDifficulty:3
ApproachRate:4
SliderMultiplier:1.3
SliderTickRate:1

[Events]
//Background and Video events
0,0,"seal.png",0,0
Video,0,"real_mp4.avi"
//Break Periods
//Storyboard Layer 0 (Background)
//Storyboard Layer 1 (Fail)
//Storyboard Layer 2 (Pass)
//Storyboard Layer 3 (Foreground)
//Storyboard Sound Samples

[TimingPoints]
3156,366.032210834554,4,2,0,60,1,0
17797,-100,4,2,0,70,0,0
29510,-100,4,2,0,60,0,0
32438,-100,4,2,0,55,0,0
35244,-100,4,2,0,50,0,0
36098,-100,4,2,0,45,0,0
37441,-100,4,2,0,40,0,0
38661,-100,4,2,0,35,0,0
39393,-100,4,2,0,30,0,0
40125,-100,4,2,0,25,0,0
40491,-100,4,2,0,5,0,0

[Colours]
Combo1 : 108,182,255
Combo2 : 212,212,212
Combo3 : 170,230,255

[HitObjects]
116,308,3156,6,0,L|252:304,1,130
376,296,3888,2,0,P|400:240|376:176,1,130
276,100,4620,2,0,P|212:84|144:104,1,130
52,184,5352,2,0,P|44:252|88:308,1,130
172,212,6084,5,4,0:0:0:0:
272,292,6450,1,8,0:0:0:0:
396,248,6816,2,0,P|428:200|416:132,1,130,0|8,0:0|0:0,0:0:0:0:
316,52,7548,2,0,L|172:52,1,130,0|8,0:0|0:0,0:0:0:0:
68,108,8280,1,0,0:0:0:0:
176,180,8646,1,8,0:0:0:0:
56,228,9012,6,0,P|84:288|152:308,1,130,0|8,0:0|0:0,0:0:0:0:
272,308,9744,1,0,0:0:0:0:
352,204,10110,1,8,0:0:0:0:
432,308,10476,2,0,P|472:264|472:180,1,130,0|8,0:0|0:0,0:0:0:0:
384,104,11208,2,0,P|320:92|236:108,1,130,0|8,0:0|0:0,0:0:0:0:
136,152,11940,5,0,0:0:0:0:
56,256,12306,2,0,P|116:284|192:268,1,130,8|0,0:0|0:0,0:0:0:0:
280,196,13038,2,0,P|343:187|401:215,1,130,8|0,0:0|0:0,0:0:0:0:
492,124,13770,1,8,0:0:0:0:
380,56,14136,2,0,P|336:40|256:72,1,130,0|8,0:0|0:0,0:0:0:0:
184,172,14869,6,0,L|40:172,1,130,0|8,0:0|0:0,0:0:0:0:
124,280,15601,2,0,L|254:280,1,130,0|8,0:0|0:0,0:0:0:0:
356,200,16333,2,0,P|380:140|360:76,1,130,0|8,0:0|0:0,0:0:0:0:
244,132,17065,1,0,0:0:0:0:
136,60,17431,1,8,0:0:0:0:
64,168,17797,6,0,P|44:228|72:288,1,130,0|8,0:0|0:0,0:0:0:0:
184,352,18529,1,0,0:0:0:0:
152,224,18895,1,8,0:0:0:0:
280,224,19261,2,0,B|332:224|332:224|372:252|432:244,1,130,0|8,0:0|0:0,0:0:0:0:
404,116,19993,1,0,0:0:0:0:
292,48,20359,1,8,0:0:0:0:
188,128,20725,6,0,L|44:128,1,130,0|8,0:0|0:0,0:0:0:0:
116,244,21457,2,0,L|260:244,1,130,0|8,0:0|0:0,0:0:0:0:
352,172,22189,1,0,0:0:0:0:
472,220,22555,1,8,0:0:0:0:
396,324,22921,2,0,L|256:328,1,130,0|8,0:0|0:0,0:0:0:0:
144,296,23653,6,0,P|112:240|124:176,1,130,0|8,0:0|0:0,0:0:0:0:
204,80,24385,1,0,0:0:0:0:
296,172,24751,1,8,0:0:0:0:
408,108,25117,2,0,P|424:164|408:240,1,130,0|8,0:0|0:0,0:0:0:0:
292,288,25849,2,0,L|140:296,1,130,0|8,0:0|0:0,0:0:0:0:
76,196,26582,6,0,P|80:128|136:72,1,130,0|8,0:0|0:0,0:0:0:0:
208,180,27314,1,0,0:0:0:0:
300,88,27680,1,8,0:0:0:0:
420,136,28046,6,0,P|440:200|412:264,1,130,0|8,0:0|0:0,0:0:0:0:
304,196,28778,1,0,0:0:0:0:
200,272,29144,1,8,0:0:0:0:
88,208,29510,6,0,P|68:152|96:84,1,130,4|8,0:0|0:0,0:0:0:0:
212,40,30242,2,0,L|356:40,1,130,0|8,0:0|0:0,0:0:0:0:
436,128,30974,1,0,0:0:0:0:
368,240,31340,1,8,0:0:0:0:
240,248,31706,2,0,P|180:272|112:256,1,130,0|8,0:0|0:0,0:0:0:0:
168,148,32438,6,0,P|224:120|296:136,1,130,0|8,0:0|0:0,0:0:0:0:
412,164,33170,2,0,P|452:224|436:296,1,130,0|8,0:0|0:0,0:0:0:0:
328,336,33902,1,0,0:0:0:0:
200,336,34268,1,8,0:0:0:0:
96,260,34634,2,0,P|80:200|108:124,1,130,0|8,0:0|0:0,0:0:0:0:
212,68,35366,6,0,L|208:212,1,130,0|8,0:0|0:0,0:0:0:0:
256,192,36098,12,0,40491,0:0:0:0:
