osu file format v14

[General]
AudioFilename: seal.mp4.mp3
AudioLeadIn: 0
PreviewTime: 6816
Countdown: 0
SampleSet: Soft
StackLeniency: 0.7
Mode: 2
LetterboxInBreaks: 0
WidescreenStoryboard: 0

[Editor]
DistanceSpacing: 1.5
BeatDivisor: 3
GridSize: 4
TimelineZoom: 1.9

[Metadata]
Title:seal.mp4
TitleUnicode:seal.mp4
Artist:joeyclassic
ArtistUnicode:joeyclassic
Creator:Ascendance
Version:Platter
Source:
Tags:Magic_Bomb JBHyperion Lost koliron seal snow white swing retro jazz jazzy thirds super mario land muda kingdom remix
BeatmapID:825420
BeatmapSetID:377103

[Difficulty]
HPDrainRate:5
CircleSize:4
OverallDifficulty:7
ApproachRate:7
SliderMultiplier:1.3
SliderTickRate:1

[Events]
//Background and Video events
0,0,"seal1bg.jpg",0,0
Video,0,"sealmp4 video.avi"
//Break Periods
//Storyboard Layer 0 (Background)
//Storyboard Layer 1 (Fail)
//Storyboard Layer 2 (Pass)
//Storyboard Layer 3 (Foreground)
//Storyboard Sound Samples

[TimingPoints]
3156,366.032210834554,4,2,1,25,1,0
4620,-100,4,2,2,30,0,0
5352,-100,4,2,1,40,0,0
6084,-100,4,2,1,30,0,0
6206,-100,4,2,2,50,0,0
6816,-100,4,2,1,50,0,0
7182,-100,4,2,2,30,0,0
8646,-100,4,2,1,30,0,0
9012,-100,4,2,2,60,0,0
9378,-100,4,2,2,30,0,0
12672,-100,4,2,1,50,0,0
13038,-100,4,2,2,30,0,0
14869,-100,4,2,2,60,0,0
15235,-100,4,2,2,30,0,0
17797,-100,4,2,1,40,0,1
18163,-100,4,2,2,30,0,1
19261,-100,4,2,1,30,0,1
19627,-100,4,2,2,30,0,1
19993,-100,4,2,2,40,0,1
20359,-100,4,2,1,50,0,1
20725,-100,4,2,2,30,0,1
23653,-100,4,2,1,40,0,1
24385,-100,4,2,2,30,0,1
25117,-100,4,2,1,30,0,1
25483,-100,4,2,2,30,0,1
25849,-100,4,2,2,40,0,1
26216,-100,4,2,1,50,0,1
26582,-100,4,2,2,50,0,1
27314,-100,4,2,2,35,0,1
28046,-100,4,2,1,50,0,1
28778,-100,4,2,1,35,0,1
29510,-100,4,2,1,40,0,0
29876,-100,4,2,2,30,0,0
32072,-100,4,2,1,40,0,0
32438,-100,4,2,2,30,0,0
36098,-100,4,2,2,25,0,0
36830,-100,4,2,2,20,0,0
37563,-100,4,2,2,30,0,0
38295,-100,4,2,2,20,0,0
38905,-100,4,2,2,10,0,0

[Colours]
Combo1 : 85,78,86
Combo2 : 0,128,255
Combo3 : 128,255,255
Combo4 : 248,251,132

[HitObjects]
124,56,3156,6,0,P|188:80|256:56,1,130,2|0,0:0|0:0,0:0:0:0:
428,136,3888,2,0,P|380:160|296:116,1,130,2|0,0:0|0:0,0:0:0:0:
128,204,4620,2,0,P|200:220|264:192,1,130,2|2,0:0|0:0,0:0:0:0:
420,300,5352,2,0,L|284:300,1,130,8|8,0:0|0:0,0:0:0:0:
40,308,6084,2,0,P|24:264|76:200,1,130,2|2,0:0|0:0,0:0:0:0:
216,164,6816,6,0,L|112:188,1,86.6666666666667,8|0,0:0|0:0,0:0:0:0:
196,220,7182,1,6,0:0:0:0:
500,240,7426,1,0,0:0:0:0:
196,132,7914,2,0,L|104:128,1,86.6666666666667,2|0,0:0|0:0,0:0:0:0:
176,212,8280,6,0,P|224:232|272:204,1,86.6666666666667,6|0,0:0|0:0,0:0:0:0:
312,160,8646,2,0,L|216:156,1,86.6666666666667,8|0,0:0|0:0,0:0:0:0:
100,144,9012,2,0,P|72:120|0:56,2,130,4|0|0,0:0|0:0|0:0,0:0:0:0:
192,216,10110,5,2,0:0:0:0:
388,280,10354,2,0,L|320:276,1,43.3333333333333,0|2,0:0|0:0,0:0:0:0:
192,288,10842,1,2,0:0:0:0:
364,208,11086,2,0,L|412:188,1,43.3333333333333,0|2,0:0|0:0,0:0:0:0:
256,136,11574,1,2,0:0:0:0:
120,104,11818,2,0,L|68:92,1,43.3333333333333,0|2,0:0|0:0,0:0:0:0:
256,136,12306,1,2,0:0:0:0:
428,184,12672,6,0,L|532:208,1,86.6666666666667,8|0,0:0|0:0,0:0:0:0:
448,240,13038,1,6,0:0:0:0:
136,260,13282,1,0,0:0:0:0:
84,172,13770,1,2,0:0:0:0:
240,192,14014,1,0,0:0:0:0:
144,136,14136,6,0,L|64:84,1,86.6666666666667,0|0,0:0|0:0,0:0:0:0:
128,36,14502,2,0,L|208:88,1,86.6666666666667,8|0,0:0|0:0,0:0:0:0:
320,152,14869,2,0,P|376:148|436:104,2,130,4|0|2,0:0|0:0|0:0,0:0:0:0:
228,156,15967,5,0,0:0:0:0:
80,208,16211,2,0,L|128:232,1,43.3333333333333,0|2,0:0|0:0,0:0:0:0:
272,272,16699,1,2,0:0:0:0:
448,292,16943,2,0,L|404:324,1,43.3333333333333,0|2,0:0|0:0,0:0:0:0:
272,272,17431,1,2,0:0:0:0:
432,184,17675,2,0,L|480:164,1,43.3333333333333,0|2,0:0|0:0,0:0:0:0:
352,80,18163,5,2,0:0:0:0:
256,80,18407,1,0,0:0:0:0:
188,80,18529,2,0,L|101:80,1,86.6666666666667,4|0,0:0|0:0,0:0:0:0:
112,152,18895,2,0,L|224:152,1,86.6666666666667,2|0,0:0|0:0,0:0:0:0:
408,104,19261,2,0,L|396:256,1,130,8|2,0:0|0:0,0:0:0:0:
292,268,19871,6,0,L|212:280,1,43.3333333333333,0|4,0:0|0:0,0:0:0:0:
72,228,20359,2,0,P|140:216|188:168,1,130,8|2,0:0|0:0,0:0:0:0:
324,144,20969,1,0,0:0:0:0:
268,180,21091,1,0,0:0:0:0:
124,76,21335,1,0,0:0:0:0:
180,104,21457,1,0,0:0:0:0:
284,120,21823,5,2,0:0:0:0:
464,188,22067,2,0,L|400:220,1,43.3333333333333,0|2,0:0|0:0,0:0:0:0:
152,236,22555,1,2,0:0:0:0:
264,272,22799,2,0,L|312:288,1,43.3333333333333,0|2,0:0|0:0,0:0:0:0:
404,196,23287,1,2,0:0:0:0:
184,168,23531,2,0,L|136:144,1,43.3333333333333,0|2,0:0|0:0,0:0:0:0:
88,100,24019,1,0,0:0:0:0:
288,96,24263,1,0,0:0:0:0:
340,96,24385,6,0,L|456:96,1,86.6666666666667,4|0,0:0|0:0,0:0:0:0:
404,28,24751,2,0,L|296:28,1,86.6666666666667,2|0,0:0|0:0,0:0:0:0:
136,24,25117,2,0,L|136:192,1,130,8|2,0:0|0:0,0:0:0:0:
196,156,25727,6,8,L|260:136,1,43.3333333333333,0|4,0:0|0:0,0:0:0:0:
400,96,26216,1,8,0:0:0:0:
168,56,26460,1,0,0:0:0:0:
60,132,26582,6,0,P|27:184|58:239,1,130,4|4,0:0|0:0,0:0:0:0:
484,144,27314,2,0,P|512:198|484:264,1,130,4|4,0:0|0:0,0:0:0:0:
60,112,28046,2,0,L|8:248,1,130,8|8,0:0|0:0,0:0:0:0:
440,132,28778,2,0,L|520:252,1,130,8|8,0:0|0:0,0:0:0:0:
88,248,29510,6,0,P|144:244|224:236,1,130,0|2,0:0|0:0,0:0:0:0:
384,228,30242,2,0,L|272:200,1,86.6666666666667,4|0,0:0|0:0,0:0:0:0:
428,152,30852,1,0,0:0:0:0:
144,128,31584,6,0,L|80:96,1,43.3333333333333,0|2,0:0|0:0,0:0:0:0:
308,64,31950,2,0,L|356:36,1,43.3333333333333,0|2,0:0|0:0,0:0:0:0:
512,72,32438,2,0,L|368:72,1,130,2|0,0:0|0:0,0:0:0:0:
200,184,33048,1,0,0:0:0:0:
124,152,33170,5,2,0:0:0:0:
216,296,33536,1,2,0:0:0:0:
352,272,33780,2,0,L|404:244,1,43.3333333333333,0|2,0:0|0:0,0:0:0:0:
292,176,34268,1,2,0:0:0:0:
192,100,34512,2,0,L|140:84,1,43.3333333333333,0|2,0:0|0:0,0:0:0:0:
12,204,35000,1,2,0:0:0:0:
116,260,35244,1,0,0:0:0:0:
208,240,35366,1,2,0:0:0:0:
140,184,35732,5,2,0:0:0:0:
328,68,36098,1,2,0:0:0:0:
176,80,36342,2,0,L|44:40,1,130,0|0,0:0|0:0,0:0:0:0:
124,140,36830,1,2,0:0:0:0:
312,144,37196,1,0,0:0:0:0:
256,192,37563,12,0,38905,0:0:0:0:
