osu file format v14

[General]
AudioFilename: seal.mp4.mp3
AudioLeadIn: 0
PreviewTime: 6816
Countdown: 0
SampleSet: Soft
StackLeniency: 0.7
Mode: 2
LetterboxInBreaks: 0
WidescreenStoryboard: 0

[Editor]
Bookmarks: 37563
DistanceSpacing: 1.5
BeatDivisor: 3
GridSize: 8
TimelineZoom: 1

[Metadata]
Title:seal.mp4
TitleUnicode:seal.mp4
Artist:joeyclassic
ArtistUnicode:joeyclassic
Creator:Ascendance
Version:MBomb's Platter
Source:
Tags:Magic_Bomb JBHyperion Lost koliron seal snow white swing retro jazz jazzy thirds super mario land muda kingdom remix
BeatmapID:832412
BeatmapSetID:377103

[Difficulty]
HPDrainRate:5.5
CircleSize:4.5
OverallDifficulty:7.8
ApproachRate:7.8
SliderMultiplier:1.5
SliderTickRate:1

[Events]
//Background and Video events
0,0,"seal1bg.jpg",0,0
Video,0,"sealmp4 video.avi"
//Break Periods
//Storyboard Layer 0 (Background)
//Storyboard Layer 1 (Fail)
//Storyboard Layer 2 (Pass)
//Storyboard Layer 3 (Foreground)
//Storyboard Sound Samples

[TimingPoints]
3156,366.032210834554,4,2,1,25,1,0
4620,-100,4,2,2,30,0,0
5352,-100,4,2,1,40,0,0
6084,-100,4,2,1,30,0,0
6206,-100,4,2,2,50,0,0
6816,-100,4,2,1,50,0,0
6907,-100,4,2,2,30,0,0
8646,-100,4,2,1,30,0,0
9012,-100,4,2,2,60,0,0
9134,-100,4,2,2,30,0,0
9622,-100,4,2,1,50,0,0
9744,-100,4,2,2,30,0,0
12672,-100,4,2,1,50,0,0
12764,-100,4,2,2,30,0,0
14502,-100,4,2,1,30,0,0
14869,-100,4,2,2,60,0,0
14960,-100,4,2,2,30,0,0
15479,-100,4,2,1,50,0,0
15601,-100,4,2,2,30,0,0
17797,-100,4,2,1,40,0,1
17888,-100,4,2,2,30,0,1
19261,-100,4,2,1,30,0,1
19352,-100,4,2,2,30,0,1
19993,-100,4,2,2,40,0,1
20084,-100,4,2,2,30,0,1
20359,-100,4,2,1,50,0,1
20481,-100,4,2,2,30,0,1
23653,-100,4,2,1,40,0,1
23745,-100,4,2,2,30,0,1
25117,-100,4,2,1,50,0,1
25209,-100,4,2,2,30,0,1
25849,-100,4,2,2,40,0,1
25941,-100,4,2,2,30,0,1
26216,-100,4,2,1,50,0,1
26307,-100,4,2,2,30,0,1
26582,-100,4,2,2,50,0,1
27314,-100,4,2,2,35,0,1
28046,-100,4,2,1,50,0,1
28778,-100,4,2,1,35,0,1
29510,-100,4,2,1,40,0,0
29601,-100,4,2,2,30,0,0
32072,-100,4,2,1,40,0,0
32164,-100,4,2,2,30,0,0
33048,-100,4,2,1,40,0,0
33170,-100,4,2,2,30,0,0
36098,-100,4,2,2,25,0,0
36830,-100,4,2,2,20,0,0
37441,-100,4,2,2,15,0,0
37746,-100,4,2,2,35,0,0
37929,-100,4,2,1,30,0,0
38295,-100,4,2,2,20,0,0
38478,-100,4,2,2,15,0,0
38661,-100,4,2,2,10,0,0
38844,-100,4,2,2,5,0,0

[Colours]
Combo1 : 85,78,86
Combo2 : 0,128,255
Combo3 : 128,255,255
Combo4 : 248,251,132

[HitObjects]
64,192,3156,6,0,L|224:192,1,150,2|0,0:0|0:0,0:0:0:0:
464,192,3888,2,0,P|400:96|368:88,1,150,2|0,0:0|0:0,0:0:0:0:
192,192,4620,2,0,P|88:96|88:80,1,150,2|2,0:0|0:0,0:0:0:0:
360,192,5352,1,8,0:0:0:0:
397,161,5474,1,0,0:0:0:0:
376,112,5596,1,0,0:0:0:0:
256,192,5718,1,8,0:0:0:0:
219,161,5840,1,0,0:0:0:0:
240,112,5962,1,0,0:0:0:0:
448,192,6084,5,2,0:0:0:0:
304,192,6450,1,2,0:0:0:0:
32,192,6816,2,0,P|72:112|120:112,1,100,8|0,0:0|0:0,0:0:0:0:
496,192,7426,1,8,0:0:0:0:
440,192,7548,6,0,P|408:128|464:96,1,150,2|2,0:0|0:0,0:0:0:0:
256,192,8158,2,0,L|200:192,1,50,8|6,0:0|0:0,0:0:0:0:
416,192,8524,2,0,L|360:192,1,50,8|8,0:0|0:0,0:0:0:0:
48,192,9012,6,0,P|120:112|160:112,1,150,4|2,0:0|0:0,0:0:0:0:
368,192,9622,2,0,P|440:112|376:80,1,200,8|2,0:0|0:0,0:0:0:0:
288,192,10354,1,0,0:0:0:0:
256,192,10476,6,0,P|216:112|256:104,1,150,2|2,0:0|0:0,0:0:0:0:
104,192,11086,2,0,L|154:192,1,50,8|2,0:0|0:0,0:0:0:0:
272,192,11574,1,2,0:0:0:0:
496,192,11818,1,8,0:0:0:0:
456,192,11940,6,0,P|448:120|512:80,1,150,2|2,0:0|0:0,0:0:0:0:
256,192,12672,1,8,0:0:0:0:
448,192,12916,1,8,0:0:0:0:
16,192,13282,1,8,0:0:0:0:
64,192,13404,6,0,L|216:192,1,150,2|2,0:0|0:0,0:0:0:0:
432,192,14014,2,0,L|376:192,1,50,0|4,0:0|0:0,0:0:0:0:
176,192,14380,2,0,L|240:192,1,50,0|8,0:0|0:0,0:0:0:0:
16,192,14869,6,0,P|40:112|96:88,1,150,4|2,0:0|0:0,0:0:0:0:
320,192,15479,2,0,P|392:112|336:48,1,200,8|2,0:0|0:0,0:0:0:0:
208,192,16211,1,8,0:0:0:0:
152,192,16333,6,0,P|176:128|248:96,1,150,2|2,0:0|0:0,0:0:0:0:
64,192,16943,1,8,0:0:0:0:
96,192,17065,2,0,P|168:152|144:112,1,150,2|2,0:0|0:0,0:0:0:0:
64,192,17675,1,8,0:0:0:0:
248,192,17797,6,0,P|360:152|376:128,1,150,2|2,0:0|0:0,0:0:0:0:
248,192,18407,1,8,0:0:0:0:
384,192,18529,1,4,0:0:0:0:
272,192,18773,1,4,0:0:0:0:
496,192,19139,1,8,0:0:0:0:
440,192,19261,6,0,P|392:112|416:96,1,150,2|2,0:0|0:0,0:0:0:0:
192,192,19871,1,8,0:0:0:0:
136,192,19993,2,0,P|200:112|240:112,1,150,4|8,0:0|0:0,0:0:0:0:
416,192,20725,6,0,P|480:120|480:112,1,100,2|2,0:0|0:0,0:0:0:0:
56,192,21335,1,8,0:0:0:0:
8,192,21457,2,0,P|48:128|120:96,1,150,2|2,0:0|0:0,0:0:0:0:
264,192,22067,1,8,0:0:0:0:
336,192,22189,6,0,P|272:96|288:80,1,150,2|2,0:0|0:0,0:0:0:0:
432,192,22799,1,8,0:0:0:0:
376,192,22921,2,0,P|320:112|344:96,1,150,2|2,0:0|0:0,0:0:0:0:
440,192,23531,1,8,0:0:0:0:
248,192,23653,6,0,P|168:176|128:96,1,150,2|2,0:0|0:0,0:0:0:0:
288,192,24263,1,8,0:0:0:0:
144,192,24385,1,4,0:0:0:0:
256,192,24629,2,0,P|176:224|136:184,1,150,4|8,0:0|0:0,0:0:0:0:
200,192,25117,6,0,P|280:120|272:104,1,150,2|2,0:0|0:0,0:0:0:0:
408,192,25727,1,8,0:0:0:0:
472,192,25849,2,0,P|432:112|376:88,1,150,4|8,0:0|0:0,0:0:0:0:
232,192,26460,1,0,0:0:0:0:
440,192,26582,6,0,P|504:128|504:72,1,150,4|4,0:0|0:0,0:0:0:0:
72,192,27314,2,0,P|8:128|8:72,1,150,4|4,0:0|0:0,0:0:0:0:
312,192,28046,5,8,0:0:0:0:
48,192,28412,1,8,0:0:0:0:
304,192,28778,1,8,0:0:0:0:
104,192,29144,1,8,0:0:0:0:
336,192,29510,6,0,P|384:104|368:96,1,150,2|2,0:0|0:0,0:0:0:0:
232,192,30120,2,0,L|182:192,1,50,0|4,0:0|0:0,0:0:0:0:
32,192,30486,1,0,0:0:0:0:
464,192,30852,1,8,0:0:0:0:
424,192,30974,6,0,L|272:192,1,150,2|2,0:0|0:0,0:0:0:0:
496,192,31584,2,0,P|440:192|440:192,1,50,8|6,0:0|0:0,0:0:0:0:
224,192,31950,2,0,P|280:192|280:192,1,50,8|8,0:0|0:0,0:0:0:0:
32,192,32438,6,0,P|16:144|88:96,1,150,4|2,0:0|0:0,0:0:0:0:
312,192,33048,2,0,P|408:136|376:88,1,200,8|2,0:0|0:0,0:0:0:0:
232,192,33780,1,8,0:0:0:0:
176,192,33902,6,0,P|144:96|160:88,1,150,2|2,0:0|0:0,0:0:0:0:
368,192,34512,1,8,0:0:0:0:
416,192,34634,2,0,P|360:128|288:120,1,150,2|2,0:0|0:0,0:0:0:0:
432,192,35244,1,8,0:0:0:0:
304,192,35366,6,0,P|360:120|416:104,1,150,2|2,0:0|0:0,0:0:0:0:
280,192,35976,1,0,0:0:0:0:
160,192,36098,1,4,0:0:0:0:
304,192,36342,1,0,0:0:0:0:
16,192,36708,1,8,0:0:0:0:
64,192,36830,6,0,P|120:80|112:72,1,150,2|2,0:0|0:0,0:0:0:0:
224,192,37441,1,0,0:0:0:0:
320,192,37563,1,0,0:0:0:0:
160,192,37807,1,0,0:0:0:0:
112,192,37929,1,0,0:0:0:0:
280,192,38295,6,0,L|432:192,1,150
224,192,38905,2,0,L|168:192,1,50
32,192,39393,1,0,0:0:0:0:
