osu file format v14

[General]
AudioFilename: seal.mp4.mp3
AudioLeadIn: 0
PreviewTime: 6816
Countdown: 0
SampleSet: Soft
StackLeniency: 0.7
Mode: 2
LetterboxInBreaks: 0
WidescreenStoryboard: 0

[Editor]
DistanceSpacing: 1.5
BeatDivisor: 3
GridSize: 8
TimelineZoom: 1

[Metadata]
Title:seal.mp4
TitleUnicode:seal.mp4
Artist:joeyclassic
ArtistUnicode:joeyclassic
Creator:Ascendance
Version:MBomb's Overdose
Source:
Tags:Magic_Bomb JBHyperion Lost koliron seal snow white swing retro jazz jazzy thirds super mario land muda kingdom remix
BeatmapID:825419
BeatmapSetID:377103

[Difficulty]
HPDrainRate:7
CircleSize:4.5
OverallDifficulty:7.5
ApproachRate:7.5
SliderMultiplier:1.7
SliderTickRate:1

[Events]
//Background and Video events
0,0,"seal1bg.jpg",0,0
Video,0,"sealmp4 video.avi"
//Break Periods
//Storyboard Layer 0 (Background)
//Storyboard Layer 1 (Fail)
//Storyboard Layer 2 (Pass)
//Storyboard Layer 3 (Foreground)
//Storyboard Sound Samples

[TimingPoints]
3156,366.032210834554,4,2,1,25,1,0
4620,-100,4,2,2,30,0,0
5352,-100,4,2,1,40,0,0
6084,-100,4,2,1,30,0,0
6206,-100,4,2,2,50,0,0
6816,-100,4,2,1,50,0,0
6907,-100,4,2,2,30,0,0
8646,-100,4,2,1,30,0,0
9012,-100,4,2,2,60,0,0
9134,-100,4,2,2,30,0,0
9622,-100,4,2,1,50,0,0
9744,-100,4,2,2,30,0,0
12672,-100,4,2,1,50,0,0
12764,-100,4,2,2,30,0,0
14502,-100,4,2,1,30,0,0
14869,-100,4,2,2,60,0,0
14960,-100,4,2,2,30,0,0
15479,-100,4,2,1,50,0,0
15601,-100,4,2,2,30,0,0
17797,-100,4,2,1,40,0,1
17888,-100,4,2,2,30,0,1
19261,-100,4,2,1,30,0,1
19352,-100,4,2,2,30,0,1
19993,-100,4,2,2,40,0,1
20084,-100,4,2,2,30,0,1
20359,-100,4,2,1,50,0,1
20481,-100,4,2,2,30,0,1
23653,-100,4,2,1,40,0,1
23745,-100,4,2,2,30,0,1
25117,-100,4,2,1,50,0,1
25209,-100,4,2,2,30,0,1
25849,-100,4,2,2,40,0,1
25941,-100,4,2,2,30,0,1
26216,-100,4,2,1,50,0,1
26307,-100,4,2,2,30,0,1
26582,-100,4,2,2,50,0,1
27314,-100,4,2,2,35,0,1
28046,-100,4,2,1,50,0,1
28778,-100,4,2,1,35,0,1
29510,-100,4,2,1,40,0,0
29601,-100,4,2,2,30,0,0
32072,-100,4,2,1,40,0,0
32164,-100,4,2,2,30,0,0
33048,-100,4,2,1,40,0,0
33170,-100,4,2,2,30,0,0
36098,-100,4,2,2,25,0,0
36830,-100,4,2,2,20,0,0
37441,-100,4,2,2,15,0,0
37746,-100,4,2,2,35,0,0
37929,-100,4,2,1,30,0,0
38295,-100,4,2,2,20,0,0
38478,-100,4,2,2,15,0,0
38661,-100,4,2,2,10,0,0
38844,-100,4,2,2,5,0,0

[Colours]
Combo1 : 85,78,86
Combo2 : 0,128,255
Combo3 : 128,255,255
Combo4 : 248,251,132

[HitObjects]
64,192,3156,5,2,0:0:0:0:
448,192,3888,1,2,0:0:0:0:
128,192,4620,2,0,L|320:192,1,170,2|2,0:0|0:0,0:0:0:0:
64,192,5352,1,8,0:0:0:0:
176,192,5474,1,0,0:0:0:0:
272,192,5596,1,0,0:0:0:0:
96,192,5718,1,8,0:0:0:0:
32,192,5840,1,0,0:0:0:0:
128,192,5962,1,0,0:0:0:0:
416,192,6084,6,0,P|488:104|472:88,1,170,2|2,0:0|0:0,0:0:0:0:
160,192,6816,1,8,0:0:0:0:
464,192,7060,2,0,L|400:192,1,56.6666666666667
24,192,7426,1,8,0:0:0:0:
72,192,7548,2,0,L|240:168,1,170,2|2,0:0|0:0,0:0:0:0:
416,192,8158,1,8,0:0:0:0:
192,192,8280,2,0,P|135:188|88:160,1,113.333333333333,6|8,0:0|0:0,0:0:0:0:
288,192,8646,1,8,0:0:0:0:
192,192,9012,6,0,P|128:112|160:80,1,170,4|2,0:0|0:0,0:0:0:0:
496,192,9622,1,8,0:0:0:0:
384,192,9744,2,0,P|352:120|424:80,1,170,0|2,0:0|0:0,0:0:0:0:
320,192,10354,1,0,0:0:0:0:
416,192,10476,2,0,P|448:120|376:80,1,170,2|2,0:0|0:0,0:0:0:0:
136,192,11086,1,8,0:0:0:0:
64,192,11208,2,0,P|48:128|120:64,1,170,2|2,0:0|0:0,0:0:0:0:
296,192,11818,1,8,0:0:0:0:
168,192,11940,6,0,P|120:136|184:88,1,170,2|2,0:0|0:0,0:0:0:0:
416,192,12550,1,8,0:0:0:0:
184,192,12672,2,0,B|120:192|120:192|80:144,1,113.333333333333,8|8,0:0|0:0,0:0:0:0:
144,192,13038,1,6,0:0:0:0:
472,192,13282,1,8,0:0:0:0:
384,192,13404,2,0,P|336:120|392:88,1,170,2|2,0:0|0:0,0:0:0:0:
64,192,14014,2,0,L|120:192,1,56.6666666666667,0|4,0:0|0:0,0:0:0:0:
0,192,14380,1,0,0:0:0:0:
192,192,14502,2,0,P|153:154|88:144,1,113.333333333333,8|0,0:0|0:0,0:0:0:0:
288,192,14869,6,0,P|361:182|392:96,1,170,4|2,0:0|0:0,0:0:0:0:
152,192,15479,2,0,L|88:192,1,56.6666666666667,8|0,0:0|0:0,0:0:0:0:
384,192,15967,1,2,0:0:0:0:
176,192,16211,2,0,L|232:192,1,56.6666666666667,8|2,0:0|0:0,0:0:0:0:
16,192,16699,1,2,0:0:0:0:
256,192,16943,1,8,0:0:0:0:
336,192,17065,2,0,P|376:112|320:96,1,170,2|2,0:0|0:0,0:0:0:0:
152,192,17675,1,8,0:0:0:0:
336,192,17797,6,0,P|416:144|384:96,1,170,2|2,0:0|0:0,0:0:0:0:
240,192,18407,1,8,0:0:0:0:
352,192,18529,1,4,0:0:0:0:
32,192,18773,2,0,L|72:152,1,56.6666666666667
424,192,19139,1,8,0:0:0:0:
360,192,19261,2,0,P|280:152|304:80,1,170,2|2,0:0|0:0,0:0:0:0:
96,192,19871,1,8,0:0:0:0:
288,192,19993,2,0,P|368:120|368:112,1,113.333333333333,4|0,0:0|0:0,0:0:0:0:
152,192,20359,2,0,P|72:120|72:112,1,113.333333333333,8|0,0:0|0:0,0:0:0:0:
296,192,20725,6,0,L|416:192,1,113.333333333333,2|2,0:0|0:0,0:0:0:0:
296,192,21091,1,0,0:0:0:0:
64,192,21335,1,8,0:0:0:0:
0,192,21457,2,0,L|176:192,1,170,2|2,0:0|0:0,0:0:0:0:
384,192,22067,1,8,0:0:0:0:
448,192,22189,2,0,L|272:192,1,170,2|2,0:0|0:0,0:0:0:0:
448,192,22799,1,8,0:0:0:0:
512,192,22921,2,0,L|336:192,1,170,2|2,0:0|0:0,0:0:0:0:
192,192,23531,1,8,0:0:0:0:
416,192,23653,6,0,P|464:136|400:96,1,170,2|2,0:0|0:0,0:0:0:0:
272,192,24263,1,8,0:0:0:0:
376,192,24385,1,4,0:0:0:0:
48,192,24629,2,0,L|112:192,1,56.6666666666667
256,192,24995,1,8,0:0:0:0:
336,192,25117,2,0,P|344:128|256:88,1,170,2|2,0:0|0:0,0:0:0:0:
64,192,25727,1,8,0:0:0:0:
256,192,25849,2,0,P|183:145|96:136,1,170,4|8,0:0|0:0,0:0:0:0:
256,192,26460,1,0,0:0:0:0:
64,192,26582,6,0,P|8:168|24:128,1,113.333333333333,4|0,0:0|0:0,0:0:0:0:
336,192,26948,2,0,P|392:168|376:128,1,113.333333333333,4|0,0:0|0:0,0:0:0:0:
160,192,27314,2,0,P|104:168|120:128,1,113.333333333333,4|0,0:0|0:0,0:0:0:0:
320,192,27680,2,0,P|376:168|360:128,1,113.333333333333,4|0,0:0|0:0,0:0:0:0:
128,192,28046,6,0,P|144:128|184:128,1,113.333333333333,8|0,0:0|0:0,0:0:0:0:
392,192,28412,2,0,P|376:128|336:128,1,113.333333333333,8|0,0:0|0:0,0:0:0:0:
200,192,28778,2,0,P|216:128|256:128,1,113.333333333333,8|0,0:0|0:0,0:0:0:0:
352,192,29144,2,0,P|336:128|296:128,1,113.333333333333,8|0,0:0|0:0,0:0:0:0:
80,192,29510,6,0,P|56:120|128:88,1,170,2|2,0:0|0:0,0:0:0:0:
304,192,30120,1,0,0:0:0:0:
400,192,30242,2,0,P|472:136|464:112,1,113.333333333333,4|0,0:0|0:0,0:0:0:0:
392,192,30608,1,0,0:0:0:0:
32,192,30852,1,8,0:0:0:0:
96,192,30974,2,0,P|176:128|152:96,1,170,2|2,0:0|0:0,0:0:0:0:
64,192,31584,1,8,0:0:0:0:
280,192,31706,2,0,L|408:192,1,113.333333333333,6|8,0:0|0:0,0:0:0:0:
192,192,32072,2,0,L|282:120,1,113.333333333333,8|0,0:0|0:0,0:0:0:0:
384,192,32438,6,0,P|368:128|320:104,1,113.333333333333,4|8,0:0|0:0,0:0:0:0:
96,192,32804,1,2,0:0:0:0:
400,192,33048,2,0,L|352:160,1,56.6666666666667,8|0,0:0|0:0,0:0:0:0:
256,192,33536,1,2,0:0:0:0:
496,192,33780,2,0,L|432:192,1,56.6666666666667,8|2,0:0|0:0,0:0:0:0:
224,192,34268,1,2,0:0:0:0:
16,192,34512,2,0,L|88:192,1,56.6666666666667,8|2,0:0|0:0,0:0:0:0:
288,192,35000,1,2,0:0:0:0:
128,192,35244,1,8,0:0:0:0:
328,192,35366,5,2,0:0:0:0:
192,192,35732,1,2,0:0:0:0:
416,192,35976,1,0,0:0:0:0:
216,192,36098,2,0,L|64:192,1,113.333333333333,4|0,0:0|0:0,0:0:0:0:
160,192,36464,1,0,0:0:0:0:
480,192,36708,1,8,0:0:0:0:
408,192,36830,6,0,P|480:128|448:96,1,170,2|2,0:0|0:0,0:0:0:0:
288,192,37441,1,0,0:0:0:0:
480,192,37563,1,0,0:0:0:0:
176,192,37807,1,0,0:0:0:0:
88,192,37929,1,0,0:0:0:0:
344,192,38295,5,0,0:0:0:0:
136,192,38661,2,0,L|256:192,1,113.333333333333
288,192,39027,1,0,0:0:0:0:
80,192,39393,1,0,0:0:0:0:
