osu file format v14

[General]
AudioFilename: seal.mp4.mp3
AudioLeadIn: 0
PreviewTime: 6816
Countdown: 0
SampleSet: Soft
StackLeniency: 0.7
Mode: 2
LetterboxInBreaks: 0
WidescreenStoryboard: 0

[Editor]
DistanceSpacing: 1.5
BeatDivisor: 3
GridSize: 8
TimelineZoom: 3.199999

[Metadata]
Title:seal.mp4
TitleUnicode:seal.mp4
Artist:joeyclassic
ArtistUnicode:joeyclassic
Creator:Ascendance
Version:Lost's Salad
Source:
Tags:Magic_Bomb JBHyperion Lost koliron seal snow white swing retro jazz jazzy thirds super mario land muda kingdom remix
BeatmapID:825418
BeatmapSetID:377103

[Difficulty]
HPDrainRate:4.5
CircleSize:3
OverallDifficulty:6
ApproachRate:6
SliderMultiplier:1.1
SliderTickRate:1

[Events]
//Background and Video events
0,0,"seal1bg.jpg",0,0
Video,0,"sealmp4 video.avi"
//Break Periods
//Storyboard Layer 0 (Background)
//Storyboard Layer 1 (Fail)
//Storyboard Layer 2 (Pass)
//Storyboard Layer 3 (Foreground)
//Storyboard Sound Samples

[TimingPoints]
3156,366.032210834554,4,2,1,25,1,0
4620,-100,4,2,2,30,0,0
5352,-100,4,2,1,40,0,0
6084,-100,4,2,1,30,0,0
6206,-100,4,2,2,50,0,0
6816,-100,4,2,1,50,0,0
6907,-100,4,2,2,30,0,0
8646,-100,4,2,1,30,0,0
9012,-100,4,2,2,60,0,0
9134,-100,4,2,2,30,0,0
9622,-100,4,2,1,50,0,0
9744,-100,4,2,2,30,0,0
12672,-100,4,2,1,50,0,0
12764,-100,4,2,2,30,0,0
14441,-100,4,2,1,30,0,0
14502,-100,4,2,2,30,0,0
14869,-100,4,2,2,60,0,0
14960,-100,4,2,2,30,0,0
15479,-100,4,2,1,50,0,0
15601,-100,4,2,2,30,0,0
17797,-100,4,2,1,40,0,1
17888,-100,4,2,2,30,0,1
19261,-100,4,2,1,30,0,1
19352,-100,4,2,2,30,0,1
19993,-100,4,2,2,40,0,1
20084,-100,4,2,2,30,0,1
20359,-100,4,2,1,50,0,1
20481,-100,4,2,2,30,0,1
23653,-100,4,2,1,40,0,1
23745,-100,4,2,2,30,0,1
25117,-100,4,2,1,30,0,1
25209,-100,4,2,2,30,0,1
25849,-100,4,2,2,40,0,1
25941,-100,4,2,2,30,0,1
26216,-100,4,2,1,50,0,1
26307,-100,4,2,2,30,0,1
26582,-100,4,2,2,50,0,1
27314,-100,4,2,2,35,0,1
28046,-100,4,2,1,50,0,1
28778,-100,4,2,1,35,0,1
29510,-100,4,2,1,40,0,0
29601,-100,4,2,2,30,0,0
32072,-100,4,2,1,40,0,0
32164,-100,4,2,2,30,0,0
33048,-100,4,2,1,40,0,0
33170,-100,4,2,2,30,0,0
36098,-100,4,2,2,25,0,0
36830,-100,4,2,2,20,0,0
37563,-100,4,2,2,10,0,0
39393,-100,4,2,2,5,0,0

[Colours]
Combo1 : 85,78,86
Combo2 : 0,128,255
Combo3 : 128,255,255
Combo4 : 248,251,132

[HitObjects]
176,272,3156,6,0,L|224:272|288:272,1,110,2|0,0:0|0:0,0:0:0:0:
480,272,3888,2,0,L|432:272|368:272,1,110,2|0,0:0|0:0,0:0:0:0:
192,272,4620,2,0,L|240:272|304:272,1,110,2|2,0:0|0:0,0:0:0:0:
464,272,5352,2,0,L|416:272|352:272,1,110,8|8,0:0|0:0,0:0:0:0:
80,272,6084,6,0,L|192:272,1,110,2|2,0:0|0:0,0:0:0:0:
376,288,6816,2,0,L|232:288,1,110,8|6,0:0|0:0,0:0:0:0:
392,288,7426,1,8,0:0:0:0:
440,288,7548,6,0,L|328:288,1,110,2|2,0:0|0:0,0:0:0:0:
168,288,8158,1,8,0:0:0:0:
216,288,8280,2,0,B|328:288,1,110,6|8,0:0|0:0,0:0:0:0:
512,288,9012,6,0,L|400:288,1,110,4|2,0:0|0:0,0:0:0:0:
176,288,9622,2,0,L|16:288,1,146.666666666667,8|2,0:0|0:0,0:0:0:0:
176,288,10354,1,0,0:0:0:0:
224,288,10476,6,0,L|336:288,1,110,2|2,0:0|0:0,0:0:0:0:
176,288,11086,1,8,0:0:0:0:
224,288,11208,2,0,L|336:288,1,110,2|2,0:0|0:0,0:0:0:0:
496,288,11818,1,8,0:0:0:0:
448,288,11940,6,0,L|336:288,1,110,2|2,0:0|0:0,0:0:0:0:
152,232,12672,2,0,L|264:232,1,110,8|6,0:0|0:0,0:0:0:0:
104,288,13282,1,8,0:0:0:0:
152,288,13404,6,0,L|264:288,1,110,2|2,0:0|0:0,0:0:0:0:
104,248,14014,2,0,L|56:248,1,36.6666666666667,6|0,0:0|0:0,0:0:0:0:
248,216,14502,2,0,L|328:216,1,73.3333333333333,8|8,0:0|0:0,0:0:0:0:
272,288,14869,6,0,L|160:288,1,110,4|2,0:0|0:0,0:0:0:0:
0,272,15479,1,8,0:0:0:0:
48,256,15601,2,0,L|160:256,1,110,2|2,0:0|0:0,0:0:0:0:
320,256,16211,1,8,0:0:0:0:
368,280,16333,6,0,L|240:280,1,110,2|2,0:0|0:0,0:0:0:0:
96,280,16943,1,8,0:0:0:0:
144,288,17065,2,0,L|256:288,1,110,2|2,0:0|0:0,0:0:0:0:
416,288,17675,1,8,0:0:0:0:
464,288,17797,6,0,L|352:288,1,110,2|2,0:0|0:0,0:0:0:0:
184,288,18529,2,0,L|264:288,1,73.3333333333333,4|4,0:0|0:0,0:0:0:0:
464,288,19139,6,0,L|304:288,1,146.666666666667,12|2,0:0|0:0,0:0:0:0:
160,208,19871,1,8,0:0:0:0:
112,208,19993,2,0,L|224:208,1,110,4|8,0:0|0:0,0:0:0:0:
384,288,20603,1,8,0:0:0:0:
432,288,20725,6,0,L|320:288,1,110,2|2,0:0|0:0,0:0:0:0:
160,288,21335,1,8,0:0:0:0:
112,288,21457,1,2,0:0:0:0:
288,224,21823,1,2,0:0:0:0:
448,144,22067,1,2,0:0:0:0:
400,144,22189,5,8,0:0:0:0:
224,208,22555,1,2,0:0:0:0:
384,192,22799,1,8,0:0:0:0:
432,192,22921,1,2,0:0:0:0:
256,216,23287,1,0,0:0:0:0:
96,208,23531,1,8,0:0:0:0:
144,208,23653,5,2,0:0:0:0:
320,192,24019,1,2,0:0:0:0:
144,128,24385,2,0,L|64:128,1,73.3333333333333,4|4,0:0|0:0,0:0:0:0:
344,296,24995,6,0,L|197:296,1,146.666666666667,12|2,0:0|0:0,0:0:0:0:
48,288,25727,2,0,L|0:288,1,36.6666666666667,8|4,0:0|0:0,0:0:0:0:
176,288,26094,2,0,L|224:288,1,36.6666666666667,0|8,0:0|0:0,0:0:0:0:
368,288,26460,1,0,0:0:0:0:
416,288,26582,5,4,0:0:0:0:
96,288,26948,1,4,0:0:0:0:
296,288,27314,1,4,0:0:0:0:
496,288,27680,1,4,0:0:0:0:
176,288,28046,5,8,0:0:0:0:
376,288,28412,1,8,0:0:0:0:
56,288,28778,1,8,0:0:0:0:
256,288,29144,6,0,L|336:208,2,110,8|0|2,0:0|0:0|0:0,0:0:0:0:
72,288,30242,2,0,L|184:288,1,110,4|2,0:0|0:0,0:0:0:0:
368,288,30974,6,0,L|480:288,1,110,2|2,0:0|0:0,0:0:0:0:
320,288,31584,1,8,0:0:0:0:
272,288,31706,2,0,L|160:288,1,110,2|2,0:0|0:0,0:0:0:0:
344,288,32438,6,0,L|264:208,1,110,2|2,0:0|0:0,0:0:0:0:
80,288,33170,2,0,L|160:208,1,110,2|2,0:0|0:0,0:0:0:0:
320,288,33780,1,8,0:0:0:0:
368,288,33902,6,0,L|448:208,1,110,2|2,0:0|0:0,0:0:0:0:
288,288,34512,1,8,0:0:0:0:
240,288,34634,2,0,L|160:208,1,110,2|2,0:0|0:0,0:0:0:0:
8,288,35244,1,8,0:0:0:0:
56,288,35366,6,0,L|168:288,1,110,2|2,0:0|0:0,0:0:0:0:
352,288,36098,2,0,L|240:288,1,110,2|2,0:0|0:0,0:0:0:0:
56,288,36830,6,0,L|168:288,1,110,2|2,0:0|0:0,0:0:0:0:
352,136,37563,2,0,P|384:184|352:248,1,110,0|2,0:0|0:0,0:0:0:0:
160,200,38295,2,0,L|280:200,1,110,0|2,0:0|0:0,0:0:0:0:
104,144,38905,1,0,0:0:0:0:
336,272,39393,1,2,0:0:0:0:
