osu file format v14

[General]
AudioFilename: seal.mp4.mp3
AudioLeadIn: 0
PreviewTime: 6816
Countdown: 0
SampleSet: Soft
StackLeniency: 0.7
Mode: 2
LetterboxInBreaks: 0
WidescreenStoryboard: 0

[Editor]
DistanceSpacing: 1.5
BeatDivisor: 3
GridSize: 4
TimelineZoom: 1

[Metadata]
Title:seal.mp4
TitleUnicode:seal.mp4
Artist:joeyclassic
ArtistUnicode:joeyclassic
Creator:Ascendance
Version:Cup
Source:
Tags:Magic_Bomb JBHyperion Lost koliron seal snow white swing retro jazz jazzy thirds super mario land muda kingdom remix
BeatmapID:825417
BeatmapSetID:377103

[Difficulty]
HPDrainRate:4
CircleSize:2.5
OverallDifficulty:4
ApproachRate:4
SliderMultiplier:0.9
SliderTickRate:1

[Events]
//Background and Video events
Video,0,"sealmp4 video.avi"
0,0,"seal1bg.jpg",0,0
//Break Periods
//Storyboard Layer 0 (Background)
//Storyboard Layer 1 (Fail)
//Storyboard Layer 2 (Pass)
//Storyboard Layer 3 (Foreground)
//Storyboard Sound Samples

[TimingPoints]
3156,366.032210834554,4,2,1,25,1,0
3888,-100,4,2,1,25,0,0
4620,-100,4,2,2,30,0,0
5352,-100,4,2,1,40,0,0
6084,-100,4,2,1,30,0,0
6206,-100,4,2,2,50,0,0
6816,-100,4,2,1,50,0,0
7182,-100,4,2,2,30,0,0
8646,-100,4,2,1,30,0,0
9012,-100,4,2,2,60,0,0
9561,-100,4,2,2,30,0,0
12672,-100,4,2,1,50,0,0
13038,-100,4,2,2,30,0,0
14869,-100,4,2,2,60,0,0
15418,-100,4,2,1,30,0,0
15967,-100,4,2,2,30,0,0
17797,-100,4,2,1,40,0,1
18163,-100,4,2,2,30,0,1
19261,-100,4,2,1,30,0,1
19627,-100,4,2,2,30,0,1
19993,-100,4,2,2,40,0,1
20359,-100,4,2,1,50,0,1
20725,-100,4,2,2,30,0,1
23653,-100,4,2,1,40,0,1
24385,-100,4,2,2,30,0,1
25117,-100,4,2,1,30,0,1
25483,-100,4,2,2,30,0,1
25849,-100,4,2,2,40,0,1
26216,-100,4,2,1,50,0,1
26582,-100,4,2,2,50,0,1
27314,-100,4,2,2,35,0,1
28046,-100,4,2,1,50,0,1
28778,-100,4,2,1,35,0,1
29510,-100,4,2,1,40,0,0
29876,-100,4,2,2,30,0,0
32072,-100,4,2,1,40,0,0
32438,-100,4,2,2,30,0,0
36098,-100,4,2,2,25,0,0
36830,-100,4,2,2,20,0,0
37929,-100,4,2,2,10,0,0
39393,-100,4,2,2,5,0,0

[Colours]
Combo1 : 85,78,86
Combo2 : 0,128,255
Combo3 : 128,255,255
Combo4 : 248,251,132

[HitObjects]
132,108,3156,6,0,P|72:124|44:148,1,90,2|0,0:0|0:0,0:0:0:0:
160,204,3888,2,0,P|204:224|248:216,1,90,2|0,0:0|0:0,0:0:0:0:
368,128,4620,2,0,L|276:132,1,90,2|2,0:0|0:0,0:0:0:0:
376,216,5352,2,0,L|466:208,1,90,8|8,0:0|0:0,0:0:0:0:
344,128,6084,1,2,0:0:0:0:
232,208,6450,1,2,0:0:0:0:
312,296,6816,6,8,P|256:284|200:304,1,90,8|6,0:0|0:0,0:0:0:0:
84,232,7548,2,0,L|176:216,1,90,2|2,0:0|0:0,0:0:0:0:
292,144,8280,2,0,L|388:176,1,90,6|8,0:0|0:0,0:0:0:0:
488,248,9012,6,0,P|432:268|340:260,2,135,4|0|2,0:0|0:0|0:0,0:0:0:0:
372,172,10476,2,0,L|272:172,1,90,2|2,0:0|0:0,0:0:0:0:
156,176,11208,1,2,0:0:0:0:
240,268,11574,1,2,0:0:0:0:
120,272,11940,2,0,L|28:272,1,90,2|2,0:0|0:0,0:0:0:0:
120,192,12672,6,0,P|164:172|200:128,1,90,8|6,0:0|0:0,0:0:0:0:
304,96,13404,2,0,L|392:128,2,90,2|2|0,0:0|0:0|0:0,0:0:0:0:
176,172,14502,1,2,0:0:0:0:
64,248,14869,6,0,P|112:272|200:248,2,135,4|8|0,0:0|0:0|0:0,0:0:0:0:
228,152,16333,1,2,0:0:0:0:
344,224,16699,2,0,L|440:232,2,90,2|2|2,0:0|0:0|0:0,0:0:0:0:
192,276,17797,2,0,P|152:288|96:280,1,90,2|2,0:0|0:0,0:0:0:0:
236,184,18529,6,0,L|320:144,2,90,4|2|8,0:0|0:0|0:0,0:0:0:0:
128,184,19627,1,2,0:0:0:0:
32,184,19993,1,4,0:0:0:0:
128,84,20359,1,8,0:0:0:0:
232,152,20725,6,0,L|304:148,1,67.5,2|2,0:0|0:0,0:0:0:0:
436,72,21366,1,0,0:0:0:0:
296,64,21823,2,0,L|206:64,1,90,2|2,0:0|0:0,0:0:0:0:
84,64,22555,1,2,0:0:0:0:
184,216,22921,1,2,0:0:0:0:
320,244,23287,1,2,0:0:0:0:
184,216,23653,1,2,0:0:0:0:
320,72,24385,6,0,L|424:52,1,90,4|2,0:0|0:0,0:0:0:0:
332,136,25117,2,0,L|428:180,2,90,8|2|4,0:0|0:0|0:0,0:0:0:0:
232,164,26216,1,8,0:0:0:0:
120,244,26582,6,0,L|20:288,1,90,4|4,0:0|0:0,0:0:0:0:
176,316,27314,2,0,L|260:284,1,90,4|4,0:0|0:0,0:0:0:0:
156,204,28046,2,0,L|60:172,1,90,8|8,0:0|0:0,0:0:0:0:
200,104,28778,2,0,L|308:76,1,90,8|8,0:0|0:0,0:0:0:0:
440,88,29510,2,0,L|416:184,1,90,0|2,0:0|0:0,0:0:0:0:
320,236,30242,6,0,P|260:248|224:224,1,90,4|2,0:0|0:0,0:0:0:0:
72,232,30974,2,0,L|123:158,1,90,2|2,0:0|0:0,0:0:0:0:
196,232,31706,2,0,L|288:272,1,90,2|2,0:0|0:0,0:0:0:0:
392,256,32438,6,0,P|448:196|384:136,1,180,2|2,0:0|0:0,0:0:0:0:
300,140,33536,2,0,L|228:200,1,90,2|2,0:0|0:0,0:0:0:0:
136,256,34268,1,2,0:0:0:0:
260,292,34634,2,0,L|356:320,2,90,2|2|2,0:0|0:0|0:0,0:0:0:0:
164,248,35732,1,2,0:0:0:0:
268,216,36098,6,0,P|328:224|376:216,2,90,2|2|0,0:0|0:0|0:0,0:0:0:0:
168,160,37196,2,0,L|72:160,1,90,2|0,0:0|0:0,0:0:0:0:
168,68,37929,1,2,0:0:0:0:
324,72,38295,1,0,0:0:0:0:
192,132,38661,2,0,P|164:200|160:208,1,60,2|0,0:0|0:0,0:0:0:0:
344,192,39393,1,2,0:0:0:0:
