osu file format v14

[General]
AudioFilename: audio.mp3
AudioLeadIn: 0
PreviewTime: 199
Countdown: 0
SampleSet: Normal
StackLeniency: 0.7
Mode: 3
LetterboxInBreaks: 0
SpecialStyle: 0
WidescreenStoryboard: 0

[Editor]
DistanceSpacing: 0.7
BeatDivisor: 4
GridSize: 4
TimelineZoom: 2.100001

[Metadata]
Title:seal the 3rd.mp4
TitleUnicode:seal the 3rd.mp4
Artist:joeyclassic
ArtistUnicode:joeyclassic
Creator:Tofu1222
Version:Cute Seal
Source:
Tags:sequel sealquel trilogy meme cute extended
BeatmapID:1353986
BeatmapSetID:638263

[Difficulty]
HPDrainRate:7.5
CircleSize:4
OverallDifficulty:7.5
ApproachRate:5
SliderMultiplier:1.4
SliderTickRate:1

[Events]
//Background and Video events
0,0,"bg.jpg",0,0
//Break Periods
//Storyboard Layer 0 (Background)
//Storyboard Layer 1 (Fail)
//Storyboard Layer 2 (Pass)
//Storyboard Layer 3 (Foreground)
//Storyboard Sound Samples

[TimingPoints]
199,425.531914893617,4,1,1,40,1,0

[HitObjects]
64,192,199,5,2,0:0:0:0:
448,192,199,128,0,411:0:0:0:0:
192,192,411,128,0,518:0:0:0:0:
320,192,518,128,0,624:0:0:0:0:
64,192,624,128,2,837:0:0:0:0:
448,192,624,1,0,0:0:0:0:
192,192,837,128,0,1050:0:0:0:0:
64,192,1050,128,2,1369:0:0:0:0:
448,192,1050,1,0,0:0:0:0:
320,192,1262,128,0,1475:0:0:0:0:
448,192,1475,1,8,0:0:0:0:
64,192,1475,1,0,0:0:0:0:
192,192,1475,1,0,0:0:0:0:
320,192,1688,1,0,0:0:0:0:
192,192,1901,128,2,2007:0:0:0:0:
448,192,1901,1,0,0:0:0:0:
320,192,2007,128,0,2113:0:0:0:0:
192,192,2113,128,0,2220:0:0:0:0:
320,192,2220,128,0,2326:0:0:0:0:
448,192,2326,128,2,2433:0:0:0:0:
64,192,2326,1,0,0:0:0:0:
320,192,2539,128,0,2645:0:0:0:0:
192,192,2752,128,2,2964:0:0:0:0:
64,192,2752,1,0,0:0:0:0:
320,192,2964,1,0,0:0:0:0:
448,192,3177,1,8,0:0:0:0:
192,192,3177,1,0,0:0:0:0:
64,192,3177,1,0,0:0:0:0:
320,192,3390,1,0,0:0:0:0:
448,192,3603,1,2,0:0:0:0:
64,192,3603,128,0,3816:0:0:0:0:
320,192,3816,128,0,3922:0:0:0:0:
192,192,3922,128,0,4028:0:0:0:0:
64,192,4028,1,2,0:0:0:0:
448,192,4028,128,0,4241:0:0:0:0:
320,192,4241,128,0,4454:0:0:0:0:
448,192,4454,128,2,4773:0:0:0:0:
64,192,4454,1,0,0:0:0:0:
192,192,4667,128,0,4879:0:0:0:0:
64,192,4879,1,8,0:0:0:0:
448,192,4879,1,0,0:0:0:0:
320,192,4879,1,0,0:0:0:0:
192,192,5092,1,0,0:0:0:0:
64,192,5305,128,2,5411:0:0:0:0:
448,192,5305,1,0,0:0:0:0:
192,192,5411,128,0,5518:0:0:0:0:
320,192,5518,128,0,5624:0:0:0:0:
192,192,5624,128,0,5730:0:0:0:0:
448,192,5730,1,2,0:0:0:0:
64,192,5730,128,0,5837:0:0:0:0:
192,192,5943,128,0,6050:0:0:0:0:
320,192,6156,128,2,6369:0:0:0:0:
64,192,6156,1,0,0:0:0:0:
192,192,6369,1,0,0:0:0:0:
64,192,6581,1,8,0:0:0:0:
448,192,6581,1,0,0:0:0:0:
320,192,6581,1,0,0:0:0:0:
192,192,6794,1,0,0:0:0:0:
320,192,6901,1,0,0:0:0:0:
64,192,7007,128,2,7220:0:0:0:0:
448,192,7007,1,0,0:0:0:0:
192,192,7220,1,0,0:0:0:0:
64,192,7433,1,8,0:0:0:0:
320,192,7433,128,0,7539:0:0:0:0:
448,192,7433,1,0,0:0:0:0:
448,192,7645,128,0,7752:0:0:0:0:
320,192,7858,128,2,7964:0:0:0:0:
64,192,7858,1,0,0:0:0:0:
192,192,8071,128,0,8177:0:0:0:0:
64,192,8284,128,0,8496:0:0:0:0:
448,192,8284,1,8,0:0:0:0:
320,192,8284,1,0,0:0:0:0:
192,192,8496,1,0,0:0:0:0:
448,192,8603,1,0,0:0:0:0:
192,192,8709,128,2,8816:0:0:0:0:
320,192,8709,1,0,0:0:0:0:
64,192,8922,1,0,0:0:0:0:
448,192,9028,128,0,9135:0:0:0:0:
64,192,9135,1,8,0:0:0:0:
320,192,9135,128,0,9241:0:0:0:0:
192,192,9135,1,0,0:0:0:0:
192,192,9347,128,0,9454:0:0:0:0:
64,192,9560,128,2,9773:0:0:0:0:
448,192,9560,1,0,0:0:0:0:
320,192,9773,1,0,0:0:0:0:
64,192,9986,1,8,0:0:0:0:
448,192,9986,1,0,0:0:0:0:
192,192,9986,1,0,0:0:0:0:
320,192,10198,1,0,0:0:0:0:
448,192,10411,1,2,0:0:0:0:
192,192,10411,128,0,10624:0:0:0:0:
320,192,10624,128,0,10837:0:0:0:0:
448,192,10837,1,8,0:0:0:0:
192,192,10837,1,0,0:0:0:0:
64,192,10837,1,0,0:0:0:0:
320,192,11050,128,0,11262:0:0:0:0:
448,192,11262,128,2,11475:0:0:0:0:
64,192,11262,1,0,0:0:0:0:
320,192,11475,128,0,11688:0:0:0:0:
64,192,11688,1,8,0:0:0:0:
192,192,11688,128,0,11901:0:0:0:0:
448,192,11688,1,0,0:0:0:0:
320,192,11901,1,0,0:0:0:0:
192,192,12113,128,2,12220:0:0:0:0:
64,192,12113,1,0,0:0:0:0:
320,192,12326,128,0,12433:0:0:0:0:
448,192,12539,1,8,0:0:0:0:
64,192,12539,128,0,12645:0:0:0:0:
192,192,12539,1,0,0:0:0:0:
320,192,12752,128,0,12858:0:0:0:0:
64,192,12964,128,2,13177:0:0:0:0:
448,192,12964,1,0,0:0:0:0:
192,192,13177,1,0,0:0:0:0:
448,192,13390,1,8,0:0:0:0:
64,192,13390,1,0,0:0:0:0:
320,192,13390,1,0,0:0:0:0:
192,192,13603,1,0,0:0:0:0:
448,192,13816,1,2,0:0:0:0:
64,192,13816,128,0,14241:0:0:0:0:
320,192,14028,1,0,0:0:0:0:
192,192,14241,1,2,0:0:0:0:
448,192,14241,128,0,14667:0:0:0:0:
64,192,14454,1,0,0:0:0:0:
192,192,14667,128,2,14879:0:0:0:0:
320,192,14667,1,0,0:0:0:0:
320,192,14879,128,0,15092:0:0:0:0:
448,192,15092,128,2,15518:0:0:0:0:
64,192,15092,1,0,0:0:0:0:
192,192,15305,1,0,0:0:0:0:
320,192,15518,128,2,15730:0:0:0:0:
64,192,15518,1,0,0:0:0:0:
192,192,15730,128,0,15943:0:0:0:0:
64,192,15943,128,2,16156:0:0:0:0:
448,192,15943,1,0,0:0:0:0:
320,192,16156,128,0,16369:0:0:0:0:
192,192,16369,128,2,16794:0:0:0:0:
448,192,16369,1,0,0:0:0:0:
320,192,16581,1,0,0:0:0:0:
64,192,16794,128,2,17220:0:0:0:0:
448,192,16794,1,0,0:0:0:0:
320,192,17007,1,0,0:0:0:0:
448,192,17220,1,2,0:0:0:0:
192,192,17220,128,0,17645:0:0:0:0:
320,192,17433,1,0,0:0:0:0:
64,192,17645,1,8,0:0:0:0:
448,192,17645,128,0,17752:0:0:0:0:
320,192,17645,1,0,0:0:0:0:
192,192,17858,1,0,0:0:0:0:
320,192,18071,128,2,18284:0:0:0:0:
448,192,18071,1,0,0:0:0:0:
192,192,18284,128,0,18496:0:0:0:0:
448,192,18496,1,8,0:0:0:0:
64,192,18496,128,0,18709:0:0:0:0:
320,192,18496,1,0,0:0:0:0:
320,192,18709,1,0,0:0:0:0:
448,192,18869,1,0,0:0:0:0:
192,192,18922,128,2,19135:0:0:0:0:
64,192,18922,1,0,0:0:0:0:
320,192,19135,1,0,0:0:0:0:
192,192,19277,1,0,0:0:0:0:
448,192,19347,128,8,19560:0:0:0:0:
64,192,19347,1,0,0:0:0:0:
320,192,19347,1,0,0:0:0:0:
192,192,19560,1,0,0:0:0:0:
64,192,19702,1,0,0:0:0:0:
320,192,19773,128,2,19986:0:0:0:0:
448,192,19773,1,0,0:0:0:0:
192,192,19986,1,0,0:0:0:0:
64,192,20199,1,8,0:0:0:0:
448,192,20199,1,0,0:0:0:0:
320,192,20199,1,0,0:0:0:0:
192,192,20411,1,0,0:0:0:0:
64,192,20624,128,2,20730:0:0:0:0:
448,192,20624,1,0,0:0:0:0:
320,192,20837,128,0,20943:0:0:0:0:
192,192,20943,128,0,21050:0:0:0:0:
448,192,21050,128,2,21156:0:0:0:0:
64,192,21050,1,0,0:0:0:0:
320,192,21262,128,0,21369:0:0:0:0:
192,192,21475,128,2,21581:0:0:0:0:
64,192,21475,1,0,0:0:0:0:
448,192,21581,128,0,21688:0:0:0:0:
192,192,21688,128,0,21794:0:0:0:0:
320,192,21901,1,2,0:0:0:0:
64,192,21901,128,0,22113:0:0:0:0:
448,192,22113,1,0,0:0:0:0:
320,192,22326,128,2,22433:0:0:0:0:
192,192,22326,1,0,0:0:0:0:
64,192,22433,128,0,22539:0:0:0:0:
320,192,22539,128,0,22645:0:0:0:0:
192,192,22645,128,0,22752:0:0:0:0:
64,192,22752,1,2,0:0:0:0:
448,192,22752,128,0,22964:0:0:0:0:
320,192,22964,128,0,23177:0:0:0:0:
64,192,23177,1,2,0:0:0:0:
192,192,23177,128,0,23390:0:0:0:0:
320,192,23390,128,0,23603:0:0:0:0:
64,192,23603,1,8,0:0:0:0:
448,192,23603,1,0,0:0:0:0:
192,192,23603,1,0,0:0:0:0:
192,192,23816,1,0,0:0:0:0:
320,192,24028,1,2,0:0:0:0:
448,192,24028,128,0,24241:0:0:0:0:
64,192,24241,128,0,24347:0:0:0:0:
192,192,24347,128,0,24454:0:0:0:0:
448,192,24454,1,2,0:0:0:0:
320,192,24454,128,0,24667:0:0:0:0:
192,192,24667,128,0,24879:0:0:0:0:
448,192,24879,1,2,0:0:0:0:
64,192,24879,128,0,25198:0:0:0:0:
320,192,25092,128,0,25305:0:0:0:0:
448,192,25305,1,8,0:0:0:0:
64,192,25305,1,0,0:0:0:0:
192,192,25305,1,0,0:0:0:0:
320,192,25518,1,0,0:0:0:0:
192,192,25730,128,2,25837:0:0:0:0:
448,192,25730,1,0,0:0:0:0:
320,192,25837,128,0,25943:0:0:0:0:
192,192,25943,128,0,26050:0:0:0:0:
320,192,26050,128,0,26156:0:0:0:0:
448,192,26156,128,2,26262:0:0:0:0:
64,192,26156,1,0,0:0:0:0:
320,192,26369,128,0,26475:0:0:0:0:
192,192,26581,128,2,26794:0:0:0:0:
448,192,26581,1,0,0:0:0:0:
320,192,26794,1,0,0:0:0:0:
64,192,27007,1,8,0:0:0:0:
192,192,27007,1,0,0:0:0:0:
448,192,27007,1,0,0:0:0:0:
320,192,27220,1,0,0:0:0:0:
192,192,27433,1,2,0:0:0:0:
64,192,27433,128,0,27645:0:0:0:0:
448,192,27645,128,0,27752:0:0:0:0:
320,192,27752,128,0,27858:0:0:0:0:
64,192,27858,1,2,0:0:0:0:
192,192,27858,128,0,28071:0:0:0:0:
320,192,28071,128,0,28284:0:0:0:0:
64,192,28284,1,2,0:0:0:0:
448,192,28284,128,0,28603:0:0:0:0:
192,192,28496,128,0,28709:0:0:0:0:
64,192,28709,1,8,0:0:0:0:
448,192,28709,1,0,0:0:0:0:
320,192,28709,1,0,0:0:0:0:
192,192,28922,1,0,0:0:0:0:
64,192,29135,128,2,29241:0:0:0:0:
448,192,29135,1,0,0:0:0:0:
192,192,29241,128,0,29347:0:0:0:0:
448,192,29347,128,0,29454:0:0:0:0:
320,192,29454,128,0,29560:0:0:0:0:
192,192,29560,1,2,0:0:0:0:
64,192,29560,128,0,29667:0:0:0:0:
192,192,29773,128,0,29879:0:0:0:0:
320,192,29986,128,2,30198:0:0:0:0:
448,192,29986,1,0,0:0:0:0:
192,192,30198,1,0,0:0:0:0:
64,192,30411,1,8,0:0:0:0:
448,192,30411,1,0,0:0:0:0:
320,192,30411,1,0,0:0:0:0:
