osu file format v14

[General]
AudioFilename: audio.mp3
AudioLeadIn: 0
PreviewTime: 199
Countdown: 0
SampleSet: Soft
StackLeniency: 0.7
Mode: 0
LetterboxInBreaks: 0
WidescreenStoryboard: 0

[Editor]
DistanceSpacing: 1
BeatDivisor: 2
GridSize: 32
TimelineZoom: 2.3

[Metadata]
Title:seal the 3rd.mp4
TitleUnicode:seal the 3rd.mp4
Artist:joeyclassic
ArtistUnicode:joeyclassic
Creator:StarrStyx
Version:Seal
Source:
Tags:seal sequel sealquel trilogy meme cute extended rand paul 2016
BeatmapID:939749
BeatmapSetID:436250

[Difficulty]
HPDrainRate:5
CircleSize:4
OverallDifficulty:6
ApproachRate:7
SliderMultiplier:1.9
SliderTickRate:1

[Events]
//Background and Video events
0,0,"seal_3.jpg",0,0
//Break Periods
//Storyboard Layer 0 (Background)
//Storyboard Layer 1 (Fail)
//Storyboard Layer 2 (Pass)
//Storyboard Layer 3 (Foreground)
//Storyboard Sound Samples

[TimingPoints]
199,425.531914893617,4,2,1,60,1,0
13816,-100,4,2,1,75,0,0
27433,-100,4,2,1,60,0,0
30624,-100,4,2,1,30,0,0

[Colours]
Combo1 : 49,172,247
Combo2 : 147,245,251
Combo3 : 114,214,252

[HitObjects]
79,272,199,6,0,L|181:266,1,95,2|0,0:0|0:0,0:0:0:0:
221,264,518,1,0,0:0:0:0:
221,264,624,1,8,0:0:0:0:
305,220,837,1,0,0:0:0:0:
388,264,1050,2,0,P|440:272|480:245,2,95,2|0|8,0:0|0:0|0:0,0:0:0:0:
253,129,1901,6,0,P|250:108|266:82,3,47.5,2|0|0|0,0:0|0:0|0:0|0:0,0:0:0:0:
290,47,2326,2,0,L|196:55,1,95,8|0,0:0|0:0,0:0:0:0:
100,63,2752,2,0,B|53:156|125:156|81:263,1,190,2|8,0:0|0:0,0:0:0:0:
232,125,3603,6,0,P|277:112|331:126,1,95,2|0,0:0|0:0,0:0:0:0:
367,139,3922,1,0,0:0:0:0:
367,139,4028,1,8,0:0:0:0:
439,200,4241,1,0,0:0:0:0:
393,283,4454,2,0,P|437:296|483:284,2,95,2|0|8,0:0|0:0|0:0,0:0:0:0:
204,257,5305,6,0,P|196:279|207:308,3,47.5,2|0|0|0,0:0|0:0|0:0|0:0,0:0:0:0:
222,344,5730,2,0,L|123:349,1,95,8|0,0:0|0:0,0:0:0:0:
47,295,6156,2,0,B|-3:210|97:210|46:104,1,190,2|8,0:0|0:0,0:0:0:0:
227,45,7007,6,0,P|269:33|323:46,1,95,2|0,0:0|0:0,0:0:0:0:
308,138,7433,2,0,P|350:148|390:186,1,95,8|0,0:0|0:0,0:0:0:0:
388,277,7858,2,0,P|430:266|470:228,2,95,2|0|8,0:0|0:0|0:0,0:0:0:0:
259,339,8603,1,0,0:0:0:0:
259,339,8709,6,0,B|202:334|202:334|174:317|174:317|107:310,1,142.5,2|0,0:0|0:0,0:0:0:0:
74,307,9135,2,0,B|57:264|57:264|83:222,1,95,8|0,0:0|0:0,0:0:0:0:
153,158,9560,2,0,B|239:133|239:204|346:146,1,190,2|8,0:0|0:0,0:0:0:0:
448,305,10411,5,2,0:0:0:0:
448,305,10624,2,0,B|349:358|349:287|263:312,1,190,2|0,0:0|0:0,0:0:0:0:
172,336,11262,2,0,L|77:323,1,95,2|0,0:0|0:0,0:0:0:0:
114,235,11688,2,0,L|209:248,1,95,8|0,0:0|0:0,0:0:0:0:
302,237,12113,6,0,P|347:249|401:229,2,95,2|0|8,0:0|0:0|0:0,0:0:0:0:
346,152,12752,1,0,0:0:0:0:
384,65,12964,2,0,B|298:40|298:111|191:53,1,190,2|8,0:0|0:0,0:0:0:0:
106,39,13603,1,0,0:0:0:0:
106,39,13816,6,0,P|77:90|98:170,1,142.5,2|0,0:0|0:0,0:0:0:0:
134,195,14241,2,0,P|164:242|116:317,1,142.5,8|0,0:0|0:0,0:0:0:0:
100,352,14667,2,0,L|2:366,2,95,2|0|8,0:0|0:0|0:0,0:0:0:0:
289,339,15518,6,0,P|335:346|382:325,2,95,2|0|8,0:0|0:0|0:0,0:0:0:0:
324,250,16156,1,0,0:0:0:0:
395,187,16369,2,0,P|438:106|395:24,1,190,2|8,0:0|0:0,0:0:0:0:
209,57,17220,6,0,P|144:81|71:60,1,142.5,2|0,0:0|0:0,0:0:0:0:
28,61,17645,2,0,B|45:107|45:107|25:154,1,95,8|0,0:0|0:0,0:0:0:0:
114,188,18071,2,0,B|97:234|97:234|117:281,2,95,2|0|8,0:0|0:0|0:0,0:0:0:0:
238,332,18922,6,0,L|345:342,1,95,8|0,0:0|0:0,0:0:0:0:
325,246,19347,2,0,L|432:256,1,95,8|0,0:0|0:0,0:0:0:0:
389,164,19773,2,0,B|346:130|346:130|210:150,1,190,8|0,0:0|0:0,0:0:0:0:
85,291,20624,5,2,0:0:0:0:
85,291,20837,2,0,P|61:295|37:289,2,47.5,0|0|8,0:0|0:0|0:0,0:0:0:0:
156,228,21262,1,0,0:0:0:0:
239,272,21475,2,0,P|244:295|237:318,2,47.5,2|0|0,0:0|0:0|0:0,0:0:0:0:
315,214,21901,2,0,L|442:221,1,95,8|0,0:0|0:0,0:0:0:0:
388,126,22326,6,0,P|381:105|393:78,3,47.5,2|0|0|0,0:0|0:0|0:0|0:0,0:0:0:0:
411,39,22752,2,0,L|316:33,1,95,8|0,0:0|0:0,0:0:0:0:
240,91,23177,2,0,B|86:102|86:102|121:124,1,190,2|8,0:0|0:0,0:0:0:0:
237,269,24028,6,0,L|130:278,1,95,2|0,0:0|0:0,0:0:0:0:
94,280,24347,1,0,0:0:0:0:
94,280,24454,1,8,0:0:0:0:
131,192,24667,1,0,0:0:0:0:
136,97,24879,2,0,P|114:55|70:41,2,95,2|0|8,0:0|0:0|0:0,0:0:0:0:
252,245,25730,6,0,P|276:261|299:261,3,47.5,2|0|0|0,0:0|0:0|0:0|0:0,0:0:0:0:
338,245,26156,2,0,L|348:343,1,95,8|0,0:0|0:0,0:0:0:0:
442,329,26581,2,0,P|472:236|438:153,1,190,2|8,0:0|0:0,0:0:0:0:
273,59,27433,6,0,L|158:62,1,95,2|0,0:0|0:0,0:0:0:0:
130,62,27752,1,0,0:0:0:0:
130,62,27858,1,8,0:0:0:0:
101,153,28071,1,0,0:0:0:0:
153,232,28284,2,0,P|98:247|54:234,2,95,2|0|8,0:0|0:0|0:0,0:0:0:0:
328,304,29135,6,0,P|333:281|326:258,3,47.5,2|0|0|0,0:0|0:0|0:0|0:0,0:0:0:0:
315,212,29560,2,0,L|418:219,1,95,8|0,0:0|0:0,0:0:0:0:
454,134,29986,2,0,L|359:127,1,95,4|0,0:0|0:0,0:0:0:0:
264,122,30411,2,0,P|252:72|281:29,1,95,8|0,0:0|0:0,0:0:0:0:
