osu file format v14

[General]
AudioFilename: audio.mp3
AudioLeadIn: 0
PreviewTime: 199
Countdown: 0
SampleSet: Soft
StackLeniency: 0.7
Mode: 0
LetterboxInBreaks: 0
WidescreenStoryboard: 0

[Editor]
DistanceSpacing: 1
BeatDivisor: 2
GridSize: 32
TimelineZoom: 1.8

[Metadata]
Title:seal the 3rd.mp4
TitleUnicode:seal the 3rd.mp4
Artist:joeyclassic
ArtistUnicode:joeyclassic
Creator:StarrStyx
Version:Normal
Source:
Tags:seal sequel sealquel trilogy meme cute extended rand paul 2016
BeatmapID:941055
BeatmapSetID:436250

[Difficulty]
HPDrainRate:3.5
CircleSize:3.5
OverallDifficulty:4
ApproachRate:5
SliderMultiplier:1.4
SliderTickRate:1

[Events]
//Background and Video events
0,0,"seal_3.jpg",0,0
//Break Periods
//Storyboard Layer 0 (Background)
//Storyboard Layer 1 (Fail)
//Storyboard Layer 2 (Pass)
//Storyboard Layer 3 (Foreground)
//Storyboard Sound Samples

[TimingPoints]
199,425.531914893617,4,2,1,60,1,0
13816,-100,4,2,1,75,0,0
27433,-100,4,2,1,60,0,0
30624,-100,4,2,1,30,0,0

[Colours]
Combo1 : 49,172,247
Combo2 : 147,245,251
Combo3 : 114,214,252

[HitObjects]
94,91,199,6,0,L|170:85,1,70,2|0,0:0|0:0,0:0:0:0:
242,131,624,2,0,L|311:136,1,70,8|0,0:0|0:0,0:0:0:0:
401,153,1050,2,0,P|411:190|400:228,2,70,2|0|8,0:0|0:0|0:0,0:0:0:0:
271,280,1901,6,0,P|261:317|272:355,2,70,2|0|8,0:0|0:0|0:0,0:0:0:0:
301,194,2539,1,0,0:0:0:0:
267,109,2752,2,0,L|127:116,1,140,2|8,0:0|0:0,0:0:0:0:
40,276,3603,6,0,P|80:285|123:270,1,70,2|0,0:0|0:0,0:0:0:0:
194,250,4028,2,0,P|234:241|277:256,1,70,8|0,0:0|0:0,0:0:0:0:
349,271,4454,2,0,P|389:280|432:265,2,70,2|0|8,0:0|0:0|0:0,0:0:0:0:
344,88,5305,6,0,P|384:79|427:94,2,70,2|0|8,0:0|0:0|0:0,0:0:0:0:
382,170,5943,1,0,0:0:0:0:
291,180,6156,2,0,L|131:190,1,140,2|8,0:0|0:0,0:0:0:0:
255,337,7007,6,0,P|293:345|337:330,1,70,2|0,0:0|0:0,0:0:0:0:
398,286,7433,2,0,L|406:207,1,70,8|0,0:0|0:0,0:0:0:0:
323,175,7858,2,0,L|315:244,2,70,2|0|8,0:0|0:0|0:0,0:0:0:0:
189,50,8709,5,2,0:0:0:0:
80,196,9135,2,0,P|63:233|79:274,1,70,8|0,0:0|0:0,0:0:0:0:
150,301,9560,2,0,L|164:159,1,140,2|8,0:0|0:0,0:0:0:0:
316,62,10411,6,0,P|353:52|399:67,1,70,2|0,0:0|0:0,0:0:0:0:
464,221,11050,1,0,0:0:0:0:
373,227,11262,2,0,L|287:232,2,70,2|0|8,0:0|0:0|0:0,0:0:0:0:
207,149,12113,6,0,L|276:144,2,70,2|0|8,0:0|0:0|0:0,0:0:0:0:
131,96,12752,1,0,0:0:0:0:
59,152,12964,2,0,P|35:222|66:292,1,140,2|8,0:0|0:0,0:0:0:0:
227,347,13816,6,0,L|374:343,1,140,2|8,0:0|0:0,0:0:0:0:
453,183,14667,2,0,P|463:145|445:107,2,70,2|0|8,0:0|0:0|0:0,0:0:0:0:
278,131,15518,6,0,P|268:93|286:55,2,70,2|0|8,0:0|0:0|0:0,0:0:0:0:
329,206,16156,1,0,0:0:0:0:
238,214,16369,2,0,L|77:223,1,140,2|8,0:0|0:0,0:0:0:0:
243,331,17220,6,0,L|382:323,1,140,2|8,0:0|0:0,0:0:0:0:
428,146,18071,2,0,P|464:129|510:138,2,70,2|0|8,0:0|0:0|0:0,0:0:0:0:
258,80,18922,2,0,L|112:88,1,140,8|8,0:0|0:0,0:0:0:0:
121,269,19773,2,0,L|267:261,1,140,8|0,0:0|0:0,0:0:0:0:
436,309,20624,6,0,P|447:345|434:377,2,70,2|0|8,0:0|0:0|0:0,0:0:0:0:
391,229,21262,1,0,0:0:0:0:
447,157,21475,2,0,P|458:129|447:86,2,70,2|0|8,0:0|0:0|0:0,0:0:0:0:
278,226,22326,6,0,P|266:253|277:296,2,70,2|0|8,0:0|0:0|0:0,0:0:0:0:
316,143,22964,1,0,0:0:0:0:
254,75,23177,2,0,L|107:81,1,140,2|8,0:0|0:0,0:0:0:0:
70,257,24028,6,0,L|59:332,2,70,2|0|8,0:0|0:0|0:0,0:0:0:0:
129,187,24667,1,0,0:0:0:0:
207,232,24879,2,0,L|218:307,2,70,2|0|8,0:0|0:0|0:0,0:0:0:0:
324,92,25730,6,0,P|362:82|412:96,2,70,2|0|8,0:0|0:0|0:0,0:0:0:0:
366,173,26369,1,0,0:0:0:0:
432,234,26581,2,0,P|366:264|303:238,1,140,2|8,0:0|0:0,0:0:0:0:
194,97,27433,6,0,L|112:91,2,70,2|0|8,0:0|0:0|0:0,0:0:0:0:
284,104,28071,1,0,0:0:0:0:
359,53,28284,2,0,P|372:122|320:188,1,140,2|8,0:0|0:0,0:0:0:0:
192,290,29135,6,0,L|110:296,2,70,2|0|8,0:0|0:0|0:0,0:0:0:0:
262,232,29773,1,0,0:0:0:0:
323,298,29986,2,0,L|392:292,1,70,4|0,0:0|0:0,0:0:0:0:
465,236,30411,2,0,P|471:201|462:167,1,70,8|0,0:0|0:0,0:0:0:0:
