osu file format v14

[General]
AudioFilename: seal_the_3rd.mp3
AudioLeadIn: 0
PreviewTime: 199
Countdown: 0
SampleSet: Normal
StackLeniency: 0.7
Mode: 1
LetterboxInBreaks: 0
WidescreenStoryboard: 0

[Editor]
DistanceSpacing: 0.1
BeatDivisor: 4
GridSize: 32
TimelineZoom: 1

[Metadata]
Title:seal the 3rd.mp4
TitleUnicode:seal the 3rd.mp4
Artist:joeyclassic
ArtistUnicode:joeyclassic
Creator:Intelli
Version:Prophecy's Oni
Source:
Tags:sequel sealquel trilogy meme cute extended Prophecy Midnaait Surono ArMiN A_r_M_i_N IntelliTroodon
BeatmapID:905993
BeatmapSetID:418272

[Difficulty]
HPDrainRate:5.5
CircleSize:5
OverallDifficulty:5.5
ApproachRate:5
SliderMultiplier:1.4
SliderTickRate:1

[Events]
//Background and Video events
0,0,"seal 3 bg.jpg",0,-75
//Break Periods
//Storyboard Layer 0 (Background)
//Storyboard Layer 1 (Fail)
//Storyboard Layer 2 (Pass)
//Storyboard Layer 3 (Foreground)
//Storyboard Sound Samples

[TimingPoints]
199,425.531914893617,4,1,0,75,1,0
13816,-100,4,1,0,75,0,1
20624,-100,4,1,0,75,0,0

[HitObjects]
256,192,199,5,2,0:0:0:0:
256,192,411,1,0,0:0:0:0:
256,192,518,1,0,0:0:0:0:
256,192,624,1,2,0:0:0:0:
256,192,837,1,2,0:0:0:0:
256,192,1050,1,0,0:0:0:0:
256,192,1262,1,2,0:0:0:0:
256,192,1475,1,0,0:0:0:0:
256,192,1901,1,2,0:0:0:0:
256,192,2007,1,0,0:0:0:0:
256,192,2113,1,2,0:0:0:0:
256,192,2220,1,0,0:0:0:0:
256,192,2326,1,2,0:0:0:0:
256,192,2539,1,2,0:0:0:0:
256,192,2752,1,0,0:0:0:0:
256,192,3177,1,0,0:0:0:0:
256,192,3603,1,2,0:0:0:0:
256,192,3815,1,0,0:0:0:0:
256,192,3922,1,0,0:0:0:0:
256,192,4028,1,2,0:0:0:0:
256,192,4241,1,2,0:0:0:0:
256,192,4454,1,0,0:0:0:0:
256,192,4666,1,2,0:0:0:0:
256,192,4879,1,0,0:0:0:0:
256,192,5305,1,0,0:0:0:0:
256,192,5411,1,2,0:0:0:0:
256,192,5518,1,0,0:0:0:0:
256,192,5624,1,2,0:0:0:0:
256,192,5730,1,2,0:0:0:0:
256,192,5943,1,2,0:0:0:0:
256,192,6156,1,2,0:0:0:0:
256,192,6581,1,0,0:0:0:0:
256,192,7007,1,2,0:0:0:0:
256,192,7433,1,2,0:0:0:0:
256,192,7645,1,2,0:0:0:0:
256,192,7752,1,0,0:0:0:0:
256,192,7858,1,2,0:0:0:0:
256,192,8071,1,2,0:0:0:0:
256,192,8284,1,0,0:0:0:0:
256,192,8709,1,2,0:0:0:0:
256,192,8816,1,0,0:0:0:0:
256,192,9028,1,0,0:0:0:0:
256,192,9135,1,2,0:0:0:0:
256,192,9347,1,2,0:0:0:0:
256,192,9560,1,0,0:0:0:0:
256,192,9986,1,0,0:0:0:0:
256,192,10411,1,0,0:0:0:0:
256,192,10624,1,2,0:0:0:0:
256,192,11050,1,2,0:0:0:0:
256,192,11156,1,2,0:0:0:0:
256,192,11262,1,0,0:0:0:0:
256,192,11475,1,2,0:0:0:0:
256,192,11688,1,0,0:0:0:0:
256,192,12113,1,2,0:0:0:0:
256,192,12326,1,0,0:0:0:0:
256,192,12539,1,2,0:0:0:0:
256,192,12752,1,2,0:0:0:0:
256,192,12964,1,0,0:0:0:0:
256,192,13390,1,0,0:0:0:0:
256,192,13816,1,2,0:0:0:0:
256,192,13922,1,0,0:0:0:0:
256,192,14028,1,0,0:0:0:0:
256,192,14241,1,2,0:0:0:0:
256,192,14347,1,2,0:0:0:0:
256,192,14454,1,0,0:0:0:0:
256,192,14667,1,2,0:0:0:0:
256,192,14879,1,2,0:0:0:0:
256,192,14986,1,0,0:0:0:0:
256,192,15092,1,2,0:0:0:0:
256,192,15518,1,2,0:0:0:0:
256,192,15624,1,0,0:0:0:0:
256,192,15730,1,2,0:0:0:0:
256,192,15943,1,2,0:0:0:0:
256,192,16050,1,2,0:0:0:0:
256,192,16156,1,0,0:0:0:0:
256,192,16369,1,2,0:0:0:0:
256,192,16581,1,0,0:0:0:0:
256,192,16794,1,2,0:0:0:0:
256,192,17220,1,0,0:0:0:0:
256,192,17326,1,0,0:0:0:0:
256,192,17433,1,0,0:0:0:0:
256,192,17645,1,2,0:0:0:0:
256,192,18071,1,2,0:0:0:0:
256,192,18177,1,2,0:0:0:0:
256,192,18284,1,2,0:0:0:0:
256,192,18496,1,0,0:0:0:0:
256,192,18922,1,2,0:0:0:0:
256,192,19347,1,2,0:0:0:0:
256,192,19773,1,0,0:0:0:0:
256,192,20199,1,2,0:0:0:0:
256,192,20624,1,2,0:0:0:0:
256,192,20837,1,0,0:0:0:0:
256,192,20943,1,0,0:0:0:0:
256,192,21050,1,2,0:0:0:0:
256,192,21262,1,0,0:0:0:0:
256,192,21475,1,2,0:0:0:0:
256,192,21581,1,2,0:0:0:0:
256,192,21688,1,2,0:0:0:0:
256,192,21901,1,0,0:0:0:0:
256,192,22326,1,2,0:0:0:0:
256,192,22433,1,0,0:0:0:0:
256,192,22539,1,2,0:0:0:0:
256,192,22645,1,0,0:0:0:0:
256,192,22752,1,2,0:0:0:0:
256,192,22964,1,0,0:0:0:0:
256,192,23177,1,2,0:0:0:0:
256,192,23603,1,0,0:0:0:0:
256,192,24028,1,2,0:0:0:0:
256,192,24240,1,0,0:0:0:0:
256,192,24347,1,0,0:0:0:0:
256,192,24453,1,2,0:0:0:0:
256,192,24666,1,2,0:0:0:0:
256,192,24879,1,0,0:0:0:0:
256,192,25091,1,2,0:0:0:0:
256,192,25305,1,0,0:0:0:0:
256,192,25731,1,2,0:0:0:0:
256,192,25837,1,0,0:0:0:0:
256,192,25943,1,2,0:0:0:0:
256,192,26050,1,0,0:0:0:0:
256,192,26156,1,2,0:0:0:0:
256,192,26369,1,2,0:0:0:0:
256,192,26582,1,0,0:0:0:0:
256,192,27007,1,0,0:0:0:0:
256,192,27433,1,2,0:0:0:0:
256,192,27645,1,0,0:0:0:0:
256,192,27752,1,0,0:0:0:0:
256,192,27858,1,2,0:0:0:0:
256,192,28071,1,2,0:0:0:0:
256,192,28284,1,0,0:0:0:0:
256,192,28496,1,2,0:0:0:0:
256,192,28709,1,0,0:0:0:0:
256,192,29135,1,0,0:0:0:0:
256,192,29241,1,2,0:0:0:0:
256,192,29348,1,0,0:0:0:0:
256,192,29454,1,2,0:0:0:0:
256,192,29560,1,2,0:0:0:0:
256,192,29773,1,2,0:0:0:0:
256,192,29986,1,2,0:0:0:0:
256,192,30411,1,0,0:0:0:0:
