osu file format v14

[General]
AudioFilename: seal_the_3rd.mp3
AudioLeadIn: 0
PreviewTime: 199
Countdown: 0
SampleSet: Normal
StackLeniency: 0.7
Mode: 1
LetterboxInBreaks: 0
WidescreenStoryboard: 0

[Editor]
DistanceSpacing: 2
BeatDivisor: 4
GridSize: 32
TimelineZoom: 1

[Metadata]
Title:seal the 3rd.mp4
TitleUnicode:seal the 3rd.mp4
Artist:joeyclassic
ArtistUnicode:joeyclassic
Creator:Intelli
Version:Oni
Source:
Tags:sequel sealquel trilogy meme cute extended Prophecy Midnaait Surono ArMiN A_r_M_i_N IntelliTroodon
BeatmapID:905461
BeatmapSetID:418272

[Difficulty]
HPDrainRate:6
CircleSize:5
OverallDifficulty:5
ApproachRate:5
SliderMultiplier:1.4
SliderTickRate:1

[Events]
//Background and Video events
0,0,"seal 3 bg.jpg",0,-75
//Break Periods
//Storyboard Layer 0 (Background)
//Storyboard Layer 1 (Fail)
//Storyboard Layer 2 (Pass)
//Storyboard Layer 3 (Foreground)
//Storyboard Sound Samples

[TimingPoints]
199,425.531914893617,4,1,0,75,1,0
13816,-100,4,1,0,75,0,1
20624,-100,4,1,0,75,0,0

[HitObjects]
192,256,199,5,2,0:0:0:0:
192,128,411,1,0,0:0:0:0:
192,128,518,1,0,0:0:0:0:
192,128,624,1,0,0:0:0:0:
192,256,837,1,2,0:0:0:0:
192,256,1050,1,2,0:0:0:0:
196,128,1262,1,0,0:0:0:0:
196,128,1475,1,0,0:0:0:0:
192,256,1901,1,2,0:0:0:0:
192,128,2007,1,0,0:0:0:0:
192,256,2113,1,2,0:0:0:0:
192,128,2220,1,0,0:0:0:0:
192,256,2326,1,2,0:0:0:0:
192,256,2539,1,2,0:0:0:0:
192,128,2752,1,0,0:0:0:0:
192,128,3177,1,0,0:0:0:0:
192,256,3603,1,2,0:0:0:0:
192,128,3816,1,0,0:0:0:0:
192,128,3922,1,0,0:0:0:0:
192,128,4028,1,0,0:0:0:0:
192,256,4241,1,2,0:0:0:0:
192,256,4454,1,2,0:0:0:0:
192,128,4667,1,0,0:0:0:0:
192,128,4879,1,0,0:0:0:0:
192,128,5305,1,0,0:0:0:0:
192,256,5411,1,2,0:0:0:0:
192,128,5518,1,0,0:0:0:0:
192,256,5624,1,2,0:0:0:0:
192,128,5730,1,0,0:0:0:0:
192,256,5943,1,2,0:0:0:0:
192,256,6156,1,2,0:0:0:0:
192,128,6581,1,0,0:0:0:0:
192,256,7007,1,2,0:0:0:0:
192,128,7433,1,0,0:0:0:0:
192,256,7645,1,2,0:0:0:0:
192,256,7858,1,2,0:0:0:0:
192,128,8071,1,0,0:0:0:0:
192,128,8284,1,0,0:0:0:0:
192,256,8709,1,2,0:0:0:0:
192,256,9028,1,2,0:0:0:0:
192,128,9135,1,0,0:0:0:0:
192,256,9347,1,2,0:0:0:0:
192,128,9560,1,0,0:0:0:0:
192,128,9986,1,0,0:0:0:0:
192,128,10411,1,0,0:0:0:0:
192,256,10624,1,2,0:0:0:0:
192,128,11050,1,0,0:0:0:0:
192,256,11262,1,2,0:0:0:0:
192,128,11475,1,0,0:0:0:0:
192,128,11688,1,0,0:0:0:0:
192,256,12113,1,2,0:0:0:0:
192,128,12326,1,0,0:0:0:0:
192,128,12539,1,0,0:0:0:0:
192,256,12752,1,2,0:0:0:0:
192,128,12964,1,0,0:0:0:0:
192,128,13390,1,0,0:0:0:0:
192,128,13603,1,0,0:0:0:0:
320,128,13816,1,4,0:0:0:0:
192,256,14241,1,2,0:0:0:0:
192,256,14667,1,2,0:0:0:0:
192,256,14773,1,2,0:0:0:0:
192,128,14879,1,0,0:0:0:0:
192,256,15092,1,2,0:0:0:0:
192,256,15518,1,2,0:0:0:0:
192,128,15730,1,0,0:0:0:0:
192,128,15943,1,0,0:0:0:0:
192,256,16156,1,2,0:0:0:0:
320,256,16369,1,6,0:0:0:0:
320,128,16794,1,4,0:0:0:0:
192,128,17220,1,0,0:0:0:0:
192,128,17326,1,0,0:0:0:0:
192,128,17433,1,0,0:0:0:0:
192,256,17645,1,2,0:0:0:0:
192,128,17858,1,0,0:0:0:0:
192,256,18071,1,2,0:0:0:0:
192,256,18177,1,2,0:0:0:0:
192,128,18284,1,0,0:0:0:0:
192,128,18496,1,0,0:0:0:0:
320,256,18922,1,6,0:0:0:0:
320,128,19347,1,4,0:0:0:0:
320,128,19773,1,4,0:0:0:0:
192,256,20624,1,2,0:0:0:0:
192,128,20837,1,0,0:0:0:0:
192,128,20943,1,0,0:0:0:0:
192,256,21050,1,2,0:0:0:0:
192,256,21262,1,2,0:0:0:0:
192,128,21475,1,0,0:0:0:0:
192,256,21581,1,2,0:0:0:0:
192,128,21688,1,0,0:0:0:0:
192,128,21901,1,0,0:0:0:0:
192,128,22326,1,0,0:0:0:0:
192,256,22433,1,2,0:0:0:0:
192,256,22539,1,2,0:0:0:0:
192,128,22645,1,0,0:0:0:0:
192,128,22752,1,0,0:0:0:0:
192,256,22964,1,2,0:0:0:0:
192,128,23177,1,0,0:0:0:0:
192,128,23603,1,0,0:0:0:0:
192,256,24028,1,2,0:0:0:0:
192,128,24241,1,0,0:0:0:0:
192,128,24347,1,0,0:0:0:0:
192,128,24454,1,0,0:0:0:0:
192,256,24667,1,2,0:0:0:0:
192,256,24879,1,2,0:0:0:0:
192,128,25092,1,0,0:0:0:0:
192,128,25305,1,0,0:0:0:0:
192,256,25730,1,2,0:0:0:0:
192,128,25837,1,0,0:0:0:0:
192,256,25943,1,2,0:0:0:0:
192,128,26050,1,0,0:0:0:0:
192,256,26156,1,2,0:0:0:0:
192,256,26369,1,2,0:0:0:0:
192,128,26581,1,0,0:0:0:0:
192,128,27007,1,0,0:0:0:0:
192,256,27433,1,2,0:0:0:0:
192,128,27645,1,0,0:0:0:0:
192,128,27752,1,0,0:0:0:0:
192,128,27858,1,0,0:0:0:0:
192,256,28071,1,2,0:0:0:0:
192,256,28284,1,2,0:0:0:0:
192,128,28496,1,0,0:0:0:0:
192,128,28709,1,0,0:0:0:0:
192,128,29135,1,0,0:0:0:0:
192,256,29241,1,2,0:0:0:0:
192,128,29347,1,0,0:0:0:0:
192,256,29454,1,2,0:0:0:0:
192,128,29560,1,0,0:0:0:0:
192,256,29773,1,2,0:0:0:0:
192,256,29986,1,2,0:0:0:0:
192,128,30411,1,0,0:0:0:0:
