osu file format v14

[General]
AudioFilename: seal_the_3rd.mp3
AudioLeadIn: 0
PreviewTime: 199
Countdown: 0
SampleSet: Normal
StackLeniency: 0.7
Mode: 1
LetterboxInBreaks: 0
WidescreenStoryboard: 1

[Editor]
DistanceSpacing: 1
BeatDivisor: 4
GridSize: 4
TimelineZoom: 0.8

[Metadata]
Title:seal the 3rd.mp4
TitleUnicode:seal the 3rd.mp4
Artist:joeyclassic
ArtistUnicode:joeyclassic
Creator:Intelli
Version:A r M i N's Lite Oni
Source:
Tags:sequel sealquel trilogy meme cute extended Prophecy Midnaait Surono ArMiN A_r_M_i_N IntelliTroodon
BeatmapID:932716
BeatmapSetID:418272

[Difficulty]
HPDrainRate:6.5
CircleSize:5
OverallDifficulty:5
ApproachRate:5
SliderMultiplier:1.4
SliderTickRate:1

[Events]
//Background and Video events
0,0,"seal 3 bg.jpg",0,-75
//Break Periods
//Storyboard Layer 0 (Background)
//Storyboard Layer 1 (Fail)
//Storyboard Layer 2 (Pass)
//Storyboard Layer 3 (Foreground)
//Storyboard Sound Samples

[TimingPoints]
199,425.531914893617,4,1,0,75,1,0
13816,-100,4,1,0,75,0,1
20624,-100,4,1,0,75,0,0

[HitObjects]
180,136,199,5,2,0:0:0:0:
180,136,411,1,0,0:0:0:0:
184,128,518,1,2,0:0:0:0:
180,136,624,1,0,0:0:0:0:
264,180,837,1,2,0:0:0:0:
264,180,1050,1,2,0:0:0:0:
264,180,1475,1,0,0:0:0:0:
392,156,1901,1,2,0:0:0:0:
392,156,2007,1,2,0:0:0:0:
392,156,2113,1,2,0:0:0:0:
392,156,2220,1,2,0:0:0:0:
392,156,2326,1,2,0:0:0:0:
256,112,2539,1,2,0:0:0:0:
256,112,2752,1,0,0:0:0:0:
256,192,3177,1,2,0:0:0:0:
180,136,3603,5,2,0:0:0:0:
180,136,3815,1,0,0:0:0:0:
184,128,3922,1,2,0:0:0:0:
180,136,4028,1,0,0:0:0:0:
264,180,4241,1,2,0:0:0:0:
264,180,4454,1,2,0:0:0:0:
256,192,4879,1,0,0:0:0:0:
412,184,5305,1,0,0:0:0:0:
412,184,5411,1,0,0:0:0:0:
412,184,5518,1,0,0:0:0:0:
412,184,5624,1,0,0:0:0:0:
412,184,5730,1,0,0:0:0:0:
312,44,5943,1,2,0:0:0:0:
312,44,6156,1,2,0:0:0:0:
256,192,6581,1,0,0:0:0:0:
100,176,7007,1,2,0:0:0:0:
256,264,7433,1,0,0:0:0:0:
256,264,7645,1,2,0:0:0:0:
352,252,7858,1,2,0:0:0:0:
352,252,8071,1,0,0:0:0:0:
428,196,8284,1,0,0:0:0:0:
256,56,8709,1,2,0:0:0:0:
188,36,9028,1,2,0:0:0:0:
188,36,9135,1,0,0:0:0:0:
188,36,9347,1,2,0:0:0:0:
188,36,9560,1,0,0:0:0:0:
256,192,9986,1,2,0:0:0:0:
104,152,10411,1,0,0:0:0:0:
104,152,10624,1,2,0:0:0:0:
168,88,11050,1,0,0:0:0:0:
168,88,11262,1,2,0:0:0:0:
168,88,11475,1,2,0:0:0:0:
168,88,11688,1,0,0:0:0:0:
256,192,12113,1,2,0:0:0:0:
256,192,12326,1,0,0:0:0:0:
256,192,12539,1,0,0:0:0:0:
256,192,12752,1,2,0:0:0:0:
256,192,12964,1,0,0:0:0:0:
256,192,13816,1,4,0:0:0:0:
256,192,14241,1,2,0:0:0:0:
256,192,14667,1,2,0:0:0:0:
256,192,14879,1,0,0:0:0:0:
256,192,15092,1,2,0:0:0:0:
168,88,15518,1,2,0:0:0:0:
168,88,15730,1,0,0:0:0:0:
168,88,15943,1,0,0:0:0:0:
168,88,16156,1,2,0:0:0:0:
168,88,16369,1,4,0:0:0:0:
168,88,16794,1,4,0:0:0:0:
372,264,17220,1,0,0:0:0:0:
372,264,17645,1,2,0:0:0:0:
372,264,18071,1,2,0:0:0:0:
372,264,18284,1,0,0:0:0:0:
372,264,18496,1,0,0:0:0:0:
304,56,18922,1,6,0:0:0:0:
100,232,19347,1,6,0:0:0:0:
308,296,19773,1,4,0:0:0:0:
112,152,20624,5,2,0:0:0:0:
212,232,20837,1,0,0:0:0:0:
212,232,21050,1,2,0:0:0:0:
256,104,21262,1,2,0:0:0:0:
340,88,21475,1,0,0:0:0:0:
340,88,21581,1,2,0:0:0:0:
340,88,21688,1,0,0:0:0:0:
368,156,21901,1,0,0:0:0:0:
92,112,22326,1,2,0:0:0:0:
92,112,22433,1,2,0:0:0:0:
92,112,22539,1,2,0:0:0:0:
92,112,22645,1,2,0:0:0:0:
92,112,22752,1,2,0:0:0:0:
232,116,22964,1,2,0:0:0:0:
216,200,23177,1,0,0:0:0:0:
300,296,23603,1,0,0:0:0:0:
180,136,24028,5,2,0:0:0:0:
180,136,24240,1,0,0:0:0:0:
184,128,24347,1,2,0:0:0:0:
180,136,24453,1,0,0:0:0:0:
264,180,24666,1,2,0:0:0:0:
264,180,24879,1,2,0:0:0:0:
264,180,25304,1,0,0:0:0:0:
380,76,25730,1,2,0:0:0:0:
380,76,25837,1,2,0:0:0:0:
380,76,25943,1,2,0:0:0:0:
380,76,26050,1,2,0:0:0:0:
380,76,26156,1,2,0:0:0:0:
256,112,26368,1,2,0:0:0:0:
256,112,26581,1,0,0:0:0:0:
256,192,27006,1,2,0:0:0:0:
180,136,27433,5,2,0:0:0:0:
180,136,27645,1,0,0:0:0:0:
184,128,27752,1,2,0:0:0:0:
180,136,27858,1,0,0:0:0:0:
264,180,28071,1,2,0:0:0:0:
264,180,28284,1,2,0:0:0:0:
256,192,28708,1,0,0:0:0:0:
448,184,29135,1,0,0:0:0:0:
448,184,29241,1,0,0:0:0:0:
448,184,29347,1,0,0:0:0:0:
448,184,29454,1,0,0:0:0:0:
448,184,29560,1,0,0:0:0:0:
312,44,29772,1,2,0:0:0:0:
312,44,29985,1,2,0:0:0:0:
256,192,30410,1,0,0:0:0:0:
