osu file format v14

[General]
AudioFilename: audio.mp3
AudioLeadIn: 0
PreviewTime: 199
Countdown: 0
SampleSet: None
StackLeniency: 0.7
Mode: 0
LetterboxInBreaks: 0
WidescreenStoryboard: 0

[Editor]
DistanceSpacing: 1
BeatDivisor: 2
GridSize: 4
TimelineZoom: 1.1

[Metadata]
Title:seal the 3rd.mp4
TitleUnicode:seal the 3rd.mp4
Artist:joeyclassic
ArtistUnicode:joeyclassic
Creator:FailureAtOsu
Version:Normal
Source:
Tags:cute meme seal heartmelting adorable short beautiful fluffy heartwarming trilogy the second sealquel
BeatmapID:937699
BeatmapSetID:434841

[Difficulty]
HPDrainRate:4
CircleSize:3.7
OverallDifficulty:4
ApproachRate:5
SliderMultiplier:1.5
SliderTickRate:2

[Events]
//Background and Video events
0,0,"true cute meme seal.jpg",0,0
//Break Periods
//Storyboard Layer 0 (Background)
//Storyboard Layer 1 (Fail)
//Storyboard Layer 2 (Pass)
//Storyboard Layer 3 (Foreground)
//Storyboard Sound Samples

[TimingPoints]
199,425.531914893617,4,3,0,40,1,0

[Colours]
Combo1 : 0,0,255
Combo2 : 0,255,255
Combo3 : 0,128,192

[HitObjects]
109,142,199,6,0,B|152:136|188:148,1,75,4|0,0:0|0:0,0:0:0:0:
255,167,624,2,0,P|298:173|334:161,1,75,2|0,0:2|0:2,0:0:0:0:
391,123,1050,2,0,P|434:181|412:266,1,150,4|2,0:0|0:2,0:0:0:0:
311,300,1901,6,0,P|269:308|234:304,1,75,8|0,0:0|0:3,0:0:0:0:
176,261,2326,2,0,P|168:219|172:184,1,75,2|0,0:2|0:2,0:0:0:0:
199,117,2752,2,0,P|260:74|336:99,1,150,4|2,0:0|0:2,0:0:0:0:
281,202,3603,6,0,L|356:196,1,75,4|0,0:0|0:0,0:0:0:0:
431,188,4028,2,0,P|425:146|432:112,1,75,2|0,0:2|0:2,0:0:0:0:
493,72,4454,2,0,P|420:41|366:76,1,150,4|2,0:0|0:2,0:0:0:0:
272,151,5305,6,0,P|266:194|278:230,1,75,8|0,0:0|0:0,0:0:0:0:
329,275,5730,2,0,P|372:281|408:269,1,75,2|0,0:2|0:2,0:0:0:0:
428,201,6156,2,0,P|477:252|461:323,1,150,4|2,0:0|0:2,0:0:0:0:
344,354,7007,6,0,L|194:371,1,150,4|2,0:0|0:2,0:0:0:0:
126,340,7645,1,0,0:0:0:0:
93,272,7858,2,0,P|94:237|113:197,2,75,4|0|2,0:0|0:0|0:2,0:0:0:0:
212,263,8709,6,0,P|286:279|362:246,1,150,8|2,0:0|0:2,0:0:0:0:
411,205,9347,1,0,0:0:0:0:
342,174,9560,2,0,P|326:100|359:24,1,150,4|2,0:0|0:2,0:0:0:0:
246,89,10411,5,4,0:0:0:0:
176,116,10624,2,0,P|137:127|94:129,1,75,0|2,0:2|0:2,0:0:0:0:
31,104,11050,1,0,0:0:0:0:
31,104,11262,2,0,P|20:65|18:22,2,75,4|0|2,0:0|0:0|0:2,0:0:0:0:
97,204,12113,6,0,L|98:279,1,75,8|0,0:0|0:0,0:0:0:0:
101,354,12539,1,2,0:2:0:0:
176,359,12752,1,0,0:0:0:0:
251,349,12964,2,0,B|242:302|200:287|200:287|227:221,1,150,4|2,0:0|0:2,0:0:0:0:
129,153,13816,6,0,P|139:92|203:131,1,150,4|2,0:0|0:2,0:0:0:0:
179,236,14667,2,0,P|172:276|180:312,1,75,4|0,0:0|0:0,0:0:0:0:
228,365,15092,2,0,P|267:375|367:335,1,150,2|8,0:2|0:0,0:0:0:0:
414,279,15730,6,0,L|402:203,1,75,0|2,0:0|0:2,0:0:0:0:
355,145,16156,1,0,0:0:0:0:
281,131,16369,2,0,P|230:128|147:188,1,150,4|2,0:0|0:2,0:0:0:0:
117,296,17220,6,0,P|168:299|251:239,1,150,4|2,0:0|0:2,0:0:0:0:
281,131,18071,1,4,3:0:0:0:
348,164,18284,2,0,P|375:188|386:226,1,75,0|2,3:0|3:2,3:0:0:0:
425,336,18922,5,8,3:0:0:0:
307,357,19347,1,8,3:0:0:0:
288,240,19773,1,4,3:3:0:0:
52,285,20624,6,0,P|41:246|50:208,1,75,4|0,0:0|0:0,0:0:0:0:
98,157,21050,2,0,P|137:146|175:155,1,75,2|0,0:2|0:0,0:0:0:0:
218,211,21475,2,0,B|261:171|236:114|236:114|245:66,1,150,4|2,0:0|0:2,0:0:0:0:
141,9,22326,6,0,P|103:-5|69:1,1,75,8|0,0:0|0:0,0:0:0:0:
8,43,22752,2,0,P|-6:81|0:115,1,75,2|0,0:2|0:0,0:0:0:0:
49,170,23177,2,0,P|110:184|183:127,1,150,4|2,0:0|0:2,0:0:0:0:
278,71,24028,6,0,P|318:65|355:71,1,75,4|0,0:0|0:0,0:0:0:0:
410,119,24454,2,0,P|416:159|410:196,1,75,2|0,0:2|0:0,0:0:0:0:
369,256,24879,2,0,P|329:276|233:242,1,150,4|2,0:0|0:2,0:0:0:0:
204,127,25730,6,0,P|164:141|140:161,1,75,8|0,0:0|0:0,0:0:0:0:
98,225,26156,2,0,P|112:265|132:289,1,75,8|0,0:0|0:0,0:0:0:0:
205,309,26581,2,0,B|237:283|234:244|234:244|279:251|316:215,1,150,4|2,0:0|0:2,0:0:0:0:
339,109,27433,6,0,B|296:103|260:115,1,75,4|0,0:0|0:0,0:0:0:0:
193,134,27858,2,0,P|150:140|114:128,1,75,2|0,0:2|0:2,0:0:0:0:
57,90,28284,2,0,P|14:148|36:233,1,150,4|2,0:0|0:2,0:0:0:0:
121,294,29135,6,0,L|196:300,1,75,8|0,0:0|0:0,0:0:0:0:
240,239,29560,2,0,L|315:233,1,75,2|0,0:2|0:0,0:0:0:0:
369,285,29986,2,0,P|390:251|390:217,1,75,4|0,0:0|0:0,0:0:0:0:
371,144,30411,1,2,1:3:0:0:
