osu file format v14

[General]
AudioFilename: audio.mp3
AudioLeadIn: 0
PreviewTime: 36020
Countdown: 0
SampleSet: Soft
StackLeniency: 0.7
Mode: 0
LetterboxInBreaks: 0
WidescreenStoryboard: 0

[Editor]
DistanceSpacing: 1
BeatDivisor: 2
GridSize: 32
TimelineZoom: 1

[Metadata]
Title:seal 2.flv
TitleUnicode:seal 2.flv
Artist:joeyclassic
ArtistUnicode:joeyclassic
Creator:StarrStyx
Version:Normal
Source:
Tags:seal two sequel sealquel mp4 flv cute adorable
BeatmapID:916309
BeatmapSetID:424106

[Difficulty]
HPDrainRate:3
CircleSize:3.5
OverallDifficulty:4
ApproachRate:5
SliderMultiplier:1.7
SliderTickRate:1

[Events]
//Background and Video events
0,0,"sealflv.jpg",0,0
//Break Periods
//Storyboard Layer 0 (Background)
//Storyboard Layer 1 (Fail)
//Storyboard Layer 2 (Pass)
//Storyboard Layer 3 (Foreground)
//Storyboard Sound Samples

[TimingPoints]
4020,666.666666666667,4,2,1,70,1,0
25353,-100,4,2,1,55,0,0
36020,-100,4,2,1,70,0,0
57686,-100,4,2,1,50,0,0
58353,-100,4,2,1,35,0,0
59020,-100,4,2,1,20,0,0
59353,-100,4,2,1,10,0,0

[Colours]
Combo1 : 5,137,235
Combo2 : 168,255,255
Combo3 : 97,190,252

[HitObjects]
76,138,4020,6,0,P|113:123|171:133,1,85,2|2,0:0|0:0,0:0:0:0:
228,81,4686,2,0,P|299:104|391:54,1,170,8|2,0:0|0:0,0:0:0:0:
468,212,6020,1,8,0:0:0:0:
356,340,6686,6,0,P|319:323|259:335,1,85,2|2,0:0|0:0,0:0:0:0:
203,282,7353,2,0,P|124:314|53:274,1,170,8|0,0:0|0:0,0:0:0:0:
88,109,8686,1,8,0:0:0:0:
248,52,9353,6,0,P|293:71|343:59,1,85,2|2,0:0|0:0,0:0:0:0:
412,64,10020,1,8,0:0:0:0:
426,147,10353,2,0,P|424:238|348:251,1,170,2|2,0:0|0:0,0:0:0:0:
278,281,11353,2,0,L|185:287,1,85,8|2,0:0|0:0,0:0:0:0:
112,260,12020,6,0,L|95:170,1,85,8|2,0:0|0:0,0:0:0:0:
130,98,12686,2,0,P|170:79|229:85,1,85,8|2,0:0|0:0,0:0:0:0:
285,118,13353,6,0,L|302:208,1,85,8|2,0:0|0:0,0:0:0:0:
247,267,14020,2,0,P|207:267|177:232,1,85,8|2,0:0|0:0,0:0:0:0:
152,155,14686,6,0,P|141:111|166:61,1,85,4|2,0:0|0:0,0:0:0:0:
228,33,15353,2,0,P|316:61|395:35,1,170,8|2,0:0|0:0,0:0:0:0:
488,177,16686,1,8,0:0:0:0:
370,300,17353,6,0,P|329:311|285:290,1,85,2|2,0:0|0:0,0:0:0:0:
238,228,18020,2,0,P|273:147|225:69,1,170,8|2,0:0|0:0,0:0:0:0:
145,220,19353,1,8,0:0:0:0:
267,337,20020,6,0,P|305:321|346:332,1,85,2|2,0:0|0:0,0:0:0:0:
413,280,20686,1,8,0:0:0:0:
461,209,21020,2,0,P|419:144|328:167,1,170,2|2,0:0|0:0,0:0:0:0:
283,223,22020,2,0,L|185:227,1,85,8|2,0:0|0:0,0:0:0:0:
113,228,22686,6,0,P|100:189|119:137,1,85,8|2,0:0|0:0,0:0:0:0:
169,86,23353,2,0,P|214:74|261:101,1,85,8|2,0:0|0:0,0:0:0:0:
298,156,24020,2,0,P|314:196|293:252,1,85,8|2,0:0|0:0,0:0:0:0:
257,306,24686,2,0,L|156:311,1,85,8|2,0:0|0:0,0:0:0:0:
89,296,25353,5,4,0:0:0:0:
64,214,25686,1,2,0:0:0:0:
83,131,26020,2,0,P|112:99|171:89,1,85,8|0,0:0|0:0,0:0:0:0:
232,61,26686,2,0,L|328:65,1,85,2|2,0:0|0:0,0:0:0:0:
401,72,27353,2,0,P|423:108|414:155,1,85,8|2,0:0|0:0,0:0:0:0:
368,218,28020,6,0,L|377:336,2,85,2|2|8,0:0|0:0|0:0,0:0:0:0:
300,165,29020,1,2,0:0:0:0:
220,194,29353,2,0,P|179:204|138:195,2,85,2|2|8,0:0|0:0|0:0,0:0:0:0:
177,120,30353,1,2,0:0:0:0:
138,44,30686,6,0,P|179:34|220:43,1,85,2|2,0:0|0:0,0:0:0:0:
301,68,31353,1,8,0:0:0:0:
376,220,32020,6,0,P|335:230|294:221,1,85,2|2,0:0|0:0,0:0:0:0:
225,270,32686,1,8,0:0:0:0:
74,190,33353,6,0,L|65:78,1,85,2|2,0:0|0:0,0:0:0:0:
151,95,34020,2,0,L|157:179,1,85,8|2,0:0|0:0,0:0:0:0:
224,232,34686,6,0,P|265:247|325:228,1,85,2|2,0:0|0:0,0:0:0:0:
384,211,35353,1,8,0:0:0:0:
482,72,36020,6,0,B|433:56|433:56|395:63,1,85,6|2,0:0|0:0,0:0:0:0:
318,86,36686,2,0,B|274:97|274:97|126:55,1,170,8|2,0:0|0:0,0:0:0:0:
73,91,37686,2,0,P|61:139|74:177,1,85,2|8,0:0|0:0,0:0:0:0:
103,250,38353,1,0,0:0:0:0:
157,315,38686,6,0,L|263:320,1,85,2|2,0:0|0:0,0:0:0:0:
326,312,39353,2,0,P|421:330|466:275,1,170,8|2,0:0|0:0,0:0:0:0:
488,199,40353,1,2,0:0:0:0:
474,115,40686,2,0,P|441:93|399:100,1,85,8|0,0:0|0:0,0:0:0:0:
319,132,41353,6,0,P|279:143|236:129,1,85,2|2,0:0|0:0,0:0:0:0:
179,68,42020,2,0,P|124:40|64:123,1,170,8|2,0:0|0:0,0:0:0:0:
110,180,43020,1,2,0:0:0:0:
66,253,43353,2,0,P|56:288|81:339,1,85,8|0,0:0|0:0,0:0:0:0:
151,364,44020,5,8,0:0:0:0:
220,315,44353,1,2,0:0:0:0:
301,339,44686,2,0,P|353:348|399:319,1,85,8|2,0:0|0:0,0:0:0:0:
440,274,45353,5,8,0:0:0:0:
389,205,45686,1,2,0:0:0:0:
443,139,46020,2,0,P|459:99|439:59,1,85,8|2,0:0|0:0,0:0:0:0:
357,51,46686,6,0,L|270:55,1,85,4|2,0:0|0:0,0:0:0:0:
187,59,47353,2,0,P|107:43|44:99,1,170,8|2,0:0|0:0,0:0:0:0:
126,121,48353,2,0,P|136:166|117:210,1,85,2|8,0:0|0:0,0:0:0:0:
78,273,49020,1,0,0:0:0:0:
127,347,49353,6,0,L|225:348,1,85,2|2,0:0|0:0,0:0:0:0:
288,311,50020,2,0,P|378:344|446:275,1,170,8|2,0:0|0:0,0:0:0:0:
467,227,51020,1,2,0:0:0:0:
491,145,51353,2,0,P|454:141|408:170,1,85,8|0,0:0|0:0,0:0:0:0:
332,190,52020,6,0,L|234:185,1,85,2|2,0:0|0:0,0:0:0:0:
192,120,52686,2,0,P|132:86|73:158,1,170,8|2,0:0|0:0,0:0:0:0:
73,235,53686,1,2,0:0:0:0:
38,312,54020,2,0,P|79:320|118:307,1,85,8|0,0:0|0:0,0:0:0:0:
176,245,54686,6,0,P|223:232|259:243,1,85,8|2,0:0|0:0,0:0:0:0:
325,291,55353,2,0,P|394:307|425:294,1,85,8|2,0:0|0:0,0:0:0:0:
458,236,56020,6,0,L|478:150,1,85,8|2,0:0|0:0,0:0:0:0:
393,140,56686,2,0,L|373:54,1,85,4|2,0:0|0:0,0:0:0:0:
256,192,57353,12,0,59353,0:0:0:0:
