osu file format v14

[General]
AudioFilename: audio.mp3
AudioLeadIn: 0
PreviewTime: 36020
Countdown: 0
SampleSet: Soft
StackLeniency: 0.7
Mode: 0
LetterboxInBreaks: 0
WidescreenStoryboard: 0

[Editor]
DistanceSpacing: 1.6
BeatDivisor: 4
GridSize: 32
TimelineZoom: 1

[Metadata]
Title:seal 2.flv
TitleUnicode:seal 2.flv
Artist:joeyclassic
ArtistUnicode:joeyclassic
Creator:StarrStyx
Version:Seal
Source:
Tags:seal two sequel sealquel mp4 flv cute adorable
BeatmapID:916253
BeatmapSetID:424106

[Difficulty]
HPDrainRate:5
CircleSize:4
OverallDifficulty:6
ApproachRate:7
SliderMultiplier:2.5
SliderTickRate:1

[Events]
//Background and Video events
0,0,"sealflv.jpg",0,0
//Break Periods
//Storyboard Layer 0 (Background)
//Storyboard Layer 1 (Fail)
//Storyboard Layer 2 (Pass)
//Storyboard Layer 3 (Foreground)
//Storyboard Sound Samples

[TimingPoints]
4020,666.666666666667,4,2,1,70,1,0
25353,-100,4,2,1,55,0,0
36020,-100,4,2,1,70,0,0
57686,-100,4,2,1,50,0,0
58353,-100,4,2,1,35,0,0
59020,-100,4,2,1,20,0,0
59353,-100,4,2,1,10,0,0

[Colours]
Combo1 : 5,137,235
Combo2 : 168,255,255
Combo3 : 97,190,252

[HitObjects]
185,192,4020,6,0,P|204:129|185:70,1,125,2|2,0:0|0:0,0:0:0:0:
157,271,4686,2,0,P|188:277|224:266,2,62.5,8|0|2,0:0|0:0|0:0,0:0:0:0:
321,383,5353,1,2,0:0:0:0:
430,215,5686,1,2,0:0:0:0:
430,215,5853,1,0,0:0:0:0:
430,215,6020,2,0,P|449:152|430:93,1,125,8|0,0:0|0:0,0:0:0:0:
296,244,6686,6,0,L|152:250,1,125,2|2,0:0|0:0,0:0:0:0:
84,299,7186,1,0,0:0:0:0:
22,221,7353,2,0,P|28:160|86:113,1,125,8|2,0:0|0:0,0:0:0:0:
255,192,8020,5,0,0:0:0:0:
431,97,8353,1,2,0:0:0:0:
431,97,8686,2,0,B|451:152|451:152|430:222,1,125,8|0,0:0|0:0,0:0:0:0:
255,310,9353,6,0,P|223:299|196:304,1,62.5,2|0,0:0|0:0,0:0:0:0:
100,334,9686,2,0,P|69:339|40:328,1,62.5,2|0,0:0|0:0,0:0:0:0:
81,236,10020,2,0,L|75:153,2,62.5,8|2|0,0:0|0:0|0:0,0:0:0:0:
273,285,10686,5,2,0:0:0:0:
403,132,11020,6,0,L|395:59,1,62.5,2|2,0:0|0:0,0:0:0:0:
491,40,11353,2,0,P|528:115|491:223,1,187.5,8|0,0:0|0:0,0:0:0:0:
428,279,12020,6,0,L|296:283,1,125,8|2,0:0|0:0,0:0:0:0:
160,143,12686,2,0,L|28:147,1,125,8|2,0:0|0:0,0:0:0:0:
192,270,13353,6,0,P|261:275|304:234,1,125,8|2,0:0|0:0,0:0:0:0:
394,63,14020,2,2,P|325:58|282:99,1,125,8|2,0:0|0:0,0:0:0:0:
375,270,14686,6,0,P|383:208|359:151,1,125,4|2,0:0|0:0,0:0:0:0:
219,293,15353,2,0,P|188:303|145:298,2,62.5,8|0|2,0:0|0:0|0:0,0:0:0:0:
293,106,16020,5,2,0:0:0:0:
99,58,16353,1,2,0:0:0:0:
99,58,16686,2,0,B|81:105|81:105|92:192,1,125,8|0,0:0|0:0,0:0:0:0:
196,348,17353,6,0,P|256:332|320:348,1,125,2|2,0:0|0:0,0:0:0:0:
382,271,17853,1,0,0:0:0:0:
458,335,18020,2,0,P|480:279|462:213,1,125,10|2,0:0|0:0,0:0:0:0:
353,52,18686,5,2,0:0:0:0:
170,135,19020,2,0,P|116:150|63:111,1,125,2|8,0:0|0:0,0:0:0:0:
112,305,19686,1,0,0:0:0:0:
112,305,20020,6,0,L|255:313,1,125,2|2,0:0|0:0,0:0:0:0:
415,221,20686,2,0,L|336:218,2,62.5,10|0|2,0:0|0:0|0:0,0:0:0:0:
299,57,21353,5,2,0:0:0:0:
113,132,21686,1,2,0:0:0:0:
207,308,22020,2,0,P|267:278|279:222,1,125,8|0,0:0|0:0,0:0:0:0:
78,224,22686,6,0,L|229:232,1,125,8|2,0:0|0:0,0:0:0:0:
401,203,23353,2,0,B|412:265|412:265|388:323,1,125,8|2,0:0|0:0,0:0:0:0:
266,162,24020,2,0,B|255:99|255:99|279:41,1,125,8|2,0:0|0:0,0:0:0:0:
330,235,24686,2,0,L|179:243,1,125,8|2,0:0|0:0,0:0:0:0:
68,94,25353,6,0,P|109:78|150:87,1,62.5,4|0,0:0|0:0,0:0:0:0:
224,97,25686,2,0,P|252:111|283:113,1,62.5,2|0,0:0|0:0,0:0:0:0:
385,111,26020,2,0,P|410:178|386:229,1,125,8|0,0:0|0:0,0:0:0:0:
252,368,26686,6,0,P|227:300|251:249,1,125,2|2,0:0|0:0,0:0:0:0:
402,129,27353,2,0,L|265:123,1,125,8|2,0:0|0:0,0:0:0:0:
99,216,28020,5,2,0:0:0:0:
217,55,28353,1,2,0:0:0:0:
322,224,28686,2,0,P|256:240|203:220,1,125,8|2,0:0|0:0,0:0:0:0:
323,59,29353,5,2,0:0:0:0:
149,158,29686,1,2,0:0:0:0:
309,277,30020,2,0,P|334:212|317:160,1,125,8|0,0:0|0:0,0:0:0:0:
135,243,30686,6,0,P|106:253|64:243,2,62.5,2|0|2,0:0|0:0|0:0,0:0:0:0:
235,70,31353,2,0,P|305:44|359:78,1,125,8|0,0:0|0:0,0:0:0:0:
456,232,32020,6,0,P|425:221|388:230,2,62.5,2|0|2,0:0|0:0|0:0,0:0:0:0:
257,212,32686,2,0,P|206:237|129:216,1,125,8|0,0:0|0:0,0:0:0:0:
255,60,33353,5,2,0:0:0:0:
255,60,33686,1,2,0:0:0:0:
392,206,34020,1,8,0:0:0:0:
392,206,34353,1,2,0:0:0:0:
204,274,34686,5,2,0:0:0:0:
321,111,35020,1,2,0:0:0:0:
406,291,35353,2,0,B|322:278|322:278|272:302,1,125,8|0,0:0|0:0,0:0:0:0:
91,344,36020,6,0,P|67:286|91:226,1,125,6|2,0:0|0:0,0:0:0:0:
269,311,36686,1,8,0:0:0:0:
362,345,36853,1,0,0:0:0:0:
345,246,37019,1,2,0:0:0:0:
194,113,37353,6,0,L|331:107,1,125,2|2,0:0|0:0,0:0:0:0:
401,50,37853,1,0,0:0:0:0:
465,126,38020,2,0,P|491:184|467:247,1,125,8|0,0:0|0:0,0:0:0:0:
278,192,38686,6,0,L|153:197,1,125,2|2,0:0|0:0,0:0:0:0:
80,128,39186,1,0,0:0:0:0:
157,63,39353,2,0,P|214:38|275:63,1,125,8|2,0:0|0:0,0:0:0:0:
421,192,40020,5,2,0:0:0:0:
270,323,40353,1,2,0:0:0:0:
270,323,40686,2,0,P|207:305|154:336,1,125,8|0,0:0|0:0,0:0:0:0:
43,167,41353,6,0,B|98:145|98:145|177:160,1,125,2|2,0:0|0:0,0:0:0:0:
360,125,42020,2,0,P|374:96|368:68,2,62.5,8|0|2,0:0|0:0|0:0,0:0:0:0:
201,246,42686,6,0,B|256:268|256:268|335:253,1,125,2|2,0:0|0:0,0:0:0:0:
392,325,43186,1,0,0:0:0:0:
464,256,43353,2,0,L|478:128,1,125,8|0,0:0|0:0,0:0:0:0:
296,45,44020,6,0,L|282:169,1,125,8|2,0:0|0:0,0:0:0:0:
133,302,44686,2,0,P|105:241|132:175,1,125,8|2,0:0|0:0,0:0:0:0:
306,263,45353,6,0,P|334:324|307:390,1,125,8|2,0:0|0:0,0:0:0:0:
248,189,46020,2,0,L|385:182,1,125,8|2,0:0|0:0,0:0:0:0:
210,66,46686,6,0,P|147:55|82:74,1,125,4|2,0:0|0:0,0:0:0:0:
71,269,47353,1,8,0:0:0:0:
155,323,47520,1,0,0:0:0:0:
160,223,47686,1,2,0:0:0:0:
322,340,48020,6,0,P|384:351|450:332,1,125,2|2,0:0|0:0,0:0:0:0:
382,145,48686,2,0,L|377:217,2,62.5,8|0|0,0:0|0:0|0:0,0:0:0:0:
207,243,49353,6,0,B|118:232|118:232|95:194,1,125,8|2,0:0|0:0,0:0:0:0:
51,114,49853,1,0,0:0:0:0:
134,57,50020,2,0,B|223:68|223:68|272:48,1,125,8|2,0:0|0:0,0:0:0:0:
436,139,50686,6,0,B|347:127|347:127|298:147,1,125,2|2,0:0|0:0,0:0:0:0:
225,187,51186,1,0,0:0:0:0:
136,234,51353,2,0,P|125:175|156:113,1,125,8|0,0:0|0:0,0:0:0:0:
326,215,52020,6,0,P|337:274|306:336,1,125,2|2,0:0|0:0,0:0:0:0:
112,307,52686,1,8,0:0:0:0:
112,207,52853,1,0,0:0:0:0:
199,257,53020,1,2,0:0:0:0:
340,116,53353,6,0,P|410:102|470:128,1,125,2|2,0:0|0:0,0:0:0:0:
398,199,53853,1,0,0:0:0:0:
326,270,54020,2,0,P|256:283|196:258,1,125,8|0,0:0|0:0,0:0:0:0:
115,87,54686,6,0,L|97:243,1,125,8|2,0:0|0:0,0:0:0:0:
297,175,55353,2,0,L|282:50,1,125,8|2,0:0|0:0,0:0:0:0:
231,245,56020,6,0,P|291:273|362:247,1,125,8|2,0:0|0:0,0:0:0:0:
506,140,56686,2,0,P|445:112|374:138,1,125,4|0,0:0|0:0,0:0:0:0:
256,192,57353,12,0,59352,0:0:0:0:
