osu file format v14

[General]
AudioFilename: audio.mp3
AudioLeadIn: 0
PreviewTime: 36020
Countdown: 0
SampleSet: Soft
StackLeniency: 0.7
Mode: 0
LetterboxInBreaks: 0
WidescreenStoryboard: 0

[Editor]
DistanceSpacing: 1.1
BeatDivisor: 2
GridSize: 32
TimelineZoom: 1

[Metadata]
Title:seal 2.flv
TitleUnicode:seal 2.flv
Artist:joeyclassic
ArtistUnicode:joeyclassic
Creator:StarrStyx
Version:Easy
Source:
Tags:seal two sequel sealquel mp4 flv cute adorable
BeatmapID:916308
BeatmapSetID:424106

[Difficulty]
HPDrainRate:2
CircleSize:3
OverallDifficulty:2
ApproachRate:3
SliderMultiplier:1.5
SliderTickRate:1

[Events]
//Background and Video events
0,0,"sealflv.jpg",0,0
//Break Periods
//Storyboard Layer 0 (Background)
//Storyboard Layer 1 (Fail)
//Storyboard Layer 2 (Pass)
//Storyboard Layer 3 (Foreground)
//Storyboard Sound Samples

[TimingPoints]
4020,666.666666666667,4,2,1,70,1,0
25353,-100,4,2,1,55,0,0
36020,-100,4,2,1,70,0,0
57686,-100,4,2,1,50,0,0
58353,-100,4,2,1,35,0,0
59020,-100,4,2,1,20,0,0
59353,-100,4,2,1,10,0,0

[Colours]
Combo1 : 5,137,235
Combo2 : 168,255,255
Combo3 : 97,190,252

[HitObjects]
83,291,4020,6,0,P|153:270|241:291,1,150,2|8,0:0|0:0,0:0:0:0:
386,327,5353,2,0,P|429:248|411:182,1,150,2|8,0:0|0:0,0:0:0:0:
305,71,6686,6,0,L|141:81,1,150,2|8,0:0|0:0,0:0:0:0:
64,218,8020,2,0,L|213:208,1,150,0|8,0:0|0:0,0:0:0:0:
342,311,9353,6,0,P|381:307|411:280,1,75,2|2,0:0|0:0,0:0:0:0:
451,214,10020,2,0,P|457:140|390:114,1,150,8|2,0:0|0:0,0:0:0:0:
235,155,11353,1,8,0:0:0:0:
85,83,12020,6,0,P|67:163|87:231,1,150,8|8,0:0|0:0,0:0:0:0:
181,360,13353,2,0,L|343:363,1,150,8|8,0:0|0:0,0:0:0:0:
441,239,14686,6,0,P|463:169|437:92,1,150,4|8,0:0|0:0,0:0:0:0:
290,30,16020,2,0,P|268:100|294:177,1,150,2|8,0:0|0:0,0:0:0:0:
416,277,17353,6,0,L|253:288,1,150,2|8,0:0|0:0,0:0:0:0:
106,330,18686,2,0,B|72:265|72:265|101:187,1,150,2|8,0:0|0:0,0:0:0:0:
170,44,20020,6,0,P|209:38|248:50,1,75,2|2,0:0|0:0,0:0:0:0:
307,98,20686,2,0,P|360:113|454:64,1,150,8|2,0:0|0:0,0:0:0:0:
498,232,22020,1,8,0:0:0:0:
368,333,22686,6,0,B|323:319|323:319|211:338,1,150,8|8,0:0|0:0,0:0:0:0:
105,218,24020,2,0,B|150:232|150:232|262:213,1,150,8|8,0:0|0:0,0:0:0:0:
412,252,25353,6,0,P|445:188|414:111,1,150,4|8,0:0|0:0,0:0:0:0:
264,65,26686,2,0,L|107:77,1,150,2|8,0:0|0:0,0:0:0:0:
37,223,28020,6,0,L|186:211,1,150,2|8,0:0|0:0,0:0:0:0:
303,327,29353,2,0,P|370:352|428:310,1,150,2|8,0:0|0:0,0:0:0:0:
426,145,30686,6,0,P|376:104|297:133,1,150,2|8,0:0|0:0,0:0:0:0:
256,287,32020,2,0,P|206:328|127:299,1,150,2|8,0:0|0:0,0:0:0:0:
64,152,33353,5,2,0:0:0:0:
198,56,34020,1,8,0:0:0:0:
357,96,34686,2,0,P|391:152|367:251,1,150,2|8,0:0|0:0,0:0:0:0:
240,321,36020,6,0,B|181:321|181:321|159:307|159:307|92:307,1,150,6|8,0:0|0:0,0:0:0:0:
50,236,37020,1,2,0:0:0:0:
44,153,37353,2,0,B|108:153|108:153|130:167|130:167|189:167,1,150,2|8,0:0|0:0,0:0:0:0:
303,46,38686,6,0,P|380:27|443:77,1,150,2|8,0:0|0:0,0:0:0:0:
466,140,39686,1,2,0:0:0:0:
491,219,40020,2,0,P|428:256|358:236,1,150,2|8,0:0|0:0,0:0:0:0:
205,299,41353,6,0,P|170:288|131:295,1,75,2|2,0:0|0:0,0:0:0:0:
51,281,42020,2,0,P|30:212|90:160,1,150,8|2,0:0|0:0,0:0:0:0:
236,217,43353,1,8,0:0:0:0:
371,311,44020,6,0,B|417:254|417:254|398:173,1,150,8|8,0:0|0:0,0:0:0:0:
332,28,45353,2,0,B|285:84|285:84|304:166,1,150,8|8,0:0|0:0,0:0:0:0:
257,317,46686,6,0,P|179:343|120:295,1,150,4|8,0:0|0:0,0:0:0:0:
86,236,47686,1,2,0:0:0:0:
58,159,48020,2,0,P|55:102|140:83,1,150,2|8,0:0|0:0,0:0:0:0:
288,130,49353,6,0,P|363:112|395:173,1,150,2|8,0:0|0:0,0:0:0:0:
358,239,50353,1,2,0:0:0:0:
304,301,50686,2,0,P|250:337|161:303,1,150,2|8,0:0|0:0,0:0:0:0:
54,199,52020,6,0,P|87:176|134:177,1,75,2|2,0:0|0:0,0:0:0:0:
198,201,52686,2,0,P|258:214|338:165,1,150,8|2,0:0|0:0,0:0:0:0:
497,156,54020,1,8,0:0:0:0:
471,318,54686,6,0,P|431:330|384:310,1,75,8|2,0:0|0:0,0:0:0:0:
353,252,55353,2,0,P|313:240|266:260,1,75,8|2,0:0|0:0,0:0:0:0:
231,314,56020,6,0,P|191:326|144:306,1,75,8|2,0:0|0:0,0:0:0:0:
113,248,56687,2,0,P|73:236|26:256,1,75,4|0,0:0|0:0,0:0:0:0:
256,192,57353,12,0,59352,0:0:0:0:
