osu file format v14

[General]
AudioFilename: seal 2.flv.mp3
AudioLeadIn: 0
PreviewTime: 4020
Countdown: 0
SampleSet: Normal
StackLeniency: 0.7
Mode: 1
LetterboxInBreaks: 0
WidescreenStoryboard: 0

[Editor]
DistanceSpacing: 1.7
BeatDivisor: 4
GridSize: 32
TimelineZoom: 1

[Metadata]
Title:seal 2.flv
TitleUnicode:seal 2.flv
Artist:joeyclassic
ArtistUnicode:joeyclassic
Creator:IntelliTroodon
Version:Oni
Source:
Tags:seal two sequel sealquel mp4 flv cute adorable Prophecy
BeatmapID:834858
BeatmapSetID:381667

[Difficulty]
HPDrainRate:6.5
CircleSize:2
OverallDifficulty:6
ApproachRate:5
SliderMultiplier:1.4
SliderTickRate:1

[Events]
//Background and Video events
0,0,"seal2bg.jpg",0,-60
//Break Periods
//Storyboard Layer 0 (Background)
//Storyboard Layer 1 (Fail)
//Storyboard Layer 2 (Pass)
//Storyboard Layer 3 (Foreground)
//Storyboard Sound Samples

[TimingPoints]
4020,666.666666666667,4,1,0,60,1,0
25353,-100,4,1,0,40,0,0
36020,-100,4,1,0,80,0,1
57353,-100,4,1,0,80,0,0

[HitObjects]
320,128,4021,5,4,0:0:0:0:
192,256,4354,1,2,0:0:0:0:
192,256,4687,1,2,0:0:0:0:
192,128,4854,1,0,0:0:0:0:
192,256,5021,1,2,0:0:0:0:
192,128,5687,1,0,0:0:0:0:
192,128,5854,1,0,0:0:0:0:
192,256,6021,1,2,0:0:0:0:
192,128,6187,1,0,0:0:0:0:
192,256,6687,1,2,0:0:0:0:
192,128,7021,1,0,0:0:0:0:
192,256,7187,1,2,0:0:0:0:
192,256,7354,1,2,0:0:0:0:
192,128,7687,1,0,0:0:0:0:
192,256,8354,1,2,0:0:0:0:
192,128,8687,1,0,0:0:0:0:
192,128,9354,1,0,0:0:0:0:
192,128,9687,1,0,0:0:0:0:
192,128,10021,1,0,0:0:0:0:
192,256,10187,1,2,0:0:0:0:
192,128,10354,1,0,0:0:0:0:
192,128,11187,1,0,0:0:0:0:
192,256,11353,1,2,0:0:0:0:
192,256,11520,1,2,0:0:0:0:
192,128,12019,1,0,0:0:0:0:
192,256,12353,1,2,0:0:0:0:
192,128,12686,1,0,0:0:0:0:
192,128,12853,1,0,0:0:0:0:
192,256,13019,1,2,0:0:0:0:
192,256,13353,1,2,0:0:0:0:
192,256,13519,1,2,0:0:0:0:
192,128,13686,1,0,0:0:0:0:
192,128,13852,1,0,0:0:0:0:
192,256,14019,1,2,0:0:0:0:
192,128,14353,1,0,0:0:0:0:
192,128,14687,1,0,0:0:0:0:
192,256,15021,1,2,0:0:0:0:
192,256,15354,1,2,0:0:0:0:
192,128,15521,1,0,0:0:0:0:
192,256,15687,1,2,0:0:0:0:
192,128,16354,1,0,0:0:0:0:
192,128,16521,1,0,0:0:0:0:
192,256,16687,1,2,0:0:0:0:
192,128,16854,1,0,0:0:0:0:
192,256,17354,1,2,0:0:0:0:
192,128,17687,1,0,0:0:0:0:
192,256,17854,1,2,0:0:0:0:
192,256,18021,1,2,0:0:0:0:
192,128,18354,1,0,0:0:0:0:
192,256,19021,1,2,0:0:0:0:
192,128,19354,1,0,0:0:0:0:
192,128,20021,1,0,0:0:0:0:
192,128,20354,1,0,0:0:0:0:
192,128,20687,1,0,0:0:0:0:
192,256,20854,1,2,0:0:0:0:
192,128,21021,1,0,0:0:0:0:
192,128,21854,1,0,0:0:0:0:
192,256,22021,1,2,0:0:0:0:
192,256,22187,1,2,0:0:0:0:
192,128,22687,1,0,0:0:0:0:
192,256,23020,1,2,0:0:0:0:
192,256,23353,1,2,0:0:0:0:
192,128,23520,1,0,0:0:0:0:
192,256,23687,1,2,0:0:0:0:
192,128,24020,1,0,0:0:0:0:
192,256,24187,1,2,0:0:0:0:
192,128,24353,1,0,0:0:0:0:
192,128,24520,1,0,0:0:0:0:
192,256,24687,1,2,0:0:0:0:
192,128,25020,1,0,0:0:0:0:
192,128,25354,1,0,0:0:0:0:
192,128,25521,1,0,0:0:0:0:
192,128,25687,1,0,0:0:0:0:
192,256,25854,1,2,0:0:0:0:
192,256,26021,1,2,0:0:0:0:
192,128,26354,1,0,0:0:0:0:
192,128,26687,1,0,0:0:0:0:
192,256,27021,1,2,0:0:0:0:
192,128,27354,1,0,0:0:0:0:
192,128,27687,1,0,0:0:0:0:
192,256,28021,1,2,0:0:0:0:
192,256,28354,1,2,0:0:0:0:
192,256,28687,1,2,0:0:0:0:
192,128,29021,1,0,0:0:0:0:
192,256,29354,1,2,0:0:0:0:
192,256,29687,1,2,0:0:0:0:
192,128,30021,1,0,0:0:0:0:
192,128,30354,1,0,0:0:0:0:
192,128,30687,1,0,0:0:0:0:
192,256,30854,1,2,0:0:0:0:
192,128,31021,1,0,0:0:0:0:
192,128,31354,1,0,0:0:0:0:
192,128,32021,1,0,0:0:0:0:
192,256,32187,1,2,0:0:0:0:
192,128,32354,1,0,0:0:0:0:
192,128,32687,1,0,0:0:0:0:
192,256,33354,1,2,0:0:0:0:
192,256,33687,1,2,0:0:0:0:
192,256,34021,1,2,0:0:0:0:
192,256,34354,1,2,0:0:0:0:
192,128,34687,1,0,0:0:0:0:
192,128,35021,1,0,0:0:0:0:
192,256,35354,1,2,0:0:0:0:
192,256,35521,1,2,0:0:0:0:
192,256,35687,1,2,0:0:0:0:
192,256,35854,1,2,0:0:0:0:
320,128,36021,1,4,0:0:0:0:
192,256,36354,1,2,0:0:0:0:
192,256,36687,1,2,0:0:0:0:
192,128,36854,1,0,0:0:0:0:
192,256,37021,1,2,0:0:0:0:
192,128,37687,1,0,0:0:0:0:
192,128,37854,1,0,0:0:0:0:
192,256,38021,1,2,0:0:0:0:
192,128,38187,1,0,0:0:0:0:
192,256,38687,1,2,0:0:0:0:
192,128,39021,1,0,0:0:0:0:
192,256,39187,1,2,0:0:0:0:
192,256,39354,1,2,0:0:0:0:
192,128,39687,1,0,0:0:0:0:
192,256,40354,1,2,0:0:0:0:
192,128,40687,1,0,0:0:0:0:
192,128,41354,1,0,0:0:0:0:
192,128,41687,1,0,0:0:0:0:
192,128,42021,1,0,0:0:0:0:
192,256,42187,1,2,0:0:0:0:
192,128,42354,1,0,0:0:0:0:
192,128,43187,1,0,0:0:0:0:
192,256,43354,1,2,0:0:0:0:
192,128,44021,1,0,0:0:0:0:
192,256,44354,1,2,0:0:0:0:
192,128,44687,1,0,0:0:0:0:
192,128,44854,1,0,0:0:0:0:
192,256,45020,1,2,0:0:0:0:
192,256,45354,1,2,0:0:0:0:
192,256,45520,1,2,0:0:0:0:
192,128,45687,1,0,0:0:0:0:
192,128,45854,1,0,0:0:0:0:
192,256,46020,1,2,0:0:0:0:
192,128,46353,1,0,0:0:0:0:
192,128,46687,1,0,0:0:0:0:
192,256,47021,1,2,0:0:0:0:
192,256,47354,1,2,0:0:0:0:
192,128,47521,1,0,0:0:0:0:
192,256,47687,1,2,0:0:0:0:
192,128,48354,1,0,0:0:0:0:
192,128,48521,1,0,0:0:0:0:
192,256,48687,1,2,0:0:0:0:
192,128,48854,1,0,0:0:0:0:
192,256,49354,1,2,0:0:0:0:
192,128,49687,1,0,0:0:0:0:
192,256,49854,1,2,0:0:0:0:
192,128,50021,1,0,0:0:0:0:
192,128,50354,1,0,0:0:0:0:
192,256,51021,1,2,0:0:0:0:
192,128,51354,1,0,0:0:0:0:
192,128,52021,1,0,0:0:0:0:
192,128,52354,1,0,0:0:0:0:
192,128,52687,1,0,0:0:0:0:
192,256,52854,1,2,0:0:0:0:
192,128,53021,1,0,0:0:0:0:
192,128,53854,1,0,0:0:0:0:
192,256,54021,1,2,0:0:0:0:
192,128,54187,1,0,0:0:0:0:
192,128,54687,1,0,0:0:0:0:
192,256,55020,1,2,0:0:0:0:
192,256,55353,1,2,0:0:0:0:
192,128,55520,1,0,0:0:0:0:
192,256,55687,1,2,0:0:0:0:
192,128,56020,1,0,0:0:0:0:
192,256,56187,1,2,0:0:0:0:
192,128,56353,1,0,0:0:0:0:
192,128,56520,1,0,0:0:0:0:
192,256,56687,1,2,0:0:0:0:
192,128,57020,1,0,0:0:0:0:
