osu file format v14

[General]
AudioFilename: seal 2.flv.mp3
AudioLeadIn: 0
PreviewTime: 4020
Countdown: 0
SampleSet: Normal
StackLeniency: 0.7
Mode: 1
LetterboxInBreaks: 0
WidescreenStoryboard: 0

[Editor]
DistanceSpacing: 1.5
BeatDivisor: 2
GridSize: 32
TimelineZoom: 1

[Metadata]
Title:seal 2.flv
TitleUnicode:seal 2.flv
Artist:joeyclassic
ArtistUnicode:joeyclassic
Creator:IntelliTroodon
Version:Kantan
Source:
Tags:seal two sequel sealquel mp4 flv cute adorable Prophecy
BeatmapID:834856
BeatmapSetID:381667

[Difficulty]
HPDrainRate:8
CircleSize:5
OverallDifficulty:4
ApproachRate:5
SliderMultiplier:1.4
SliderTickRate:1

[Events]
//Background and Video events
0,0,"seal2bg.jpg",0,-60
//Break Periods
//Storyboard Layer 0 (Background)
//Storyboard Layer 1 (Fail)
//Storyboard Layer 2 (Pass)
//Storyboard Layer 3 (Foreground)
//Storyboard Sound Samples

[TimingPoints]
4020,666.666666666667,4,1,0,60,1,0
25353,-100,4,1,0,40,0,0
36020,-100,4,1,0,80,0,1
57353,-100,4,1,0,80,0,0

[HitObjects]
192,128,4020,5,0,0:0:0:0:
192,256,4686,1,2,0:0:0:0:
192,256,5020,1,2,0:0:0:0:
192,128,6020,1,0,0:0:0:0:
192,256,6686,1,2,0:0:0:0:
192,256,7353,1,2,0:0:0:0:
192,128,7686,1,0,0:0:0:0:
192,256,8686,1,2,0:0:0:0:
192,128,9353,1,0,0:0:0:0:
192,256,10020,1,2,0:0:0:0:
192,128,10353,1,0,0:0:0:0:
192,256,11353,1,2,0:0:0:0:
192,128,12020,1,0,0:0:0:0:
192,256,13353,1,2,0:0:0:0:
192,256,14020,1,2,0:0:0:0:
192,128,14686,1,0,0:0:0:0:
192,256,15353,1,2,0:0:0:0:
192,256,15686,1,2,0:0:0:0:
192,128,16686,1,0,0:0:0:0:
192,256,17353,1,2,0:0:0:0:
192,256,18020,1,2,0:0:0:0:
192,128,18353,1,0,0:0:0:0:
192,128,19353,1,2,0:0:0:0:
192,128,20020,1,0,0:0:0:0:
192,256,20686,1,2,0:0:0:0:
192,128,21020,1,0,0:0:0:0:
192,256,22020,1,2,0:0:0:0:
192,128,22686,1,0,0:0:0:0:
192,256,24020,1,2,0:0:0:0:
192,256,24686,1,2,0:0:0:0:
192,128,25353,1,0,0:0:0:0:
192,256,26020,1,2,0:0:0:0:
192,128,26686,1,0,0:0:0:0:
192,256,28020,1,2,0:0:0:0:
192,128,28686,1,0,0:0:0:0:
192,256,29353,1,2,0:0:0:0:
192,128,30686,1,0,0:0:0:0:
192,128,31353,1,0,0:0:0:0:
192,128,32020,1,0,0:0:0:0:
192,128,32353,1,0,0:0:0:0:
192,128,32686,1,0,0:0:0:0:
192,256,33353,1,2,0:0:0:0:
192,256,34020,1,2,0:0:0:0:
192,256,34686,1,2,0:0:0:0:
320,128,36020,1,4,0:0:0:0:
192,256,36686,1,2,0:0:0:0:
192,256,37020,1,2,0:0:0:0:
192,128,38020,1,0,0:0:0:0:
192,256,38686,1,2,0:0:0:0:
192,256,39353,1,2,0:0:0:0:
192,128,39686,1,0,0:0:0:0:
192,128,40686,1,0,0:0:0:0:
192,128,41353,1,0,0:0:0:0:
192,256,42020,1,2,0:0:0:0:
192,128,42353,1,0,0:0:0:0:
192,256,43353,1,2,0:0:0:0:
192,128,44020,1,0,0:0:0:0:
192,256,45353,1,2,0:0:0:0:
192,256,46020,1,2,0:0:0:0:
192,128,46686,1,0,0:0:0:0:
192,256,47353,1,2,0:0:0:0:
192,256,47686,1,2,0:0:0:0:
192,128,48686,1,0,0:0:0:0:
192,256,49353,1,2,0:0:0:0:
192,256,50020,1,2,0:0:0:0:
192,128,50353,1,0,0:0:0:0:
192,128,51353,1,0,0:0:0:0:
192,128,52020,1,0,0:0:0:0:
192,256,52686,1,2,0:0:0:0:
192,128,53020,1,0,0:0:0:0:
192,256,54020,1,2,0:0:0:0:
192,128,54686,1,0,0:0:0:0:
192,256,56020,1,2,0:0:0:0:
192,256,56686,1,2,0:0:0:0:
