osu file format v14

[General]
AudioFilename: seal 2.flv.mp3
AudioLeadIn: 0
PreviewTime: 4020
Countdown: 0
SampleSet: Normal
StackLeniency: 0.7
Mode: 1
LetterboxInBreaks: 0
WidescreenStoryboard: 0

[Editor]
DistanceSpacing: 1.5
BeatDivisor: 4
GridSize: 32
TimelineZoom: 1

[Metadata]
Title:seal 2.flv
TitleUnicode:seal 2.flv
Artist:joeyclassic
ArtistUnicode:joeyclassic
Creator:IntelliTroodon
Version:Muzukashii
Source:
Tags:seal two sequel sealquel mp4 flv cute adorable Prophecy
BeatmapID:834857
BeatmapSetID:381667

[Difficulty]
HPDrainRate:6.5
CircleSize:2
OverallDifficulty:5
ApproachRate:5
SliderMultiplier:1.4
SliderTickRate:1

[Events]
//Background and Video events
0,0,"seal2bg.jpg",0,-60
//Break Periods
//Storyboard Layer 0 (Background)
//Storyboard Layer 1 (Fail)
//Storyboard Layer 2 (Pass)
//Storyboard Layer 3 (Foreground)
//Storyboard Sound Samples

[TimingPoints]
4020,666.666666666667,4,1,0,60,1,0
25353,-100,4,1,0,40,0,0
36020,-100,4,1,0,80,0,1
57353,-100,4,1,0,80,0,0

[HitObjects]
320,128,4020,5,4,0:0:0:0:
192,256,4353,1,2,0:0:0:0:
192,128,4686,1,0,0:0:0:0:
192,128,4853,1,0,0:0:0:0:
192,256,5020,1,2,0:0:0:0:
192,128,5686,1,0,0:0:0:0:
192,256,6020,1,2,0:0:0:0:
192,256,6686,1,2,0:0:0:0:
192,256,7020,1,2,0:0:0:0:
192,256,7186,1,2,0:0:0:0:
192,256,7353,1,2,0:0:0:0:
192,128,7686,1,0,0:0:0:0:
192,256,8353,1,2,0:0:0:0:
192,128,8686,1,0,0:0:0:0:
192,128,9353,1,0,0:0:0:0:
192,128,9686,1,0,0:0:0:0:
192,128,10020,1,0,0:0:0:0:
192,256,10186,1,2,0:0:0:0:
192,128,10353,1,0,0:0:0:0:
192,256,11353,1,2,0:0:0:0:
192,128,12020,1,0,0:0:0:0:
192,256,12353,1,2,0:0:0:0:
192,128,12686,1,0,0:0:0:0:
192,256,13020,1,2,0:0:0:0:
192,256,13353,1,2,0:0:0:0:
192,128,13686,1,0,0:0:0:0:
192,256,14020,1,2,0:0:0:0:
192,128,14353,1,0,0:0:0:0:
192,128,14686,1,0,0:0:0:0:
192,256,15020,1,2,0:0:0:0:
192,128,15353,1,0,0:0:0:0:
192,128,15520,1,0,0:0:0:0:
192,256,15686,1,2,0:0:0:0:
192,128,16353,1,0,0:0:0:0:
192,256,16686,1,2,0:0:0:0:
192,256,17353,1,2,0:0:0:0:
192,256,17686,1,2,0:0:0:0:
192,256,17853,1,2,0:0:0:0:
192,256,18020,1,2,0:0:0:0:
192,128,18353,1,0,0:0:0:0:
192,256,19020,1,2,0:0:0:0:
192,128,19353,1,0,0:0:0:0:
192,128,20020,1,0,0:0:0:0:
192,128,20353,1,0,0:0:0:0:
192,128,20686,1,0,0:0:0:0:
192,256,20853,1,2,0:0:0:0:
192,128,21020,1,0,0:0:0:0:
192,256,22020,1,2,0:0:0:0:
192,128,22686,1,0,0:0:0:0:
192,256,23020,1,2,0:0:0:0:
192,128,23353,1,0,0:0:0:0:
192,256,23686,1,2,0:0:0:0:
192,256,24020,1,2,0:0:0:0:
192,128,24353,1,0,0:0:0:0:
192,256,24686,1,2,0:0:0:0:
192,128,25020,1,0,0:0:0:0:
192,128,25353,1,0,0:0:0:0:
192,128,25520,1,0,0:0:0:0:
192,128,25686,1,0,0:0:0:0:
192,256,26020,1,2,0:0:0:0:
192,256,26353,1,2,0:0:0:0:
192,128,26686,1,0,0:0:0:0:
192,256,27353,1,2,0:0:0:0:
192,128,27686,1,0,0:0:0:0:
192,256,28020,1,2,0:0:0:0:
192,256,28353,1,2,0:0:0:0:
192,128,28686,1,0,0:0:0:0:
192,128,29020,1,0,0:0:0:0:
192,256,29353,1,2,0:0:0:0:
192,256,29686,1,2,0:0:0:0:
192,128,30020,1,0,0:0:0:0:
192,128,30686,1,0,0:0:0:0:
192,256,30853,1,2,0:0:0:0:
192,128,31020,1,0,0:0:0:0:
192,128,31353,1,0,0:0:0:0:
192,128,32020,1,0,0:0:0:0:
192,256,32186,1,2,0:0:0:0:
192,128,32353,1,0,0:0:0:0:
192,128,32686,1,0,0:0:0:0:
192,256,33353,1,2,0:0:0:0:
192,256,33686,1,2,0:0:0:0:
192,256,34020,1,2,0:0:0:0:
192,256,34353,1,2,0:0:0:0:
192,128,34686,1,0,0:0:0:0:
192,128,35020,1,0,0:0:0:0:
320,128,35353,1,4,0:0:0:0:
320,128,36020,5,4,0:0:0:0:
192,256,36353,1,2,0:0:0:0:
192,128,36686,1,0,0:0:0:0:
192,128,36853,1,0,0:0:0:0:
192,256,37020,1,2,0:0:0:0:
192,128,37686,1,0,0:0:0:0:
192,256,38020,1,2,0:0:0:0:
192,256,38686,1,2,0:0:0:0:
192,256,39020,1,2,0:0:0:0:
192,256,39186,1,2,0:0:0:0:
192,256,39353,1,2,0:0:0:0:
192,128,39686,1,0,0:0:0:0:
192,256,40353,1,2,0:0:0:0:
192,128,40686,1,0,0:0:0:0:
192,128,41353,1,0,0:0:0:0:
192,128,41686,1,0,0:0:0:0:
192,128,42020,1,0,0:0:0:0:
192,256,42186,1,2,0:0:0:0:
192,128,42353,1,0,0:0:0:0:
192,256,43353,1,2,0:0:0:0:
192,128,44020,1,0,0:0:0:0:
192,256,44353,1,2,0:0:0:0:
192,128,44686,1,0,0:0:0:0:
192,256,45020,1,2,0:0:0:0:
192,256,45353,1,2,0:0:0:0:
192,256,45520,1,2,0:0:0:0:
192,128,45686,1,0,0:0:0:0:
192,256,46020,1,2,0:0:0:0:
192,128,46353,1,0,0:0:0:0:
192,128,46686,1,0,0:0:0:0:
192,256,47020,1,2,0:0:0:0:
192,128,47353,1,0,0:0:0:0:
192,128,47520,1,0,0:0:0:0:
192,256,47686,1,2,0:0:0:0:
192,128,48353,1,0,0:0:0:0:
192,256,48686,1,2,0:0:0:0:
192,256,49353,1,2,0:0:0:0:
192,256,49686,1,2,0:0:0:0:
192,256,49853,1,2,0:0:0:0:
192,256,50020,1,2,0:0:0:0:
192,128,50353,1,0,0:0:0:0:
192,256,51020,1,2,0:0:0:0:
192,128,51353,1,0,0:0:0:0:
192,128,52020,1,0,0:0:0:0:
192,128,52353,1,0,0:0:0:0:
192,128,52686,1,0,0:0:0:0:
192,256,52853,1,2,0:0:0:0:
192,128,53020,1,0,0:0:0:0:
192,256,54020,1,2,0:0:0:0:
192,128,54686,1,0,0:0:0:0:
192,256,55020,1,2,0:0:0:0:
192,128,55353,1,0,0:0:0:0:
192,256,55686,1,2,0:0:0:0:
192,256,56020,1,2,0:0:0:0:
192,256,56186,1,2,0:0:0:0:
192,128,56353,1,0,0:0:0:0:
192,256,56686,1,2,0:0:0:0:
192,128,57020,1,0,0:0:0:0:
