osu file format v14

[General]
AudioFilename: audio.mp3
AudioLeadIn: 0
PreviewTime: 321214
Countdown: 0
SampleSet: Soft
StackLeniency: 0.7
Mode: 3
LetterboxInBreaks: 0
SpecialStyle: 0
WidescreenStoryboard: 0

[Editor]
Bookmarks: 182,23306,49131,80751,129860,168722,198756,239214,259663,307822,321318,359905
DistanceSpacing: 1.6
BeatDivisor: 8
GridSize: 32
TimelineZoom: 3.299999

[Metadata]
Title:rosso (Live at Kyoto Concert Hall 2019.10.19)
TitleUnicode:rosso (Live at Kyoto Concert Hall 2019.10.19)
Artist:jizue
ArtistUnicode:ジズー
Creator:Paraxia
Version:among rose blossoms
Source:
Tags:Disguise Jazz Instrumental Marathon Hybrid Tech 井上典政 Noriyuki Inoue 片木希依 Kie Katagi 山田剛 Go Yamada orchestra
BeatmapID:4542047
BeatmapSetID:2155034

[Difficulty]
HPDrainRate:8.3
CircleSize:4
OverallDifficulty:6.7
ApproachRate:10
SliderMultiplier:1.4
SliderTickRate:1

[Events]
//Background and Video events
0,0,"rossobgpng.png",0,0
//Break Periods
//Storyboard Layer 0 (Background)
//Storyboard Layer 1 (Fail)
//Storyboard Layer 2 (Pass)
//Storyboard Layer 3 (Foreground)
//Storyboard Layer 4 (Overlay)
//Storyboard Sound Samples

[TimingPoints]
182.955821477373,422.535211267606,6,2,1,40,1,0
182.9558215,-94.66666667,6,2,1,40,0,0
2718,414.507772020726,6,2,1,40,1,0
2718,-96.5,6,2,1,40,0,0
5205,416.666666666667,6,2,1,40,1,0
5205,-96,6,2,1,40,0,0
7705,428.571428571429,6,2,1,40,1,0
7705,-93.33333333,6,2,1,40,0,0
9419,412.371134020619,6,2,1,40,1,0
9419,-97,6,2,1,40,0,0
10241,408.163265306122,6,2,1,40,1,0
10241,-98,6,2,1,40,0,0
12689,405.405405405405,6,2,1,40,1,0
12689,-98.66666667,6,2,1,40,0,0
15121,425.531914893617,6,2,1,40,1,0
15121,-94,6,2,1,40,0,0
15972,408.163265306122,6,2,1,40,1,0
15972,-98,6,2,1,40,0,0
16788,413.793103448276,6,2,1,40,1,0
16788,-96.66666667,6,2,1,40,0,0
17615,389.61038961039,6,2,1,40,1,0
17615,-102.6666667,6,2,1,40,0,0
18394,419.58041958042,6,2,1,40,1,0
18394,-95.33333333,6,2,1,40,0,0
19233,400,6,2,1,40,1,0
19233,-100,6,2,1,40,0,0
20033,434.782608695653,4,2,1,40,1,0
20033,-92,4,2,1,40,0,0
20902,413.793103448276,4,2,1,40,1,0
20902,-96.66666667,4,2,1,40,0,0
21729,206.896551724138,4,2,1,40,1,0
21729,-193.3333333,4,2,1,40,0,0
22143,363.636363636364,4,2,1,40,1,0
22143,-110,4,2,1,40,0,0
22506,400,4,2,1,40,1,0
22506,-100,4,2,1,40,0,0
23306,425.531914893617,4,2,1,40,1,1
23306,-94,4,2,1,40,0,1
24157,400,4,2,1,40,1,1
24157,-100,4,2,1,40,0,1
24957,392.156862745098,4,2,1,40,1,1
24957,-102,4,2,1,40,0,1
26525,402.68456375839,4,2,1,40,1,1
26525,-99.33333333,4,2,1,40,0,1
28135,400.000000000001,4,2,1,40,1,1
28135,-100,4,2,1,40,0,1
34535,413.793103448277,4,2,1,40,1,1
34535,-96.66666667,4,2,1,40,0,1
36190,400.000000000001,4,2,1,40,1,1
36190,-100,4,2,1,40,0,1
37790,397.350993377484,4,2,1,40,1,1
37790,-100.6666667,4,2,1,40,0,1
39379,402.68456375839,4,2,1,40,1,1
39379,-99.33333333,4,2,1,40,0,1
40989,400.000000000001,4,2,1,40,1,1
40989,-100,4,2,1,40,0,1
42589,413.793103448277,4,2,1,40,1,1
42589,-96.66666667,4,2,1,40,0,1
45899,400.000000000001,4,2,1,40,1,1
45899,-100,4,2,1,40,0,1
47499,408.163265306123,4,2,1,40,1,1
47499,-98,4,2,1,40,0,1
49131,-98,4,2,1,40,0,0
52396,405.405405405406,4,2,1,40,1,0
52396,-98.66666667,4,2,1,40,0,0
54017,404.040404040405,4,2,1,40,1,0
54017,-99,4,2,1,40,0,0
55633,402.68456375839,4,2,1,40,1,0
55633,-99.33333333,4,2,1,40,0,0
58854,405.405405405406,4,2,1,40,1,0
58854,-98.66666667,4,2,1,40,0,0
60475,402.68456375839,4,2,1,40,1,0
60475,-99.33333333,4,2,1,40,0,0
63696,400.000000000001,4,2,1,40,1,0
63696,-100,4,2,1,40,0,0
66896,394.736842105264,4,2,1,40,1,0
66896,-101.3333333,4,2,1,40,0,0
68474,400.000000000001,4,2,1,40,1,0
68474,-100,4,2,1,40,0,0
70074,394.736842105264,4,2,1,40,1,0
70074,-101.3333333,4,2,1,40,0,0
71652,397.350993377484,4,2,1,40,1,0
71652,-100.6666667,4,2,1,40,0,0
73241,405.405405405406,4,2,1,40,1,0
73241,-98.66666667,4,2,1,40,0,0
74862,424.778761061948,4,2,1,40,1,0
74862,-94.16666667,4,2,1,40,0,0
76561,410.95890410959,4,2,1,40,1,0
76561,-97.33333333,4,2,1,40,0,0
78204,428.57142857143,4,2,1,40,1,0
78204,-93.33333333,4,2,1,40,0,0
79061,441.176470588237,4,2,1,40,1,0
79061,-90.66666667,4,2,1,40,0,0
79943,404.040404040406,4,2,1,40,1,0
79943,-99,4,2,1,40,0,0
80751,410.95890410959,6,2,1,40,1,0
80751,-97.33333333,6,2,1,40,0,0
83216,406.77966101695,6,2,1,40,1,0
83216,-98.33333333,6,2,1,40,0,0
85656,402.68456375839,6,2,1,40,1,0
85656,-99.33333333,6,2,1,40,0,0
88072,403.361344537816,6,2,1,40,1,0
88072,-99.16666667,6,2,1,40,0,0
90492,413.793103448277,4,2,1,40,1,0
90492,-96.66666667,4,2,1,40,0,0
92147,408.163265306123,4,2,1,40,1,0
92147,-98,4,2,1,40,0,0
95412,410.95890410959,4,2,1,40,1,0
95412,-97.33333333,4,2,1,40,0,0
97055,405.405405405406,4,2,1,40,1,0
97055,-98.66666667,4,2,1,40,0,0
98676,412.37113402062,4,2,1,40,1,0
98676,-97,4,2,1,40,0,0
100325,408.163265306123,4,2,1,40,1,0
100325,-98,4,2,1,40,0,0
103590,410.95890410959,4,2,1,40,1,0
103590,-97.33333333,4,2,1,40,0,0
106877,408.163265306123,4,2,1,40,1,0
106877,-98,4,2,1,40,0,0
108509,410.95890410959,4,2,1,40,1,0
108509,-97.33333333,4,2,1,40,0,0
110152,408.163265306123,4,2,1,40,1,0
110152,-98,4,2,1,40,0,0
113417,404.040404040405,4,2,1,40,1,0
113417,-99,4,2,1,40,0,0
115033,408.163265306123,4,2,1,40,1,0
115033,-98,4,2,1,40,0,0
121562,413.793103448277,4,2,1,40,1,0
121562,-96.66666667,4,2,1,40,0,0
123217,413.793103448277,4,2,1,40,1,0
123217,-96.66666667,4,2,1,40,0,0
126527,419.580419580421,4,2,1,40,1,0
126527,-95.33333333,4,2,1,40,0,0
128205,413.793103448277,4,2,1,40,1,0
128205,-96.66666667,4,2,1,40,0,0
129860,394.736842105264,4,2,1,40,1,0
129860,-101.3333333,4,2,1,40,0,0
133017,400.000000000001,4,2,1,40,1,0
133017,-100,4,2,1,40,0,0
134617,402.68456375839,4,2,1,40,1,0
134617,-99.33333333,4,2,1,40,0,0
136227,413.793103448277,4,2,1,40,1,0
136227,-96.66666667,4,2,1,40,0,0
137882,384.615384615385,4,2,1,40,1,0
137882,-104,4,2,1,40,0,0
139420,410.95890410959,4,2,1,40,1,0
139420,-97.33333333,4,2,1,40,0,0
141063,407.470288624789,4,2,1,40,1,0
141063,-98.16666667,4,2,1,40,0,0
142692,405.405405405406,4,2,1,40,1,1
142692,-98.66666667,4,2,1,40,0,1
154042,409.556313993175,4,2,1,40,1,1
154042,-97.66666667,4,2,1,40,0,1
155680,409.556313993175,4,2,1,40,1,1
155680,-97.66666667,4,2,1,40,0,1
157318,400.000000000001,4,2,1,40,1,1
157318,-100,4,2,1,40,0,1
158918,405.405405405406,4,2,1,40,1,1
158918,-98.66666667,4,2,1,40,0,1
160539,402.68456375839,4,2,1,40,1,1
160539,-99.33333333,4,2,1,40,0,1
162149,408.163265306123,4,2,1,40,1,1
162149,-98,4,2,1,40,0,1
163781,410.95890410959,4,2,1,40,1,1
163781,-97.33333333,4,2,1,40,0,1
165424,410.95890410959,4,2,1,40,1,1
165424,-97.33333333,4,2,1,40,0,1
167067,413.793103448277,4,2,1,40,1,1
167067,-96.66666667,4,2,1,40,0,1
168722,410.95890410959,4,2,1,40,1,0
168722,-97.33333333,4,2,1,40,0,0
172008,400.000000000001,4,2,1,40,1,0
172008,-100,4,2,1,40,0,0
173608,405.405405405406,4,2,1,40,1,0
173608,-98.66666667,4,2,1,40,0,0
176850,400.000000000001,4,2,1,40,1,0
176850,-100,4,2,1,40,0,0
178450,402.68456375839,4,2,1,40,1,0
178450,-99.33333333,4,2,1,40,0,0
186503,397.350993377484,4,2,1,40,1,0
186503,-100.6666667,4,2,1,40,0,0
188092,402.68456375839,4,2,1,40,1,0
188092,-99.33333333,4,2,1,40,0,0
189702,397.350993377484,4,2,1,40,1,0
189702,-100.6666667,4,2,1,40,0,0
191291,400.000000000001,4,2,1,40,1,0
191291,-100,4,2,1,40,0,0
192891,405.405405405406,4,2,1,40,1,0
192891,-98.66666667,4,2,1,40,0,0
194512,428.57142857143,4,2,1,40,1,0
194512,-93.33333333,4,2,1,40,0,0
196226,421.792618629175,4,2,1,40,1,0
196226,-94.83333333,4,2,1,40,0,0
198756,416.666666666668,5,2,1,40,1,0
198756,-96,5,2,1,40,0,0
200839,405.405405405407,5,2,1,40,1,0
200839,-98.66666667,5,2,1,40,0,0
202866,400.000000000001,5,2,1,40,1,0
202866,-100,5,2,1,40,0,0
204866,405.405405405407,5,2,1,40,1,0
204866,-98.66666667,5,2,1,40,0,0
206893,408.163265306124,5,2,1,40,1,0
206893,-98,5,2,1,40,0,0
208933,404.040404040405,5,2,1,40,1,0
208933,-99,5,2,1,40,0,0
225094,400.000000000001,5,2,1,40,1,0
225094,-100,5,2,1,40,0,0
227094,402.68456375839,5,2,1,40,1,0
227094,-99.33333333,5,2,1,40,0,0
229107,405.405405405406,5,2,1,40,1,0
229107,-98.66666667,5,2,1,40,0,0
231134,402.68456375839,5,2,1,40,1,0
231134,-99.33333333,5,2,1,40,0,0
233147,405.405405405406,5,2,1,40,1,0
233147,-98.66666667,5,2,1,40,0,0
235174,404.040404040405,5,2,1,40,1,0
235174,-99,5,2,1,40,0,0
241234,405.405405405406,5,2,1,40,1,0
241234,-98.66666667,5,2,1,40,0,0
243261,402.68456375839,5,2,1,40,1,0
243261,-99.33333333,5,2,1,40,0,0
245274,400.000000000001,5,2,1,40,1,0
245274,-100,5,2,1,40,0,0
247274,405.405405405406,5,2,1,40,1,0
247274,-98.66666667,5,2,1,40,0,0
249301,402.68456375839,5,2,1,40,1,0
249301,-99.33333333,5,2,1,40,0,0
251314,406.77966101695,5,2,1,40,1,0
251314,-98.33333333,5,2,1,40,0,0
253347,410.95890410959,5,2,1,40,1,0
253347,-97.33333333,5,2,1,40,0,0
255401,426.287744227354,5,2,1,40,1,0
255401,-93.83333333,5,2,1,40,0,0
259663,408.163265306123,5,2,1,40,1,1
259663,-98,5,2,1,40,0,1
261703,400,5,2,1,40,1,1
261703,-100,5,2,1,40,0,1
263703,402.684563758389,5,2,1,40,1,1
263703,-99.33333333,5,2,1,40,0,1
265716,406.779661016949,5,2,1,40,1,1
265716,-98.33333333,5,2,1,40,0,1
267749,405.405405405405,5,2,1,40,1,1
267749,-98.66666667,5,2,1,40,0,1
269776,401.33779264214,5,2,1,40,1,1
269776,-99.66666667,5,2,1,40,0,1
275796,406.779661016949,5,2,1,40,1,1
275796,-98.33333333,5,2,1,40,0,1
277829,402.684563758389,5,2,1,40,1,1
277829,-99.33333333,5,2,1,40,0,1
279842,400,5,2,1,40,1,1
279842,-100,5,2,1,40,0,1
281842,402.684563758389,5,2,1,40,1,1
281842,-99.33333333,5,2,1,40,0,1
287881,400,5,2,1,40,1,1
287881,-100,5,2,1,40,0,1
289881,406.779661016949,5,2,1,40,1,1
289881,-98.33333333,5,2,1,40,0,1
291914,392.156862745098,5,2,1,40,1,1
291914,-102,5,2,1,40,0,1
293874,390.879478827361,5,2,1,40,1,1
293874,-102.3333333,5,2,1,40,0,1
297782,392.156862745098,5,2,1,40,1,1
297782,-102,5,2,1,40,0,1
299742,400,5,2,1,40,1,1
299742,-100,5,2,1,40,0,1
301742,402.684563758389,5,2,1,40,1,1
301742,-99.33333333,5,2,1,40,0,1
303755,405.405405405405,5,2,1,40,1,1
303755,-98.66666667,5,2,1,40,0,1
305782,408.163265306122,5,2,1,40,1,1
305782,-98,5,2,1,40,0,1
307822,411.663807890223,4,2,1,40,1,1
307822,-97.16666667,4,2,1,40,0,0
309468,428.571428571428,6,2,1,40,1,0
309468,-93.33333333,6,2,1,40,0,0
310325,419.580419580419,6,2,1,40,1,0
310325,-95.33333333,6,2,1,40,0,0
312842,428.571428571428,6,2,1,40,1,0
312842,-93.33333333,6,2,1,40,0,0
314126,422.535211267606,6,2,1,40,1,0
314126,-94.66666667,6,2,1,40,0,0
314759,444.444444444444,6,2,1,40,1,0
314759,-90,6,2,1,40,0,0
315425,427.046263345196,6,2,1,40,1,0
315425,-93.66666667,6,2,1,40,0,0
316065,422.535211267606,6,2,1,40,1,0
316065,-94.66666667,6,2,1,40,0,0
317331,405.405405405405,6,2,1,40,1,0
317331,-98.66666667,6,2,1,40,0,0
317736,226.415094339623,6,2,1,40,1,0
317736,-178.571428571429,6,2,1,40,0,0
317962,422.535211267606,4,2,1,40,1,0
317962,-94.66666667,4,2,1,40,0,0
319652,416.666666666667,4,2,1,40,1,0
319652,-96,4,2,1,40,0,0
321318,408.163265306122,4,2,1,40,1,1
321318,-98,4,2,1,40,0,1
322950,402.684563758389,4,2,1,40,1,1
322950,-99.33333333,4,2,1,40,0,1
326171,405.405405405405,4,2,1,40,1,1
326171,-98.66666667,4,2,1,40,0,1
332657,413.793103448276,4,2,1,40,1,1
332657,-96.66666667,4,2,1,40,0,1
334312,402.684563758389,4,2,1,40,1,1
334312,-99.33333333,4,2,1,40,0,1
337533,406.779661016949,4,2,1,40,1,1
337533,-98.33333333,4,2,1,40,0,1
340787,405.405405405405,4,2,1,40,1,1
340787,-98.66666667,4,2,1,40,0,1
342408,402.684563758389,4,2,1,40,1,1
342408,-99.33333333,4,2,1,40,0,1
345629,392.156862745098,4,2,1,40,1,1
345629,-102,4,2,1,40,0,1
347197,400,4,2,1,40,1,1
347197,-100,4,2,1,40,0,1
348797,394.736842105263,4,2,1,40,1,1
348797,-101.3333333,4,2,1,40,0,1
350375,390.879478827361,4,2,1,40,1,1
350375,-102.3333333,4,2,1,40,0,1
351938,400,4,2,1,40,1,1
351938,-100,4,2,1,40,0,1
353538,394.736842105263,4,2,1,40,1,1
353538,-101.3333333,4,2,1,40,0,1
355116,400,4,2,1,40,1,1
355116,-100,4,2,1,40,0,1
358316,397.350993377483,4,2,1,40,1,1
358316,-100.6666667,4,2,1,40,0,1
359905,408.163265306122,6,2,1,40,1,0
359905,-98,6,2,1,40,0,0
362353,419.580419580419,6,2,1,40,1,0
362353,-95.33333333,6,2,1,40,0,0
364870,413.793103448276,6,2,1,40,1,0
364870,-96.66666667,6,2,1,40,0,0
367352,419.580419580419,6,2,1,40,1,0
367352,-95.33333333,6,2,1,40,0,0
369869,400,6,2,1,40,1,0
369869,-100,6,2,1,40,0,0
370669,451.127819548872,6,2,1,40,1,0
370669,-88.66666667,6,2,1,40,0,0
371120,357.142857142857,6,2,1,40,1,0
371120,-112,6,2,1,40,0,0
371477,444.444444444444,4,2,1,40,1,1
371477,-90,4,2,1,40,0,1
372365,324.324324324324,4,2,1,40,1,1
372365,-123.3333333,4,2,1,40,0,1
372689,319.148936170213,4,2,1,40,1,1
372689,-125.3333333,4,2,1,40,0,1
373008,310.880829015544,4,2,1,40,1,1
373008,-128.6666667,4,2,1,40,0,1
373318,281.69014084507,4,2,1,40,1,1
373318,-142,4,2,1,40,0,1
373599,240,4,2,1,40,1,1
373599,-166.6666667,4,2,1,40,0,1
373839,300,4,2,1,40,1,1
373839,-133.3333333,4,2,1,40,0,1
374139,294.117647058823,4,2,1,40,1,1
374139,-136,4,2,1,40,0,1
374433,240,4,2,1,40,1,1
374433,-166.6666667,4,2,1,40,0,1
374673,241.935483870968,4,2,1,40,1,1
374673,-165.3333333,4,2,1,40,0,1
374914,239.043824701195,4,2,1,40,1,1
374914,-167.3333333,4,2,1,40,0,1
375153,225.563909774436,4,2,1,40,1,1
375153,-177.3333333,4,2,1,40,0,1
375378,217.391304347826,4,2,1,40,1,1
375378,-184,4,2,1,40,0,1
375812,206.185567010309,4,2,1,40,1,1
375812,-194,4,2,1,40,0,1
376018,202.702702702703,4,2,1,40,1,1
376018,-197.3333333,4,2,1,40,0,1
376220,200,4,2,1,40,1,1
376220,-200,4,2,1,40,0,1
376420,184.615384615385,4,2,1,40,1,1
376420,-216.6666667,4,2,1,40,0,1
376604,176.470588235294,4,2,1,40,1,1
376604,-226.6666667,4,2,1,40,0,1
376780,184.615384615385,4,2,1,40,1,1
376780,-216.6666667,4,2,1,40,0,1
376964,200,4,2,1,40,1,1
376964,-200,4,2,1,40,0,1
377164,173.913043478261,4,2,1,40,1,1
377164,-230,4,2,1,40,0,1
377684,172.413793103448,4,2,1,40,1,1
377684,-232,4,2,1,40,0,1
378028,188.679245283019,4,2,1,40,1,1
378028,-212,4,2,1,40,0,1
378216,171.428571428571,4,2,1,40,1,1
378216,-233.3333333,4,2,1,40,0,1
378901,171.919770773639,4,2,1,40,1,1
378901,-232.6666667,4,2,1,40,0,1
379416,167.130919220056,4,2,1,40,1,1
379416,-239.3333333,4,2,1,40,0,1
379583,167.130919220056,4,2,1,40,1,1
379583,-239.3333333,4,2,1,40,0,1
380084,166.666666666667,4,2,1,40,1,1
380084,-240,4,2,1,40,0,1
380584,151.898734177215,4,2,1,40,1,1
380584,-263.3333333,4,2,1,40,0,1
380887,166.666666666667,4,2,1,40,1,1
380887,-240,4,2,1,40,0,1
381220,155.038759689922,4,2,1,40,1,1
381220,-258,4,2,1,40,0,1
381530,161.290322580645,4,2,1,40,1,1
381530,-248,4,2,1,40,0,1
381852,159.151193633952,4,2,1,40,1,1
381852,-251.3333333,4,2,1,40,0,1
382329,160.427807486631,4,2,1,40,1,1
382329,-249.3333333,4,2,1,40,0,1
382649,160.857908847185,4,2,1,40,1,1
382649,-248.6666667,4,2,1,40,0,1
383131,162.162162162162,4,2,1,40,1,1
383131,-246.6666667,4,2,1,40,0,1
383293,141.176470588235,4,2,1,40,1,1
383293,-283.3333333,4,2,1,40,0,1
383434,165.745856353591,4,2,1,40,1,1
383434,-241.3333333,4,2,1,40,0,1
383599,172.910662824207,4,2,1,40,1,1
383599,-231.3333333,4,2,1,40,0,1
383771,129.032258064516,4,2,1,40,1,1
383771,-310,4,2,1,40,0,1
383900,134.831460674157,4,2,1,40,1,1
383900,-296.6666667,4,2,1,40,0,1
384034,157.894736842105,4,2,1,40,1,1
384034,-253.3333333,4,2,1,40,0,1
384191,121.212121212121,4,2,1,40,1,1
384191,-330,4,2,1,40,0,1
384433,141.176470588235,4,2,1,40,1,1
384433,-283.3333333,4,2,1,40,0,1
384715,246.913580246913,4,2,1,40,1,0
384715,-162,4,2,1,40,0,0
384961,238.095238095238,4,2,1,40,1,0
384961,-168,4,2,1,40,0,0
385199,252.100840336134,4,2,1,40,1,0
385199,-158.6666667,4,2,1,40,0,0
385451,310.880829015543,4,2,1,40,1,0
385451,-128.6666667,4,2,1,40,0,0
385761,397.350993377482,4,2,1,40,1,0
385761,-100.6666667,4,2,1,40,0,0
386158,545.454545454543,4,2,1,40,1,0
386158,-73.33333333,4,2,1,40,0,0
386703,612.244897959181,4,2,1,40,1,0
386703,-65.33333333,4,2,1,40,0,0
387315,487.804878048779,4,2,1,40,1,0
387315,-82,4,2,1,40,0,0
387802,550.458715596328,4,2,1,40,1,0
387802,-72.66666667,4,2,1,40,0,0
388352,363.636363636363,4,2,1,40,1,0
388352,-110,4,2,1,40,0,0
388715,370.370370370369,4,2,1,40,1,1
388715,-108,4,2,1,40,0,1
389826,-108,4,2,1,40,0,0

[HitObjects]
64,192,182,5,0,0:0:0:0:
320,192,182,128,0,288:0:0:0:0:
448,192,182,1,0,0:0:0:0:
64,192,267,128,0,351:0:0:0:0:
192,192,288,128,0,394:0:0:0:0:
320,192,394,1,0,0:0:0:0:
64,192,499,1,0,0:0:0:0:
320,192,605,1,0,0:0:0:0:
192,192,816,1,0,0:0:0:0:
320,192,922,1,0,0:0:0:0:
64,192,1028,1,0,0:0:0:0:
320,192,1133,1,0,0:0:0:0:
448,192,1133,1,0,0:0:0:0:
192,192,1239,1,0,0:0:0:0:
64,192,1344,1,0,0:0:0:0:
192,192,1556,1,0,0:0:0:0:
320,192,1661,1,0,0:0:0:0:
448,192,1767,1,0,0:0:0:0:
64,192,1873,1,0,0:0:0:0:
320,192,1978,1,0,0:0:0:0:
448,192,2084,1,0,0:0:0:0:
192,192,2189,1,0,0:0:0:0:
320,192,2295,1,0,0:0:0:0:
448,192,2401,1,0,0:0:0:0:
320,192,2506,1,0,0:0:0:0:
192,192,2612,1,0,0:0:0:0:
320,192,2718,128,0,3028:0:0:0:0:
448,192,2718,128,0,2821:0:0:0:0:
64,192,2752,128,0,2925:0:0:0:0:
192,192,2821,1,0,0:0:0:0:
448,192,2925,128,0,3547:0:0:0:0:
64,192,3028,128,0,3236:0:0:0:0:
320,192,3132,128,0,3339:0:0:0:0:
192,192,3236,1,0,0:0:0:0:
64,192,3339,128,0,3443:0:0:0:0:
320,192,3443,128,0,3754:0:0:0:0:
64,192,3547,128,0,3650:0:0:0:0:
448,192,3650,128,0,4065:0:0:0:0:
64,192,3754,128,0,4272:0:0:0:0:
320,192,3857,128,0,3961:0:0:0:0:
192,192,3961,1,0,0:0:0:0:
320,192,4065,128,0,4376:0:0:0:0:
448,192,4168,128,0,4686:0:0:0:0:
192,192,4272,1,0,0:0:0:0:
64,192,4376,128,0,4479:0:0:0:0:
320,192,4479,128,0,4997:0:0:0:0:
64,192,4583,128,0,4790:0:0:0:0:
192,192,4686,1,0,0:0:0:0:
448,192,4790,128,0,5101:0:0:0:0:
64,192,4894,128,0,5101:0:0:0:0:
192,192,4997,1,0,0:0:0:0:
320,192,5101,128,0,5205:0:0:0:0:
192,192,5205,1,0,0:0:0:0:
448,192,5205,1,0,0:0:0:0:
64,192,5239,128,0,5343:0:0:0:0:
192,192,5309,128,0,5413:0:0:0:0:
448,192,5343,1,0,0:0:0:0:
320,192,5371,128,0,5455:0:0:0:0:
448,192,5517,128,0,5725:0:0:0:0:
64,192,5517,1,0,0:0:0:0:
320,192,5543,1,0,0:0:0:0:
64,192,5621,128,0,5830:0:0:0:0:
192,192,5705,128,0,5788:0:0:0:0:
320,192,5830,1,0,0:0:0:0:
448,192,5934,1,0,0:0:0:0:
64,192,6038,1,0,0:0:0:0:
448,192,6142,1,0,0:0:0:0:
320,192,6142,1,0,0:0:0:0:
192,192,6246,1,0,0:0:0:0:
64,192,6350,1,0,0:0:0:0:
192,192,6559,1,0,0:0:0:0:
320,192,6663,1,0,0:0:0:0:
448,192,6767,1,0,0:0:0:0:
64,192,6871,1,0,0:0:0:0:
320,192,6975,1,0,0:0:0:0:
448,192,7080,1,0,0:0:0:0:
192,192,7184,1,0,0:0:0:0:
320,192,7288,1,0,0:0:0:0:
448,192,7392,1,0,0:0:0:0:
320,192,7496,1,0,0:0:0:0:
192,192,7600,1,0,0:0:0:0:
320,192,7705,128,0,8026:0:0:0:0:
448,192,7705,128,0,7812:0:0:0:0:
64,192,7740,128,0,7919:0:0:0:0:
192,192,7812,1,0,0:0:0:0:
448,192,7919,128,0,8669:0:0:0:0:
64,192,8026,128,0,8240:0:0:0:0:
320,192,8133,128,0,8347:0:0:0:0:
192,192,8240,1,0,0:0:0:0:
64,192,8347,128,0,8455:0:0:0:0:
320,192,8455,128,0,8562:0:0:0:0:
64,192,8562,128,0,8990:0:0:0:0:
320,192,8647,128,0,8905:0:0:0:0:
192,192,8733,1,0,0:0:0:0:
448,192,8819,128,0,9076:0:0:0:0:
192,192,8905,1,0,0:0:0:0:
320,192,8990,128,0,9076:0:0:0:0:
64,192,9076,128,0,9247:0:0:0:0:
320,192,9162,128,0,9501:0:0:0:0:
448,192,9247,128,0,9419:0:0:0:0:
64,192,9333,128,0,9501:0:0:0:0:
192,192,9419,1,0,0:0:0:0:
448,192,9501,128,0,9666:0:0:0:0:
320,192,9583,128,0,9748:0:0:0:0:
192,192,9625,1,0,0:0:0:0:
64,192,9625,1,0,0:0:0:0:
64,192,9728,128,0,9934:0:0:0:0:
320,192,9831,128,0,9934:0:0:0:0:
448,192,9831,1,0,0:0:0:0:
448,192,9934,128,0,10140:0:0:0:0:
320,192,10037,128,0,10140:0:0:0:0:
192,192,10037,1,0,0:0:0:0:
192,192,10140,1,0,0:0:0:0:
64,192,10140,1,0,0:0:0:0:
448,192,10241,128,0,10343:0:0:0:0:
64,192,10241,128,0,10445:0:0:0:0:
320,192,10322,1,0,0:0:0:0:
192,192,10343,128,0,10547:0:0:0:0:
320,192,10404,128,0,10567:0:0:0:0:
448,192,10547,1,0,0:0:0:0:
64,192,10649,1,0,0:0:0:0:
192,192,10649,1,0,0:0:0:0:
320,192,10751,1,0,0:0:0:0:
64,192,10853,1,0,0:0:0:0:
448,192,10955,1,0,0:0:0:0:
192,192,11057,1,0,0:0:0:0:
448,192,11159,1,0,0:0:0:0:
320,192,11261,1,0,0:0:0:0:
192,192,11261,1,0,0:0:0:0:
64,192,11363,1,0,0:0:0:0:
448,192,11465,1,0,0:0:0:0:
320,192,11465,1,0,0:0:0:0:
320,192,11567,1,0,0:0:0:0:
192,192,11567,1,0,0:0:0:0:
64,192,11669,1,0,0:0:0:0:
448,192,11771,1,0,0:0:0:0:
320,192,11771,1,0,0:0:0:0:
448,192,11873,1,0,0:0:0:0:
64,192,11873,1,0,0:0:0:0:
192,192,11975,1,0,0:0:0:0:
448,192,12077,1,0,0:0:0:0:
192,192,12179,1,0,0:0:0:0:
64,192,12179,1,0,0:0:0:0:
320,192,12281,1,0,0:0:0:0:
320,192,12383,1,0,0:0:0:0:
64,192,12485,1,0,0:0:0:0:
320,192,12587,1,0,0:0:0:0:
448,192,12689,1,0,0:0:0:0:
64,192,12689,128,0,12891:0:0:0:0:
192,192,12770,128,0,12851:0:0:0:0:
448,192,12790,1,0,0:0:0:0:
320,192,12891,1,0,0:0:0:0:
64,192,12993,1,0,0:0:0:0:
448,192,13094,1,0,0:0:0:0:
192,192,13094,1,0,0:0:0:0:
192,192,13195,1,0,0:0:0:0:
320,192,13195,1,0,0:0:0:0:
448,192,13297,1,0,0:0:0:0:
192,192,13398,1,0,0:0:0:0:
448,192,13449,1,0,0:0:0:0:
192,192,13499,1,0,0:0:0:0:
320,192,13499,1,0,0:0:0:0:
64,192,13601,1,0,0:0:0:0:
320,192,13702,1,0,0:0:0:0:
448,192,13803,1,0,0:0:0:0:
192,192,13803,1,0,0:0:0:0:
320,192,13905,1,0,0:0:0:0:
320,192,14006,1,0,0:0:0:0:
64,192,14107,1,0,0:0:0:0:
320,192,14209,1,0,0:0:0:0:
192,192,14310,1,0,0:0:0:0:
320,192,14411,1,0,0:0:0:0:
448,192,14513,1,0,0:0:0:0:
320,192,14614,1,0,0:0:0:0:
192,192,14716,1,0,0:0:0:0:
320,192,14716,1,0,0:0:0:0:
64,192,14817,1,0,0:0:0:0:
192,192,14817,1,0,0:0:0:0:
448,192,14918,1,0,0:0:0:0:
192,192,15020,1,0,0:0:0:0:
64,192,15121,128,0,15333:0:0:0:0:
448,192,15121,1,0,0:0:0:0:
320,192,15156,1,0,0:0:0:0:
192,192,15206,128,0,15291:0:0:0:0:
448,192,15227,1,0,0:0:0:0:
320,192,15333,1,0,0:0:0:0:
448,192,15440,1,0,0:0:0:0:
192,192,15440,1,0,0:0:0:0:
64,192,15546,1,0,0:0:0:0:
64,192,15652,1,0,0:0:0:0:
192,192,15759,1,0,0:0:0:0:
320,192,15865,1,0,0:0:0:0:
448,192,15972,128,0,16176:0:0:0:0:
192,192,15972,1,0,0:0:0:0:
64,192,16006,1,0,0:0:0:0:
320,192,16053,128,0,16135:0:0:0:0:
192,192,16074,1,0,0:0:0:0:
64,192,16176,1,0,0:0:0:0:
320,192,16244,1,0,0:0:0:0:
192,192,16312,1,0,0:0:0:0:
448,192,16380,1,0,0:0:0:0:
448,192,16482,1,0,0:0:0:0:
192,192,16584,1,0,0:0:0:0:
448,192,16686,1,0,0:0:0:0:
192,192,16788,128,0,16994:0:0:0:0:
320,192,16788,1,0,0:0:0:0:
64,192,16822,1,0,0:0:0:0:
448,192,16870,128,0,16953:0:0:0:0:
320,192,16891,1,0,0:0:0:0:
64,192,16994,1,0,0:0:0:0:
320,192,17098,1,0,0:0:0:0:
448,192,17098,1,0,0:0:0:0:
192,192,17201,1,0,0:0:0:0:
192,192,17305,1,0,0:0:0:0:
320,192,17408,1,0,0:0:0:0:
64,192,17512,1,0,0:0:0:0:
192,192,17615,128,0,17744:0:0:0:0:
448,192,17615,1,0,0:0:0:0:
64,192,17692,128,0,17848:0:0:0:0:
320,192,17744,128,0,17874:0:0:0:0:
448,192,17809,1,0,0:0:0:0:
192,192,17939,128,0,18069:0:0:0:0:
320,192,17955,128,0,18102:0:0:0:0:
64,192,18004,1,0,0:0:0:0:
64,192,18102,1,0,0:0:0:0:
448,192,18199,1,0,0:0:0:0:
320,192,18296,1,0,0:0:0:0:
448,192,18394,128,0,18533:0:0:0:0:
64,192,18394,1,0,0:0:0:0:
192,192,18477,128,0,18645:0:0:0:0:
320,192,18533,128,0,18673:0:0:0:0:
64,192,18708,1,0,0:0:0:0:
448,192,18743,128,0,18883:0:0:0:0:
192,192,18761,128,0,18918:0:0:0:0:
320,192,18813,1,0,0:0:0:0:
320,192,18918,1,0,0:0:0:0:
192,192,19023,1,0,0:0:0:0:
64,192,19128,1,0,0:0:0:0:
320,192,19233,128,0,19366:0:0:0:0:
192,192,19233,1,0,0:0:0:0:
448,192,19299,128,0,19433:0:0:0:0:
64,192,19366,128,0,19499:0:0:0:0:
192,192,19433,1,0,0:0:0:0:
448,192,19566,128,0,19666:0:0:0:0:
320,192,19583,128,0,19683:0:0:0:0:
192,192,19599,128,0,19699:0:0:0:0:
64,192,19633,1,0,0:0:0:0:
64,192,19733,1,0,0:0:0:0:
320,192,19833,1,0,0:0:0:0:
320,192,19933,1,0,0:0:0:0:
64,192,20033,128,0,20141:0:0:0:0:
448,192,20033,1,0,0:0:0:0:
192,192,20087,128,0,20304:0:0:0:0:
320,192,20141,128,0,20250:0:0:0:0:
448,192,20196,128,0,20467:0:0:0:0:
320,192,20359,128,0,20522:0:0:0:0:
64,192,20359,1,0,0:0:0:0:
192,192,20413,128,0,20576:0:0:0:0:
64,192,20467,1,0,0:0:0:0:
64,192,20902,128,0,21005:0:0:0:0:
448,192,20902,1,0,0:0:0:0:
192,192,20953,128,0,21160:0:0:0:0:
320,192,21005,128,0,21108:0:0:0:0:
448,192,21057,128,0,21315:0:0:0:0:
320,192,21212,128,0,21367:0:0:0:0:
64,192,21212,1,0,0:0:0:0:
192,192,21264,128,0,21419:0:0:0:0:
64,192,21315,1,0,0:0:0:0:
448,192,21935,128,0,21987:0:0:0:0:
320,192,21935,128,0,21987:0:0:0:0:
64,192,21987,1,0,0:0:0:0:
320,192,22039,128,0,22091:0:0:0:0:
448,192,22039,128,0,22091:0:0:0:0:
64,192,22091,1,0,0:0:0:0:
320,192,22142,128,0,22203:0:0:0:0:
448,192,22143,128,0,22203:0:0:0:0:
64,192,22203,1,0,0:0:0:0:
320,192,22264,128,0,22324:0:0:0:0:
448,192,22264,128,0,22324:0:0:0:0:
64,192,22324,1,0,0:0:0:0:
448,192,22385,128,0,22446:0:0:0:0:
320,192,22385,128,0,22446:0:0:0:0:
64,192,22446,1,0,0:0:0:0:
320,192,22506,128,0,22572:0:0:0:0:
192,192,22506,128,0,22606:0:0:0:0:
448,192,22506,1,0,0:0:0:0:
64,192,22572,128,0,22639:0:0:0:0:
64,192,23306,128,0,23465:0:0:0:0:
448,192,23306,128,0,23408:0:0:0:0:
320,192,23359,128,0,23518:0:0:0:0:
192,192,23518,128,0,23625:0:0:0:0:
64,192,23625,128,0,23696:0:0:0:0:
448,192,23660,128,0,23802:0:0:0:0:
320,192,23731,128,0,23837:0:0:0:0:
64,192,23802,128,0,23908:0:0:0:0:
192,192,23908,128,0,23979:0:0:0:0:
320,192,23944,128,0,24050:0:0:0:0:
448,192,24086,128,0,24257:0:0:0:0:
192,192,24157,1,0,0:0:0:0:
64,192,24157,128,0,24223:0:0:0:0:
320,192,24190,128,0,24357:0:0:0:0:
192,192,24290,128,0,24423:0:0:0:0:
64,192,24423,128,0,24490:0:0:0:0:
448,192,24490,128,0,24657:0:0:0:0:
192,192,24557,128,0,24623:0:0:0:0:
64,192,24623,128,0,24690:0:0:0:0:
320,192,24690,128,0,24757:0:0:0:0:
192,192,24723,128,0,24823:0:0:0:0:
448,192,24823,1,0,0:0:0:0:
192,192,24957,1,0,0:0:0:0:
448,192,24957,128,0,25087:0:0:0:0:
64,192,25006,128,0,25251:0:0:0:0:
320,192,25153,128,0,25349:0:0:0:0:
448,192,25251,128,0,25349:0:0:0:0:
64,192,25349,1,0,0:0:0:0:
192,192,25349,128,0,25447:0:0:0:0:
320,192,25447,128,0,25545:0:0:0:0:
64,192,25545,128,0,25643:0:0:0:0:
192,192,25610,128,0,25741:0:0:0:0:
320,192,25675,128,0,25773:0:0:0:0:
64,192,25741,1,0,0:0:0:0:
448,192,25741,128,0,26035:0:0:0:0:
192,192,25839,128,0,25970:0:0:0:0:
64,192,25937,128,0,26100:0:0:0:0:
320,192,26035,128,0,26264:0:0:0:0:
192,192,26035,1,0,0:0:0:0:
448,192,26133,128,0,26231:0:0:0:0:
192,192,26231,128,0,26427:0:0:0:0:
448,192,26329,1,0,0:0:0:0:
64,192,26329,128,0,26525:0:0:0:0:
448,192,26525,128,0,26692:0:0:0:0:
192,192,26525,1,0,0:0:0:0:
320,192,26592,128,0,26726:0:0:0:0:
192,192,26726,128,0,26827:0:0:0:0:
320,192,26827,128,0,26927:0:0:0:0:
448,192,26860,128,0,27061:0:0:0:0:
64,192,26927,1,0,0:0:0:0:
192,192,26927,128,0,27061:0:0:0:0:
320,192,27028,128,0,27129:0:0:0:0:
448,192,27129,128,0,27263:0:0:0:0:
64,192,27162,128,0,27229:0:0:0:0:
192,192,27229,128,0,27397:0:0:0:0:
320,192,27330,1,0,0:0:0:0:
64,192,27330,128,0,27598:0:0:0:0:
448,192,27397,128,0,27498:0:0:0:0:
320,192,27531,128,0,27665:0:0:0:0:
448,192,27632,128,0,27833:0:0:0:0:
192,192,27632,128,0,27733:0:0:0:0:
64,192,27733,128,0,27900:0:0:0:0:
192,192,27833,128,0,28001:0:0:0:0:
320,192,27934,128,0,28035:0:0:0:0:
448,192,28035,128,0,28135:0:0:0:0:
192,192,28135,1,0,0:0:0:0:
64,192,28135,128,0,28268:0:0:0:0:
320,192,28185,128,0,28385:0:0:0:0:
448,192,28335,128,0,28468:0:0:0:0:
192,192,28435,128,0,28535:0:0:0:0:
64,192,28468,128,0,28601:0:0:0:0:
448,192,28535,1,0,0:0:0:0:
320,192,28535,128,0,28668:0:0:0:0:
192,192,28635,128,0,28801:0:0:0:0:
320,192,28735,1,0,0:0:0:0:
64,192,28735,128,0,28835:0:0:0:0:
448,192,28785,128,0,28985:0:0:0:0:
192,192,28935,1,0,0:0:0:0:
64,192,28935,128,0,29135:0:0:0:0:
320,192,29035,128,0,29168:0:0:0:0:
448,192,29135,128,0,29235:0:0:0:0:
64,192,29235,1,0,0:0:0:0:
192,192,29235,128,0,29401:0:0:0:0:
448,192,29335,1,0,0:0:0:0:
320,192,29335,128,0,29601:0:0:0:0:
64,192,29535,1,0,0:0:0:0:
448,192,29535,128,0,29668:0:0:0:0:
192,192,29635,128,0,29801:0:0:0:0:
320,192,29735,1,0,0:0:0:0:
64,192,29735,128,0,29835:0:0:0:0:
448,192,29768,128,0,30001:0:0:0:0:
320,192,29935,128,0,30068:0:0:0:0:
192,192,30035,128,0,30135:0:0:0:0:
320,192,30135,1,0,0:0:0:0:
448,192,30135,128,0,30235:0:0:0:0:
64,192,30235,128,0,30435:0:0:0:0:
192,192,30335,128,0,30535:0:0:0:0:
448,192,30435,1,0,0:0:0:0:
64,192,30535,1,0,0:0:0:0:
448,192,30535,128,0,30601:0:0:0:0:
320,192,30568,128,0,30735:0:0:0:0:
192,192,30735,128,0,30885:0:0:0:0:
64,192,30835,1,0,0:0:0:0:
448,192,30835,128,0,30935:0:0:0:0:
320,192,30885,128,0,31035:0:0:0:0:
192,192,30935,1,0,0:0:0:0:
64,192,30935,128,0,31068:0:0:0:0:
448,192,31035,128,0,31135:0:0:0:0:
320,192,31135,1,0,0:0:0:0:
192,192,31135,128,0,31268:0:0:0:0:
64,192,31235,128,0,31335:0:0:0:0:
448,192,31335,1,0,0:0:0:0:
320,192,31335,128,0,31401:0:0:0:0:
192,192,31368,128,0,31635:0:0:0:0:
448,192,31535,128,0,31668:0:0:0:0:
64,192,31635,1,0,0:0:0:0:
320,192,31635,128,0,31835:0:0:0:0:
192,192,31735,1,0,0:0:0:0:
64,192,31735,128,0,31935:0:0:0:0:
448,192,31835,128,0,32001:0:0:0:0:
192,192,31935,128,0,32035:0:0:0:0:
320,192,32001,128,0,32135:0:0:0:0:
64,192,32068,128,0,32235:0:0:0:0:
192,192,32135,1,0,0:0:0:0:
448,192,32135,128,0,32285:0:0:0:0:
320,192,32185,128,0,32435:0:0:0:0:
192,192,32335,128,0,32485:0:0:0:0:
448,192,32435,1,0,0:0:0:0:
64,192,32435,128,0,32601:0:0:0:0:
320,192,32535,1,0,0:0:0:0:
448,192,32535,128,0,32668:0:0:0:0:
192,192,32635,128,0,32735:0:0:0:0:
320,192,32735,128,0,32835:0:0:0:0:
448,192,32801,128,0,32868:0:0:0:0:
64,192,32868,128,0,32935:0:0:0:0:
320,192,32935,1,0,0:0:0:0:
192,192,32935,128,0,33135:0:0:0:0:
448,192,33135,128,0,33268:0:0:0:0:
64,192,33235,128,0,33335:0:0:0:0:
320,192,33235,1,0,0:0:0:0:
192,192,33268,128,0,33468:0:0:0:0:
448,192,33335,1,0,0:0:0:0:
320,192,33335,128,0,33435:0:0:0:0:
64,192,33435,128,0,33568:0:0:0:0:
192,192,33535,1,0,0:0:0:0:
448,192,33535,128,0,33701:0:0:0:0:
320,192,33635,128,0,33735:0:0:0:0:
192,192,33735,1,0,0:0:0:0:
64,192,33735,128,0,33801:0:0:0:0:
448,192,33768,128,0,33968:0:0:0:0:
320,192,33935,128,0,34035:0:0:0:0:
448,192,34035,1,0,0:0:0:0:
64,192,34035,128,0,34135:0:0:0:0:
192,192,34085,128,0,34235:0:0:0:0:
448,192,34135,1,0,0:0:0:0:
320,192,34135,128,0,34368:0:0:0:0:
64,192,34235,128,0,34335:0:0:0:0:
448,192,34335,128,0,34468:0:0:0:0:
192,192,34435,128,0,34603:0:0:0:0:
320,192,34535,1,0,0:0:0:0:
64,192,34535,128,0,34810:0:0:0:0:
448,192,34741,128,0,34879:0:0:0:0:
192,192,34845,1,0,0:0:0:0:
320,192,34845,128,0,35052:0:0:0:0:
192,192,34948,1,0,0:0:0:0:
64,192,34948,128,0,35155:0:0:0:0:
192,192,35155,1,0,0:0:0:0:
448,192,35155,128,0,35293:0:0:0:0:
64,192,35362,1,0,0:0:0:0:
320,192,35362,128,0,35535:0:0:0:0:
192,192,35466,128,0,35672:0:0:0:0:
448,192,35569,128,0,35845:0:0:0:0:
320,192,35672,1,0,0:0:0:0:
64,192,35672,128,0,35914:0:0:0:0:
192,192,35776,1,0,0:0:0:0:
320,192,35776,128,0,35983:0:0:0:0:
192,192,35879,128,0,35983:0:0:0:0:
448,192,35983,128,0,36190:0:0:0:0:
64,192,35983,128,0,36086:0:0:0:0:
320,192,36086,128,0,36190:0:0:0:0:
64,192,36190,1,0,0:0:0:0:
192,192,36190,128,0,36456:0:0:0:0:
448,192,36390,128,0,36590:0:0:0:0:
320,192,36490,1,0,0:0:0:0:
64,192,36490,128,0,36690:0:0:0:0:
192,192,36590,1,0,0:0:0:0:
320,192,36590,128,0,36790:0:0:0:0:
448,192,36790,1,0,0:0:0:0:
64,192,36790,128,0,36923:0:0:0:0:
320,192,36990,1,0,0:0:0:0:
448,192,36990,128,0,37156:0:0:0:0:
192,192,37090,128,0,37223:0:0:0:0:
320,192,37190,128,0,37323:0:0:0:0:
448,192,37290,1,0,0:0:0:0:
64,192,37290,128,0,37456:0:0:0:0:
192,192,37390,128,0,37523:0:0:0:0:
448,192,37390,1,0,0:0:0:0:
320,192,37490,128,0,37623:0:0:0:0:
64,192,37590,1,0,0:0:0:0:
448,192,37590,128,0,37723:0:0:0:0:
192,192,37690,128,0,37790:0:0:0:0:
320,192,37790,1,0,0:0:0:0:
64,192,37790,128,0,37856:0:0:0:0:
448,192,37823,128,0,38054:0:0:0:0:
320,192,37988,128,0,38121:0:0:0:0:
192,192,38088,1,0,0:0:0:0:
64,192,38088,128,0,38286:0:0:0:0:
448,192,38187,1,0,0:0:0:0:
320,192,38187,128,0,38352:0:0:0:0:
192,192,38286,128,0,38419:0:0:0:0:
64,192,38386,1,0,0:0:0:0:
448,192,38386,128,0,38518:0:0:0:0:
320,192,38452,128,0,38584:0:0:0:0:
64,192,38518,128,0,38617:0:0:0:0:
448,192,38584,1,0,0:0:0:0:
192,192,38584,128,0,38849:0:0:0:0:
320,192,38684,128,0,38783:0:0:0:0:
448,192,38783,128,0,38982:0:0:0:0:
320,192,38882,1,0,0:0:0:0:
64,192,38882,128,0,39081:0:0:0:0:
320,192,38982,1,0,0:0:0:0:
192,192,38982,128,0,39213:0:0:0:0:
320,192,39180,1,0,0:0:0:0:
448,192,39180,128,0,39446:0:0:0:0:
192,192,39379,128,0,39647:0:0:0:0:
64,192,39379,1,0,0:0:0:0:
448,192,39580,128,0,39781:0:0:0:0:
320,192,39681,1,0,0:0:0:0:
64,192,39681,128,0,39882:0:0:0:0:
192,192,39781,1,0,0:0:0:0:
320,192,39781,128,0,39983:0:0:0:0:
64,192,39983,128,0,40117:0:0:0:0:
448,192,39983,1,0,0:0:0:0:
448,192,40184,128,0,40352:0:0:0:0:
320,192,40184,1,0,0:0:0:0:
192,192,40285,128,0,40419:0:0:0:0:
320,192,40385,128,0,40519:0:0:0:0:
64,192,40486,128,0,40654:0:0:0:0:
448,192,40486,1,0,0:0:0:0:
448,192,40587,1,0,0:0:0:0:
192,192,40587,128,0,40721:0:0:0:0:
320,192,40687,128,0,40821:0:0:0:0:
448,192,40788,128,0,40922:0:0:0:0:
64,192,40788,1,0,0:0:0:0:
192,192,40889,128,0,40989:0:0:0:0:
64,192,40989,128,0,41055:0:0:0:0:
320,192,40989,1,0,0:0:0:0:
448,192,41022,128,0,41255:0:0:0:0:
320,192,41189,128,0,41322:0:0:0:0:
64,192,41289,128,0,41489:0:0:0:0:
192,192,41289,1,0,0:0:0:0:
448,192,41389,1,0,0:0:0:0:
320,192,41389,128,0,41555:0:0:0:0:
192,192,41489,128,0,41622:0:0:0:0:
64,192,41589,1,0,0:0:0:0:
448,192,41589,128,0,41722:0:0:0:0:
320,192,41655,128,0,41789:0:0:0:0:
64,192,41722,128,0,41822:0:0:0:0:
192,192,41789,128,0,42055:0:0:0:0:
448,192,41789,1,0,0:0:0:0:
320,192,41889,128,0,41989:0:0:0:0:
448,192,41989,128,0,42189:0:0:0:0:
64,192,42089,128,0,42289:0:0:0:0:
320,192,42089,1,0,0:0:0:0:
320,192,42189,1,0,0:0:0:0:
192,192,42189,128,0,42422:0:0:0:0:
448,192,42389,128,0,42657:0:0:0:0:
320,192,42389,1,0,0:0:0:0:
192,192,42589,128,0,42864:0:0:0:0:
64,192,42589,1,0,0:0:0:0:
448,192,42795,128,0,43002:0:0:0:0:
64,192,42899,128,0,43106:0:0:0:0:
320,192,42899,1,0,0:0:0:0:
320,192,43002,128,0,43209:0:0:0:0:
192,192,43002,1,0,0:0:0:0:
64,192,43209,128,0,43347:0:0:0:0:
448,192,43209,1,0,0:0:0:0:
448,192,43416,128,0,43589:0:0:0:0:
320,192,43416,1,0,0:0:0:0:
192,192,43520,128,0,43657:0:0:0:0:
320,192,43623,128,0,43761:0:0:0:0:
64,192,43726,128,0,43899:0:0:0:0:
448,192,43726,1,0,0:0:0:0:
192,192,43830,128,0,43968:0:0:0:0:
448,192,43830,1,0,0:0:0:0:
320,192,43933,128,0,44071:0:0:0:0:
64,192,44037,1,0,0:0:0:0:
448,192,44037,128,0,44313:0:0:0:0:
192,192,44244,128,0,44520:0:0:0:0:
64,192,44244,1,0,0:0:0:0:
448,192,44451,128,0,44657:0:0:0:0:
64,192,44554,128,0,44761:0:0:0:0:
320,192,44554,1,0,0:0:0:0:
320,192,44657,128,0,44864:0:0:0:0:
192,192,44657,1,0,0:0:0:0:
192,192,44761,1,0,0:0:0:0:
64,192,44864,128,0,45002:0:0:0:0:
448,192,44864,1,0,0:0:0:0:
448,192,45071,128,0,45244:0:0:0:0:
320,192,45071,1,0,0:0:0:0:
192,192,45175,128,0,45313:0:0:0:0:
320,192,45278,128,0,45416:0:0:0:0:
64,192,45382,128,0,45554:0:0:0:0:
448,192,45382,1,0,0:0:0:0:
192,192,45485,128,0,45623:0:0:0:0:
448,192,45485,1,0,0:0:0:0:
320,192,45589,128,0,45726:0:0:0:0:
64,192,45692,1,0,0:0:0:0:
448,192,45692,128,0,45968:0:0:0:0:
192,192,45761,1,0,0:0:0:0:
320,192,45830,1,0,0:0:0:0:
192,192,45899,128,0,46165:0:0:0:0:
64,192,45899,1,0,0:0:0:0:
320,192,45999,1,0,0:0:0:0:
64,192,45999,1,0,0:0:0:0:
448,192,46099,128,0,46299:0:0:0:0:
64,192,46199,128,0,46399:0:0:0:0:
320,192,46199,1,0,0:0:0:0:
320,192,46299,128,0,46499:0:0:0:0:
192,192,46299,1,0,0:0:0:0:
192,192,46432,1,0,0:0:0:0:
64,192,46499,128,0,46632:0:0:0:0:
448,192,46499,1,0,0:0:0:0:
192,192,46599,1,0,0:0:0:0:
448,192,46699,128,0,46865:0:0:0:0:
320,192,46699,1,0,0:0:0:0:
192,192,46799,128,0,46932:0:0:0:0:
320,192,46899,128,0,47032:0:0:0:0:
64,192,46999,128,0,47165:0:0:0:0:
448,192,46999,1,0,0:0:0:0:
448,192,47099,1,0,0:0:0:0:
192,192,47099,128,0,47232:0:0:0:0:
320,192,47199,128,0,47332:0:0:0:0:
448,192,47299,128,0,47567:0:0:0:0:
64,192,47299,1,0,0:0:0:0:
192,192,47365,1,0,0:0:0:0:
320,192,47432,1,0,0:0:0:0:
192,192,47499,128,0,47771:0:0:0:0:
64,192,47499,1,0,0:0:0:0:
448,192,47703,128,0,47907:0:0:0:0:
64,192,47703,1,0,0:0:0:0:
64,192,47805,128,0,48009:0:0:0:0:
320,192,47907,128,0,48111:0:0:0:0:
192,192,47907,1,0,0:0:0:0:
448,192,47975,1,0,0:0:0:0:
192,192,48043,1,0,0:0:0:0:
64,192,48111,128,0,48247:0:0:0:0:
448,192,48111,1,0,0:0:0:0:
192,192,48213,1,0,0:0:0:0:
448,192,48315,128,0,48485:0:0:0:0:
320,192,48315,1,0,0:0:0:0:
64,192,48383,1,0,0:0:0:0:
192,192,48417,128,0,48553:0:0:0:0:
320,192,48519,128,0,48655:0:0:0:0:
64,192,48519,1,0,0:0:0:0:
64,192,48621,128,0,48791:0:0:0:0:
448,192,48621,1,0,0:0:0:0:
192,192,48723,128,0,48859:0:0:0:0:
448,192,48723,1,0,0:0:0:0:
320,192,48825,128,0,48961:0:0:0:0:
448,192,48927,128,0,49063:0:0:0:0:
192,192,49131,5,0,0:0:0:0:
448,192,49131,1,0,0:0:0:0:
448,192,49233,128,0,49335:0:0:0:0:
64,192,49335,1,0,0:0:0:0:
64,192,49437,128,0,49539:0:0:0:0:
192,192,49471,128,0,49539:0:0:0:0:
320,192,49539,1,0,0:0:0:0:
448,192,49539,1,0,0:0:0:0:
320,192,49641,128,0,49743:0:0:0:0:
192,192,49675,128,0,49743:0:0:0:0:
448,192,49743,1,0,0:0:0:0:
64,192,49845,1,0,0:0:0:0:
192,192,49947,1,0,0:0:0:0:
64,192,49947,1,0,0:0:0:0:
320,192,50050,128,0,50152:0:0:0:0:
64,192,50152,1,0,0:0:0:0:
448,192,50254,128,0,50356:0:0:0:0:
192,192,50288,128,0,50356:0:0:0:0:
320,192,50356,1,0,0:0:0:0:
64,192,50356,1,0,0:0:0:0:
64,192,50458,128,0,50560:0:0:0:0:
192,192,50492,128,0,50560:0:0:0:0:
320,192,50560,1,0,0:0:0:0:
448,192,50662,1,0,0:0:0:0:
320,192,50764,1,0,0:0:0:0:
448,192,50764,1,0,0:0:0:0:
192,192,50866,128,0,50968:0:0:0:0:
320,192,50968,1,0,0:0:0:0:
64,192,51070,128,0,51172:0:0:0:0:
448,192,51104,128,0,51172:0:0:0:0:
320,192,51172,1,0,0:0:0:0:
192,192,51172,1,0,0:0:0:0:
192,192,51274,128,0,51376:0:0:0:0:
448,192,51308,128,0,51376:0:0:0:0:
64,192,51376,1,0,0:0:0:0:
320,192,51444,128,0,51546:0:0:0:0:
192,192,51478,1,0,0:0:0:0:
192,192,51580,1,0,0:0:0:0:
64,192,51580,128,0,51682:0:0:0:0:
448,192,51682,1,0,0:0:0:0:
320,192,51784,128,0,51886:0:0:0:0:
192,192,51818,128,0,51886:0:0:0:0:
448,192,51886,128,0,51988:0:0:0:0:
320,192,51988,1,0,0:0:0:0:
64,192,51988,1,0,0:0:0:0:
64,192,52090,128,0,52328:0:0:0:0:
192,192,52192,1,0,0:0:0:0:
320,192,52294,1,0,0:0:0:0:
320,192,52396,1,0,0:0:0:0:
448,192,52396,1,0,0:0:0:0:
448,192,52497,128,0,52598:0:0:0:0:
64,192,52598,1,0,0:0:0:0:
64,192,52700,128,0,52801:0:0:0:0:
192,192,52733,128,0,52801:0:0:0:0:
320,192,52801,1,0,0:0:0:0:
448,192,52801,1,0,0:0:0:0:
320,192,52902,128,0,53004:0:0:0:0:
192,192,52936,128,0,53004:0:0:0:0:
448,192,53004,1,0,0:0:0:0:
64,192,53105,1,0,0:0:0:0:
192,192,53206,1,0,0:0:0:0:
64,192,53206,1,0,0:0:0:0:
320,192,53308,128,0,53409:0:0:0:0:
64,192,53409,1,0,0:0:0:0:
448,192,53510,128,0,53612:0:0:0:0:
192,192,53544,128,0,53612:0:0:0:0:
320,192,53612,1,0,0:0:0:0:
64,192,53612,1,0,0:0:0:0:
64,192,53713,128,0,53814:0:0:0:0:
192,192,53747,128,0,53814:0:0:0:0:
320,192,53814,1,0,0:0:0:0:
448,192,53916,1,0,0:0:0:0:
320,192,54017,1,0,0:0:0:0:
448,192,54017,1,0,0:0:0:0:
192,192,54118,128,0,54219:0:0:0:0:
320,192,54219,1,0,0:0:0:0:
64,192,54320,128,0,54421:0:0:0:0:
448,192,54353,128,0,54421:0:0:0:0:
320,192,54421,1,0,0:0:0:0:
192,192,54421,1,0,0:0:0:0:
192,192,54522,128,0,54623:0:0:0:0:
448,192,54555,128,0,54623:0:0:0:0:
64,192,54623,1,0,0:0:0:0:
320,192,54690,128,0,54791:0:0:0:0:
192,192,54724,1,0,0:0:0:0:
192,192,54825,1,0,0:0:0:0:
64,192,54825,128,0,54926:0:0:0:0:
448,192,54926,1,0,0:0:0:0:
320,192,55027,128,0,55128:0:0:0:0:
192,192,55060,128,0,55128:0:0:0:0:
448,192,55128,128,0,55229:0:0:0:0:
64,192,55229,1,0,0:0:0:0:
320,192,55229,1,0,0:0:0:0:
64,192,55330,128,0,55532:0:0:0:0:
192,192,55431,1,0,0:0:0:0:
320,192,55532,1,0,0:0:0:0:
320,192,55633,1,0,0:0:0:0:
448,192,55633,1,0,0:0:0:0:
448,192,55733,128,0,55834:0:0:0:0:
64,192,55834,1,0,0:0:0:0:
64,192,55935,128,0,56035:0:0:0:0:
192,192,55968,128,0,56035:0:0:0:0:
320,192,56035,1,0,0:0:0:0:
448,192,56035,1,0,0:0:0:0:
320,192,56136,128,0,56237:0:0:0:0:
192,192,56169,128,0,56337:0:0:0:0:
448,192,56237,1,0,0:0:0:0:
64,192,56337,1,0,0:0:0:0:
64,192,56438,1,0,0:0:0:0:
320,192,56438,128,0,56539:0:0:0:0:
448,192,56471,128,0,56706:0:0:0:0:
192,192,56539,1,0,0:0:0:0:
192,192,56639,1,0,0:0:0:0:
64,192,56740,128,0,56908:0:0:0:0:
320,192,56841,1,0,0:0:0:0:
192,192,56841,128,0,56975:0:0:0:0:
448,192,56941,128,0,57008:0:0:0:0:
192,192,57042,128,0,57143:0:0:0:0:
320,192,57075,128,0,57243:0:0:0:0:
192,192,57243,1,0,0:0:0:0:
64,192,57243,128,0,57344:0:0:0:0:
448,192,57277,128,0,57445:0:0:0:0:
320,192,57445,1,0,0:0:0:0:
448,192,57545,128,0,57646:0:0:0:0:
64,192,57579,128,0,57814:0:0:0:0:
192,192,57646,1,0,0:0:0:0:
320,192,57646,1,0,0:0:0:0:
448,192,57747,1,0,0:0:0:0:
320,192,57780,128,0,57914:0:0:0:0:
192,192,57847,128,0,57998:0:0:0:0:
64,192,57948,1,0,0:0:0:0:
448,192,58049,1,0,0:0:0:0:
320,192,58049,128,0,58149:0:0:0:0:
64,192,58082,128,0,58216:0:0:0:0:
448,192,58149,1,0,0:0:0:0:
192,192,58250,128,0,58351:0:0:0:0:
320,192,58351,128,0,58485:0:0:0:0:
192,192,58451,1,0,0:0:0:0:
64,192,58451,1,0,0:0:0:0:
64,192,58552,128,0,58653:0:0:0:0:
448,192,58586,128,0,58753:0:0:0:0:
320,192,58653,1,0,0:0:0:0:
192,192,58753,1,0,0:0:0:0:
192,192,58854,1,0,0:0:0:0:
448,192,58854,1,0,0:0:0:0:
448,192,58955,128,0,59056:0:0:0:0:
64,192,59056,1,0,0:0:0:0:
64,192,59158,128,0,59259:0:0:0:0:
192,192,59191,128,0,59259:0:0:0:0:
448,192,59259,1,0,0:0:0:0:
320,192,59259,1,0,0:0:0:0:
320,192,59360,128,0,59462:0:0:0:0:
192,192,59394,128,0,59563:0:0:0:0:
448,192,59462,1,0,0:0:0:0:
64,192,59563,1,0,0:0:0:0:
320,192,59664,128,0,59766:0:0:0:0:
64,192,59664,1,0,0:0:0:0:
448,192,59698,128,0,59935:0:0:0:0:
192,192,59766,1,0,0:0:0:0:
192,192,59867,1,0,0:0:0:0:
64,192,59968,128,0,60137:0:0:0:0:
192,192,60070,128,0,60205:0:0:0:0:
320,192,60070,1,0,0:0:0:0:
448,192,60171,128,0,60239:0:0:0:0:
192,192,60272,128,0,60374:0:0:0:0:
320,192,60306,128,0,60408:0:0:0:0:
192,192,60475,1,0,0:0:0:0:
64,192,60475,128,0,60575:0:0:0:0:
448,192,60508,128,0,60575:0:0:0:0:
320,192,60676,128,0,60777:0:0:0:0:
448,192,60709,128,0,60777:0:0:0:0:
192,192,60777,128,0,60877:0:0:0:0:
320,192,60877,1,0,0:0:0:0:
64,192,60877,128,0,60978:0:0:0:0:
448,192,60911,128,0,61079:0:0:0:0:
320,192,61011,128,0,61146:0:0:0:0:
192,192,61079,1,0,0:0:0:0:
64,192,61179,128,0,61280:0:0:0:0:
192,192,61213,128,0,61280:0:0:0:0:
320,192,61280,1,0,0:0:0:0:
448,192,61280,128,0,61381:0:0:0:0:
320,192,61381,128,0,61548:0:0:0:0:
64,192,61481,1,0,0:0:0:0:
192,192,61582,128,0,61683:0:0:0:0:
320,192,61683,128,0,61783:0:0:0:0:
448,192,61683,1,0,0:0:0:0:
64,192,61716,128,0,61884:0:0:0:0:
192,192,61884,128,0,61985:0:0:0:0:
448,192,61917,128,0,61985:0:0:0:0:
64,192,61985,1,0,0:0:0:0:
64,192,62085,1,0,0:0:0:0:
192,192,62085,128,0,62186:0:0:0:0:
320,192,62287,128,0,62387:0:0:0:0:
448,192,62387,1,0,0:0:0:0:
320,192,62488,1,0,0:0:0:0:
448,192,62488,128,0,62589:0:0:0:0:
192,192,62521,128,0,62756:0:0:0:0:
64,192,62589,1,0,0:0:0:0:
64,192,62689,128,0,62891:0:0:0:0:
320,192,62790,128,0,62891:0:0:0:0:
192,192,62891,1,0,0:0:0:0:
448,192,62891,128,0,62991:0:0:0:0:
320,192,62991,1,0,0:0:0:0:
192,192,63092,128,0,63193:0:0:0:0:
320,192,63193,1,0,0:0:0:0:
64,192,63293,1,0,0:0:0:0:
320,192,63293,128,0,63394:0:0:0:0:
448,192,63327,128,0,63562:0:0:0:0:
192,192,63394,1,0,0:0:0:0:
192,192,63495,128,0,63696:0:0:0:0:
64,192,63595,128,0,63696:0:0:0:0:
448,192,63696,1,0,0:0:0:0:
320,192,63696,128,0,63796:0:0:0:0:
192,192,63896,128,0,63996:0:0:0:0:
448,192,63996,1,0,0:0:0:0:
448,192,64096,1,0,0:0:0:0:
64,192,64096,128,0,64196:0:0:0:0:
320,192,64129,128,0,64362:0:0:0:0:
192,192,64196,1,0,0:0:0:0:
192,192,64296,128,0,64496:0:0:0:0:
448,192,64396,128,0,64496:0:0:0:0:
320,192,64496,1,0,0:0:0:0:
64,192,64496,128,0,64696:0:0:0:0:
448,192,64596,128,0,64696:0:0:0:0:
320,192,64696,1,0,0:0:0:0:
64,192,64796,1,0,0:0:0:0:
448,192,64896,1,0,0:0:0:0:
320,192,64896,128,0,64996:0:0:0:0:
192,192,64929,128,0,65162:0:0:0:0:
448,192,64996,1,0,0:0:0:0:
64,192,65096,128,0,65296:0:0:0:0:
448,192,65196,128,0,65296:0:0:0:0:
192,192,65296,1,0,0:0:0:0:
320,192,65296,128,0,65396:0:0:0:0:
64,192,65496,128,0,65596:0:0:0:0:
448,192,65596,1,0,0:0:0:0:
448,192,65696,128,0,65796:0:0:0:0:
192,192,65696,1,0,0:0:0:0:
64,192,65729,128,0,65962:0:0:0:0:
320,192,65796,1,0,0:0:0:0:
320,192,65896,128,0,66096:0:0:0:0:
192,192,65996,128,0,66096:0:0:0:0:
448,192,66096,128,0,66196:0:0:0:0:
64,192,66096,1,0,0:0:0:0:
64,192,66196,1,0,0:0:0:0:
192,192,66296,128,0,66396:0:0:0:0:
448,192,66396,1,0,0:0:0:0:
64,192,66496,128,0,66596:0:0:0:0:
192,192,66496,1,0,0:0:0:0:
320,192,66529,128,0,66762:0:0:0:0:
448,192,66596,1,0,0:0:0:0:
448,192,66696,128,0,66896:0:0:0:0:
192,192,66796,128,0,66896:0:0:0:0:
320,192,66896,1,0,0:0:0:0:
64,192,66896,128,0,66994:0:0:0:0:
320,192,67093,128,0,67192:0:0:0:0:
64,192,67192,1,0,0:0:0:0:
64,192,67290,1,0,0:0:0:0:
192,192,67290,128,0,67389:0:0:0:0:
448,192,67323,128,0,67553:0:0:0:0:
320,192,67389,1,0,0:0:0:0:
64,192,67488,128,0,67685:0:0:0:0:
192,192,67586,128,0,67685:0:0:0:0:
448,192,67685,1,0,0:0:0:0:
320,192,67685,128,0,67784:0:0:0:0:
448,192,67784,1,0,0:0:0:0:
64,192,67882,128,0,67981:0:0:0:0:
192,192,67981,1,0,0:0:0:0:
192,192,68080,1,0,0:0:0:0:
448,192,68080,128,0,68178:0:0:0:0:
320,192,68113,128,0,68244:0:0:0:0:
64,192,68228,128,0,68425:0:0:0:0:
320,192,68326,128,0,68425:0:0:0:0:
192,192,68376,128,0,68574:0:0:0:0:
320,192,68474,1,0,0:0:0:0:
448,192,68474,128,0,69324:0:0:0:0:
320,192,68674,128,0,68774:0:0:0:0:
192,192,68874,1,0,0:0:0:0:
320,192,68874,128,0,68974:0:0:0:0:
64,192,68907,128,0,69140:0:0:0:0:
192,192,69074,128,0,69174:0:0:0:0:
320,192,69174,128,0,69274:0:0:0:0:
192,192,69274,128,0,70123:0:0:0:0:
64,192,69274,1,0,0:0:0:0:
320,192,69374,1,0,0:0:0:0:
448,192,69474,128,0,69574:0:0:0:0:
64,192,69574,1,0,0:0:0:0:
64,192,69674,128,0,69874:0:0:0:0:
448,192,69674,1,0,0:0:0:0:
320,192,69874,128,0,69974:0:0:0:0:
448,192,69974,128,0,70074:0:0:0:0:
320,192,70074,128,0,70912:0:0:0:0:
64,192,70074,1,0,0:0:0:0:
64,192,70271,128,0,70370:0:0:0:0:
448,192,70370,1,0,0:0:0:0:
448,192,70468,1,0,0:0:0:0:
192,192,70468,128,0,70666:0:0:0:0:
448,192,70666,128,0,70797:0:0:0:0:
64,192,70863,128,0,71701:0:0:0:0:
192,192,70863,1,0,0:0:0:0:
448,192,70962,1,0,0:0:0:0:
192,192,71060,128,0,71159:0:0:0:0:
320,192,71159,1,0,0:0:0:0:
192,192,71258,1,0,0:0:0:0:
320,192,71258,128,0,71356:0:0:0:0:
448,192,71291,128,0,71521:0:0:0:0:
192,192,71455,128,0,71554:0:0:0:0:
320,192,71554,128,0,71652:0:0:0:0:
192,192,71652,128,0,72496:0:0:0:0:
448,192,71652,1,0,0:0:0:0:
64,192,71850,128,0,71950:0:0:0:0:
320,192,71950,1,0,0:0:0:0:
64,192,72049,1,0,0:0:0:0:
448,192,72049,128,0,72148:0:0:0:0:
320,192,72082,128,0,72314:0:0:0:0:
64,192,72148,1,0,0:0:0:0:
448,192,72248,128,0,72347:0:0:0:0:
64,192,72347,128,0,72446:0:0:0:0:
448,192,72446,128,0,73291:0:0:0:0:
320,192,72446,1,0,0:0:0:0:
64,192,72546,1,0,0:0:0:0:
320,192,72645,128,0,72744:0:0:0:0:
192,192,72744,1,0,0:0:0:0:
64,192,72844,1,0,0:0:0:0:
192,192,72844,128,0,73108:0:0:0:0:
64,192,73042,128,0,73142:0:0:0:0:
320,192,73142,128,0,73241:0:0:0:0:
64,192,73241,128,0,74102:0:0:0:0:
192,192,73241,1,0,0:0:0:0:
448,192,73443,128,0,73545:0:0:0:0:
320,192,73646,1,0,0:0:0:0:
192,192,73646,128,0,73747:0:0:0:0:
448,192,73747,1,0,0:0:0:0:
448,192,73849,128,0,73950:0:0:0:0:
192,192,73950,1,0,0:0:0:0:
320,192,74051,128,0,74710:0:0:0:0:
448,192,74051,1,0,0:0:0:0:
192,192,74153,1,0,0:0:0:0:
448,192,74254,128,0,74355:0:0:0:0:
64,192,74355,1,0,0:0:0:0:
64,192,74457,1,0,0:0:0:0:
192,192,74457,128,0,74558:0:0:0:0:
448,192,74558,1,0,0:0:0:0:
64,192,74659,128,0,74761:0:0:0:0:
192,192,74761,1,0,0:0:0:0:
64,192,74862,5,0,0:0:0:0:
192,192,74862,128,0,75074:0:0:0:0:
448,192,74862,1,0,0:0:0:0:
64,192,75074,1,0,0:0:0:0:
192,192,75180,128,0,75392:0:0:0:0:
448,192,75286,1,0,0:0:0:0:
320,192,75499,128,0,75605:0:0:0:0:
448,192,75711,1,0,0:0:0:0:
320,192,75711,128,0,75817:0:0:0:0:
192,192,75923,1,0,0:0:0:0:
64,192,75994,128,0,76136:0:0:0:0:
320,192,76136,1,0,0:0:0:0:
64,192,76277,128,0,76561:0:0:0:0:
192,192,76348,1,0,0:0:0:0:
192,192,76561,1,0,0:0:0:0:
448,192,76561,128,0,76663:0:0:0:0:
448,192,76766,128,0,76869:0:0:0:0:
64,192,76869,128,0,76971:0:0:0:0:
320,192,76971,1,0,0:0:0:0:
192,192,76971,128,0,77177:0:0:0:0:
64,192,77074,1,0,0:0:0:0:
448,192,77177,128,0,77280:0:0:0:0:
192,192,77280,128,0,77485:0:0:0:0:
448,192,77382,1,0,0:0:0:0:
320,192,77382,1,0,0:0:0:0:
64,192,77485,128,0,77588:0:0:0:0:
192,192,77588,1,0,0:0:0:0:
320,192,77588,128,0,77691:0:0:0:0:
64,192,77691,1,0,0:0:0:0:
448,192,77793,128,0,77896:0:0:0:0:
320,192,77793,128,0,77896:0:0:0:0:
192,192,77896,1,0,0:0:0:0:
320,192,77999,1,0,0:0:0:0:
64,192,77999,128,0,78204:0:0:0:0:
448,192,78102,128,0,78204:0:0:0:0:
192,192,78204,1,0,0:0:0:0:
448,192,78311,1,0,0:0:0:0:
64,192,78311,128,0,78525:0:0:0:0:
320,192,78418,128,0,78525:0:0:0:0:
192,192,78525,1,0,0:0:0:0:
64,192,78632,1,0,0:0:0:0:
448,192,78632,128,0,78739:0:0:0:0:
320,192,78739,1,0,0:0:0:0:
192,192,78846,1,0,0:0:0:0:
448,192,78846,128,0,78954:0:0:0:0:
320,192,78954,1,0,0:0:0:0:
64,192,78954,128,0,79061:0:0:0:0:
192,192,79061,128,0,79208:0:0:0:0:
448,192,79061,128,0,79502:0:0:0:0:
320,192,79391,128,0,79502:0:0:0:0:
192,192,79391,128,0,79502:0:0:0:0:
64,192,79502,128,0,79649:0:0:0:0:
192,192,79612,128,0,79759:0:0:0:0:
448,192,79722,128,0,79869:0:0:0:0:
320,192,79833,128,0,79943:0:0:0:0:
192,192,79943,1,0,0:0:0:0:
448,192,79943,1,0,0:0:0:0:
448,192,80044,1,0,0:0:0:0:
192,192,80044,1,0,0:0:0:0:
64,192,80145,1,0,0:0:0:0:
320,192,80145,1,0,0:0:0:0:
320,192,80246,1,0,0:0:0:0:
64,192,80246,1,0,0:0:0:0:
448,192,80347,128,0,80481:0:0:0:0:
64,192,80448,128,0,80582:0:0:0:0:
320,192,80549,128,0,80683:0:0:0:0:
192,192,80650,128,0,80751:0:0:0:0:
448,192,80751,128,0,80853:0:0:0:0:
64,192,80751,128,0,80956:0:0:0:0:
320,192,80785,128,0,80990:0:0:0:0:
192,192,80819,128,0,81024:0:0:0:0:
448,192,80956,1,0,0:0:0:0:
64,192,81059,1,0,0:0:0:0:
192,192,81161,1,0,0:0:0:0:
448,192,81161,1,0,0:0:0:0:
320,192,81367,1,0,0:0:0:0:
448,192,81470,1,0,0:0:0:0:
64,192,81572,1,0,0:0:0:0:
448,192,81675,1,0,0:0:0:0:
192,192,81778,1,0,0:0:0:0:
320,192,81778,1,0,0:0:0:0:
64,192,81881,1,0,0:0:0:0:
448,192,81983,1,0,0:0:0:0:
320,192,81983,1,0,0:0:0:0:
192,192,82086,1,0,0:0:0:0:
320,192,82086,1,0,0:0:0:0:
64,192,82189,1,0,0:0:0:0:
448,192,82292,1,0,0:0:0:0:
320,192,82292,1,0,0:0:0:0:
448,192,82394,1,0,0:0:0:0:
64,192,82394,1,0,0:0:0:0:
192,192,82497,1,0,0:0:0:0:
448,192,82600,1,0,0:0:0:0:
192,192,82703,1,0,0:0:0:0:
64,192,82703,1,0,0:0:0:0:
320,192,82805,1,0,0:0:0:0:
320,192,82908,1,0,0:0:0:0:
64,192,83011,1,0,0:0:0:0:
320,192,83114,1,0,0:0:0:0:
448,192,83216,1,0,0:0:0:0:
320,192,83317,1,0,0:0:0:0:
192,192,83419,1,0,0:0:0:0:
64,192,83521,1,0,0:0:0:0:
448,192,83622,1,0,0:0:0:0:
192,192,83622,1,0,0:0:0:0:
192,192,83724,1,0,0:0:0:0:
320,192,83724,1,0,0:0:0:0:
448,192,83826,1,0,0:0:0:0:
192,192,83927,1,0,0:0:0:0:
448,192,83978,1,0,0:0:0:0:
192,192,84029,1,0,0:0:0:0:
320,192,84029,1,0,0:0:0:0:
64,192,84131,1,0,0:0:0:0:
320,192,84232,1,0,0:0:0:0:
448,192,84334,1,0,0:0:0:0:
192,192,84334,1,0,0:0:0:0:
320,192,84436,1,0,0:0:0:0:
320,192,84538,1,0,0:0:0:0:
64,192,84639,1,0,0:0:0:0:
320,192,84741,1,0,0:0:0:0:
192,192,84843,1,0,0:0:0:0:
320,192,84944,1,0,0:0:0:0:
64,192,85046,1,0,0:0:0:0:
448,192,85046,1,0,0:0:0:0:
320,192,85148,1,0,0:0:0:0:
192,192,85249,1,0,0:0:0:0:
320,192,85249,1,0,0:0:0:0:
64,192,85351,1,0,0:0:0:0:
192,192,85351,1,0,0:0:0:0:
448,192,85453,1,0,0:0:0:0:
192,192,85554,1,0,0:0:0:0:
64,192,85656,1,0,0:0:0:0:
320,192,85656,1,0,0:0:0:0:
192,192,85756,1,0,0:0:0:0:
320,192,85857,1,0,0:0:0:0:
448,192,85958,1,0,0:0:0:0:
64,192,85958,1,0,0:0:0:0:
192,192,86008,128,0,86159:0:0:0:0:
320,192,86058,128,0,86209:0:0:0:0:
64,192,86159,1,0,0:0:0:0:
192,192,86260,1,0,0:0:0:0:
64,192,86360,1,0,0:0:0:0:
320,192,86461,1,0,0:0:0:0:
448,192,86536,128,0,86713:0:0:0:0:
192,192,86595,128,0,86729:0:0:0:0:
320,192,86662,1,0,0:0:0:0:
64,192,86662,1,0,0:0:0:0:
192,192,86763,1,0,0:0:0:0:
64,192,86813,1,0,0:0:0:0:
320,192,86864,128,0,86964:0:0:0:0:
448,192,86897,128,0,86998:0:0:0:0:
192,192,86964,1,0,0:0:0:0:
320,192,87065,1,0,0:0:0:0:
192,192,87166,1,0,0:0:0:0:
64,192,87266,1,0,0:0:0:0:
448,192,87266,1,0,0:0:0:0:
192,192,87347,128,0,87508:0:0:0:0:
320,192,87468,1,0,0:0:0:0:
448,192,87568,1,0,0:0:0:0:
448,192,87669,1,0,0:0:0:0:
64,192,87669,128,0,87770:0:0:0:0:
320,192,87770,1,0,0:0:0:0:
192,192,87870,1,0,0:0:0:0:
64,192,87971,1,0,0:0:0:0:
448,192,88072,1,0,0:0:0:0:
64,192,88072,1,0,0:0:0:0:
192,192,88172,128,0,88273:0:0:0:0:
320,192,88206,128,0,88307:0:0:0:0:
64,192,88273,1,0,0:0:0:0:
448,192,88273,1,0,0:0:0:0:
192,192,88374,1,0,0:0:0:0:
448,192,88424,128,0,88525:0:0:0:0:
320,192,88450,128,0,88550:0:0:0:0:
64,192,88475,1,0,0:0:0:0:
64,192,88576,1,0,0:0:0:0:
320,192,88677,1,0,0:0:0:0:
192,192,88777,1,0,0:0:0:0:
448,192,88878,1,0,0:0:0:0:
64,192,88878,128,0,89029:0:0:0:0:
320,192,88929,128,0,89080:0:0:0:0:
448,192,89080,1,0,0:0:0:0:
448,192,89181,1,0,0:0:0:0:
64,192,89181,128,0,89282:0:0:0:0:
192,192,89214,128,0,89349:0:0:0:0:
320,192,89282,1,0,0:0:0:0:
64,192,89382,1,0,0:0:0:0:
320,192,89483,128,0,89584:0:0:0:0:
64,192,89508,128,0,89609:0:0:0:0:
192,192,89584,1,0,0:0:0:0:
64,192,89685,1,0,0:0:0:0:
448,192,89685,1,0,0:0:0:0:
320,192,89786,1,0,0:0:0:0:
64,192,89887,1,0,0:0:0:0:
448,192,89887,1,0,0:0:0:0:
192,192,89937,1,0,0:0:0:0:
320,192,89987,1,0,0:0:0:0:
448,192,90038,1,0,0:0:0:0:
192,192,90088,128,0,90139:0:0:0:0:
64,192,90122,128,0,90189:0:0:0:0:
320,192,90189,128,0,90240:0:0:0:0:
192,192,90223,128,0,90290:0:0:0:0:
448,192,90290,128,0,90391:0:0:0:0:
320,192,90315,128,0,90366:0:0:0:0:
64,192,90391,1,0,0:0:0:0:
448,192,90492,1,0,0:0:0:0:
64,192,90492,1,0,0:0:0:0:
192,192,90492,1,0,0:0:0:0:
320,192,90574,128,0,90657:0:0:0:0:
448,192,90629,128,0,90767:0:0:0:0:
64,192,90698,128,0,90836:0:0:0:0:
192,192,90767,128,0,90905:0:0:0:0:
320,192,90836,128,0,90974:0:0:0:0:
64,192,90905,128,0,91043:0:0:0:0:
448,192,90974,128,0,91112:0:0:0:0:
192,192,91043,128,0,91181:0:0:0:0:
320,192,91112,128,0,91250:0:0:0:0:
448,192,91181,1,0,0:0:0:0:
192,192,91250,1,0,0:0:0:0:
448,192,91319,128,0,91526:0:0:0:0:
64,192,91319,128,0,91423:0:0:0:0:
320,192,91319,1,0,0:0:0:0:
320,192,91526,128,0,91629:0:0:0:0:
192,192,91526,1,0,0:0:0:0:
64,192,91629,128,0,91836:0:0:0:0:
192,192,91629,1,0,0:0:0:0:
448,192,91650,128,0,91816:0:0:0:0:
192,192,91836,128,0,91940:0:0:0:0:
320,192,91836,1,0,0:0:0:0:
448,192,91940,128,0,92147:0:0:0:0:
320,192,91940,1,0,0:0:0:0:
64,192,91981,128,0,92147:0:0:0:0:
320,192,92147,128,0,92249:0:0:0:0:
192,192,92147,1,0,0:0:0:0:
64,192,92249,128,0,92453:0:0:0:0:
192,192,92249,1,0,0:0:0:0:
448,192,92283,128,0,92419:0:0:0:0:
192,192,92453,128,0,92555:0:0:0:0:
320,192,92453,1,0,0:0:0:0:
448,192,92555,128,0,92759:0:0:0:0:
320,192,92555,1,0,0:0:0:0:
64,192,92589,128,0,92725:0:0:0:0:
320,192,92759,128,0,92861:0:0:0:0:
192,192,92759,1,0,0:0:0:0:
64,192,92861,128,0,93065:0:0:0:0:
192,192,92861,1,0,0:0:0:0:
448,192,92881,128,0,93044:0:0:0:0:
192,192,93065,128,0,93167:0:0:0:0:
320,192,93065,1,0,0:0:0:0:
448,192,93167,128,0,93269:0:0:0:0:
320,192,93167,1,0,0:0:0:0:
64,192,93208,128,0,93371:0:0:0:0:
192,192,93371,128,0,93473:0:0:0:0:
320,192,93371,128,0,93575:0:0:0:0:
448,192,93473,1,0,0:0:0:0:
192,192,93575,128,0,93677:0:0:0:0:
64,192,93575,128,0,93779:0:0:0:0:
448,192,93677,1,0,0:0:0:0:
320,192,93779,128,0,93881:0:0:0:0:
192,192,93779,128,0,93983:0:0:0:0:
64,192,93983,128,0,94119:0:0:0:0:
320,192,94017,128,0,94085:0:0:0:0:
448,192,94085,1,0,0:0:0:0:
64,192,94187,128,0,94255:0:0:0:0:
320,192,94221,128,0,94357:0:0:0:0:
192,192,94289,1,0,0:0:0:0:
64,192,94391,128,0,94527:0:0:0:0:
320,192,94425,128,0,94493:0:0:0:0:
448,192,94493,1,0,0:0:0:0:
64,192,94595,128,0,94664:0:0:0:0:
320,192,94629,128,0,94766:0:0:0:0:
192,192,94800,128,0,94868:0:0:0:0:
64,192,94834,128,0,95004:0:0:0:0:
192,192,95004,128,0,95106:0:0:0:0:
320,192,95038,128,0,95208:0:0:0:0:
64,192,95106,1,0,0:0:0:0:
448,192,95208,1,0,0:0:0:0:
320,192,95310,128,0,95412:0:0:0:0:
64,192,95344,128,0,95514:0:0:0:0:
192,192,95412,1,0,0:0:0:0:
320,192,95514,1,0,0:0:0:0:
64,192,95617,1,0,0:0:0:0:
448,192,95617,128,0,95822:0:0:0:0:
192,192,95754,128,0,95959:0:0:0:0:
64,192,95822,128,0,95925:0:0:0:0:
320,192,95822,1,0,0:0:0:0:
320,192,95959,128,0,96165:0:0:0:0:
448,192,96028,128,0,96131:0:0:0:0:
64,192,96028,1,0,0:0:0:0:
192,192,96165,128,0,96370:0:0:0:0:
448,192,96233,128,0,96336:0:0:0:0:
320,192,96233,1,0,0:0:0:0:
320,192,96336,1,0,0:0:0:0:
192,192,96439,1,0,0:0:0:0:
448,192,96439,128,0,96644:0:0:0:0:
64,192,96542,1,0,0:0:0:0:
320,192,96542,128,0,96644:0:0:0:0:
192,192,96644,128,0,96850:0:0:0:0:
64,192,96644,1,0,0:0:0:0:
320,192,96781,128,0,96987:0:0:0:0:
64,192,96850,128,0,96953:0:0:0:0:
448,192,96850,1,0,0:0:0:0:
192,192,97055,128,0,97257:0:0:0:0:
64,192,97055,1,0,0:0:0:0:
320,192,97190,128,0,97392:0:0:0:0:
448,192,97257,1,0,0:0:0:0:
64,192,97257,128,0,97359:0:0:0:0:
448,192,97460,128,0,97663:0:0:0:0:
192,192,97595,128,0,97798:0:0:0:0:
64,192,97663,1,0,0:0:0:0:
320,192,97663,128,0,97764:0:0:0:0:
64,192,97815,128,0,97916:0:0:0:0:
448,192,97865,1,0,0:0:0:0:
320,192,97865,128,0,98068:0:0:0:0:
192,192,98068,128,0,98169:0:0:0:0:
64,192,98068,128,0,98271:0:0:0:0:
448,192,98271,1,0,0:0:0:0:
192,192,98271,128,0,98372:0:0:0:0:
320,192,98372,128,0,98473:0:0:0:0:
320,192,98575,128,0,98779:0:0:0:0:
448,192,98595,128,0,98758:0:0:0:0:
192,192,98676,1,0,0:0:0:0:
64,192,98676,1,0,0:0:0:0:
192,192,98779,128,0,98882:0:0:0:0:
64,192,98882,128,0,99088:0:0:0:0:
448,192,98882,128,0,98985:0:0:0:0:
320,192,99088,1,0,0:0:0:0:
448,192,99088,128,0,99191:0:0:0:0:
64,192,99191,128,0,99294:0:0:0:0:
320,192,99294,128,0,99500:0:0:0:0:
448,192,99500,1,0,0:0:0:0:
192,192,99500,128,0,99706:0:0:0:0:
448,192,99706,128,0,99913:0:0:0:0:
320,192,99748,128,0,100078:0:0:0:0:
192,192,99913,1,0,0:0:0:0:
64,192,99913,1,0,0:0:0:0:
64,192,100084,128,0,100188:0:0:0:0:
448,192,100119,128,0,100325:0:0:0:0:
320,192,100325,1,0,0:0:0:0:
192,192,100325,128,0,100529:0:0:0:0:
64,192,100427,1,0,0:0:0:0:
448,192,100529,1,0,0:0:0:0:
320,192,100529,128,0,100733:0:0:0:0:
64,192,100665,1,0,0:0:0:0:
448,192,100733,1,0,0:0:0:0:
192,192,100733,128,0,100937:0:0:0:0:
448,192,100937,128,0,101141:0:0:0:0:
64,192,100971,128,0,101073:0:0:0:0:
320,192,101039,1,0,0:0:0:0:
320,192,101141,1,0,0:0:0:0:
192,192,101141,128,0,101345:0:0:0:0:
64,192,101243,1,0,0:0:0:0:
320,192,101345,128,0,101549:0:0:0:0:
448,192,101481,128,0,101617:0:0:0:0:
64,192,101549,1,0,0:0:0:0:
192,192,101549,128,0,101753:0:0:0:0:
448,192,101753,128,0,101957:0:0:0:0:
64,192,101787,128,0,101889:0:0:0:0:
192,192,101876,128,0,102120:0:0:0:0:
320,192,101957,1,0,0:0:0:0:
448,192,102059,1,0,0:0:0:0:
320,192,102161,128,0,102263:0:0:0:0:
64,192,102161,128,0,102365:0:0:0:0:
192,192,102365,128,0,102467:0:0:0:0:
448,192,102365,128,0,102569:0:0:0:0:
320,192,102467,1,0,0:0:0:0:
192,192,102569,128,0,102671:0:0:0:0:
64,192,102569,128,0,102773:0:0:0:0:
448,192,102773,1,0,0:0:0:0:
320,192,102773,128,0,103029:0:0:0:0:
192,192,102825,128,0,102978:0:0:0:0:
448,192,102978,128,0,103182:0:0:0:0:
192,192,103080,128,0,103335:0:0:0:0:
320,192,103131,128,0,103284:0:0:0:0:
64,192,103182,1,0,0:0:0:0:
64,192,103284,128,0,103488:0:0:0:0:
320,192,103386,128,0,103641:0:0:0:0:
192,192,103437,128,0,103590:0:0:0:0:
448,192,103488,1,0,0:0:0:0:
448,192,103590,128,0,103692:0:0:0:0:
192,192,103692,128,0,103949:0:0:0:0:
320,192,103744,128,0,103898:0:0:0:0:
448,192,103795,1,0,0:0:0:0:
64,192,103795,1,0,0:0:0:0:
64,192,103898,128,0,104103:0:0:0:0:
320,192,104000,128,0,104257:0:0:0:0:
192,192,104052,128,0,104206:0:0:0:0:
448,192,104206,128,0,104411:0:0:0:0:
192,192,104309,128,0,104566:0:0:0:0:
64,192,104309,1,0,0:0:0:0:
320,192,104411,128,0,104514:0:0:0:0:
64,192,104514,128,0,104720:0:0:0:0:
320,192,104617,128,0,104874:0:0:0:0:
448,192,104617,1,0,0:0:0:0:
192,192,104720,128,0,104822:0:0:0:0:
448,192,104822,128,0,105028:0:0:0:0:
192,192,104925,128,0,105182:0:0:0:0:
320,192,105028,128,0,105131:0:0:0:0:
64,192,105131,128,0,105336:0:0:0:0:
320,192,105233,128,0,105490:0:0:0:0:
448,192,105233,1,0,0:0:0:0:
192,192,105336,128,0,105439:0:0:0:0:
448,192,105439,128,0,105644:0:0:0:0:
64,192,105439,1,0,0:0:0:0:
192,192,105542,128,0,105798:0:0:0:0:
320,192,105644,128,0,105747:0:0:0:0:
64,192,105747,128,0,105953:0:0:0:0:
448,192,105747,1,0,0:0:0:0:
320,192,105850,128,0,106107:0:0:0:0:
192,192,105953,128,0,106055:0:0:0:0:
448,192,106055,128,0,106261:0:0:0:0:
64,192,106055,1,0,0:0:0:0:
192,192,106158,128,0,106415:0:0:0:0:
320,192,106261,128,0,106363:0:0:0:0:
64,192,106363,128,0,106569:0:0:0:0:
448,192,106363,1,0,0:0:0:0:
320,192,106466,128,0,106723:0:0:0:0:
192,192,106569,128,0,106672:0:0:0:0:
448,192,106672,128,0,106877:0:0:0:0:
64,192,106672,1,0,0:0:0:0:
192,192,106774,128,0,107030:0:0:0:0:
320,192,106877,128,0,106979:0:0:0:0:
64,192,106979,128,0,107183:0:0:0:0:
448,192,106979,1,0,0:0:0:0:
320,192,107081,128,0,107336:0:0:0:0:
192,192,107183,128,0,107285:0:0:0:0:
448,192,107285,128,0,107489:0:0:0:0:
64,192,107285,1,0,0:0:0:0:
192,192,107387,128,0,107642:0:0:0:0:
320,192,107489,128,0,107591:0:0:0:0:
64,192,107591,128,0,107795:0:0:0:0:
448,192,107591,1,0,0:0:0:0:
320,192,107693,128,0,107948:0:0:0:0:
192,192,107795,128,0,107897:0:0:0:0:
448,192,107897,128,0,108101:0:0:0:0:
64,192,107897,1,0,0:0:0:0:
192,192,107999,128,0,108254:0:0:0:0:
320,192,108101,128,0,108203:0:0:0:0:
64,192,108203,128,0,108407:0:0:0:0:
448,192,108203,1,0,0:0:0:0:
320,192,108305,128,0,108560:0:0:0:0:
192,192,108407,128,0,108509:0:0:0:0:
448,192,108509,128,0,108714:0:0:0:0:
64,192,108509,1,0,0:0:0:0:
192,192,108611,128,0,108868:0:0:0:0:
320,192,108714,128,0,108817:0:0:0:0:
64,192,108817,128,0,109022:0:0:0:0:
448,192,108817,1,0,0:0:0:0:
320,192,108919,128,0,109176:0:0:0:0:
192,192,109022,128,0,109125:0:0:0:0:
448,192,109125,128,0,109330:0:0:0:0:
64,192,109125,1,0,0:0:0:0:
192,192,109228,128,0,109485:0:0:0:0:
320,192,109330,128,0,109433:0:0:0:0:
64,192,109433,128,0,109639:0:0:0:0:
448,192,109433,1,0,0:0:0:0:
320,192,109536,128,0,109793:0:0:0:0:
192,192,109639,128,0,109741:0:0:0:0:
64,192,109741,1,0,0:0:0:0:
448,192,109741,128,0,109947:0:0:0:0:
192,192,109844,128,0,110101:0:0:0:0:
320,192,109947,128,0,110050:0:0:0:0:
64,192,110050,128,0,110254:0:0:0:0:
448,192,110050,1,0,0:0:0:0:
320,192,110152,128,0,110407:0:0:0:0:
192,192,110203,128,0,110356:0:0:0:0:
64,192,110356,1,0,0:0:0:0:
448,192,110356,128,0,110560:0:0:0:0:
192,192,110458,128,0,110713:0:0:0:0:
320,192,110509,128,0,110662:0:0:0:0:
448,192,110662,1,0,0:0:0:0:
64,192,110662,128,0,110866:0:0:0:0:
320,192,110764,128,0,111019:0:0:0:0:
192,192,110866,128,0,110968:0:0:0:0:
64,192,110968,1,0,0:0:0:0:
448,192,110968,128,0,111172:0:0:0:0:
64,192,111070,1,0,0:0:0:0:
192,192,111070,128,0,111325:0:0:0:0:
320,192,111172,128,0,111274:0:0:0:0:
448,192,111274,1,0,0:0:0:0:
64,192,111274,128,0,111478:0:0:0:0:
448,192,111376,1,0,0:0:0:0:
320,192,111376,128,0,111631:0:0:0:0:
192,192,111427,128,0,111580:0:0:0:0:
64,192,111580,1,0,0:0:0:0:
448,192,111580,128,0,111784:0:0:0:0:
192,192,111682,128,0,111937:0:0:0:0:
320,192,111733,128,0,111886:0:0:0:0:
448,192,111886,1,0,0:0:0:0:
64,192,111886,128,0,112090:0:0:0:0:
320,192,111988,128,0,112243:0:0:0:0:
192,192,112090,128,0,112192:0:0:0:0:
64,192,112192,1,0,0:0:0:0:
448,192,112192,128,0,112396:0:0:0:0:
192,192,112294,128,0,112549:0:0:0:0:
320,192,112396,128,0,112498:0:0:0:0:
448,192,112498,1,0,0:0:0:0:
64,192,112498,128,0,112703:0:0:0:0:
320,192,112600,128,0,112703:0:0:0:0:
192,192,112703,128,0,112907:0:0:0:0:
64,192,112805,128,0,112907:0:0:0:0:
448,192,112805,1,0,0:0:0:0:
320,192,112839,128,0,112975:0:0:0:0:
448,192,112927,128,0,113009:0:0:0:0:
64,192,113009,128,0,113213:0:0:0:0:
320,192,113111,1,0,0:0:0:0:
192,192,113111,1,0,0:0:0:0:
448,192,113213,128,0,113417:0:0:0:0:
64,192,113315,1,0,0:0:0:0:
320,192,113417,128,0,113619:0:0:0:0:
64,192,113450,1,0,0:0:0:0:
192,192,113467,128,0,113568:0:0:0:0:
448,192,113619,1,0,0:0:0:0:
64,192,113619,128,0,113821:0:0:0:0:
320,192,113720,1,0,0:0:0:0:
448,192,113753,1,0,0:0:0:0:
192,192,113821,128,0,113955:0:0:0:0:
320,192,113854,1,0,0:0:0:0:
192,192,114023,128,0,114225:0:0:0:0:
64,192,114056,1,0,0:0:0:0:
448,192,114090,128,0,114157:0:0:0:0:
320,192,114225,1,0,0:0:0:0:
64,192,114225,128,0,114376:0:0:0:0:
448,192,114427,1,0,0:0:0:0:
64,192,114427,128,0,114528:0:0:0:0:
192,192,114528,128,0,114629:0:0:0:0:
320,192,114629,128,0,114831:0:0:0:0:
64,192,114679,1,0,0:0:0:0:
192,192,114831,128,0,114982:0:0:0:0:
448,192,114932,1,0,0:0:0:0:
320,192,114965,1,0,0:0:0:0:
64,192,115033,1,0,0:0:0:0:
192,192,115033,128,0,115135:0:0:0:0:
320,192,115135,128,0,115237:0:0:0:0:
64,192,115237,1,0,0:0:0:0:
448,192,115237,128,0,115543:0:0:0:0:
64,192,115543,1,0,0:0:0:0:
192,192,115543,128,0,115645:0:0:0:0:
448,192,115645,128,0,115849:0:0:0:0:
192,192,115781,1,0,0:0:0:0:
64,192,115849,1,0,0:0:0:0:
320,192,115849,128,0,116053:0:0:0:0:
64,192,115985,1,0,0:0:0:0:
192,192,116053,128,0,116155:0:0:0:0:
320,192,116121,1,0,0:0:0:0:
448,192,116155,128,0,116359:0:0:0:0:
320,192,116257,1,0,0:0:0:0:
192,192,116325,128,0,116529:0:0:0:0:
64,192,116461,1,0,0:0:0:0:
320,192,116512,1,0,0:0:0:0:
320,192,116614,128,0,116869:0:0:0:0:
192,192,116665,1,0,0:0:0:0:
448,192,116869,128,0,117073:0:0:0:0:
64,192,116869,128,0,116971:0:0:0:0:
64,192,117073,128,0,117175:0:0:0:0:
320,192,117073,128,0,117277:0:0:0:0:
448,192,117277,128,0,117379:0:0:0:0:
64,192,117277,1,0,0:0:0:0:
64,192,117379,128,0,117481:0:0:0:0:
320,192,117379,128,0,117584:0:0:0:0:
192,192,117481,1,0,0:0:0:0:
64,192,117584,128,0,117686:0:0:0:0:
448,192,117584,1,0,0:0:0:0:
192,192,117686,128,0,117788:0:0:0:0:
320,192,117686,128,0,117890:0:0:0:0:
64,192,117890,128,0,117992:0:0:0:0:
448,192,117890,1,0,0:0:0:0:
448,192,117992,128,0,118094:0:0:0:0:
192,192,117992,128,0,118196:0:0:0:0:
448,192,118196,128,0,118298:0:0:0:0:
64,192,118196,1,0,0:0:0:0:
320,192,118298,128,0,118400:0:0:0:0:
192,192,118298,128,0,118502:0:0:0:0:
448,192,118502,128,0,118604:0:0:0:0:
64,192,118502,1,0,0:0:0:0:
64,192,118604,128,0,118706:0:0:0:0:
320,192,118604,128,0,118808:0:0:0:0:
192,192,118706,1,0,0:0:0:0:
448,192,118808,128,0,118910:0:0:0:0:
64,192,118808,1,0,0:0:0:0:
64,192,118910,128,0,119012:0:0:0:0:
192,192,118910,128,0,119114:0:0:0:0:
448,192,119114,128,0,119216:0:0:0:0:
64,192,119114,1,0,0:0:0:0:
64,192,119216,128,0,119318:0:0:0:0:
320,192,119216,128,0,119420:0:0:0:0:
64,192,119420,128,0,119522:0:0:0:0:
448,192,119420,1,0,0:0:0:0:
192,192,119522,128,0,119624:0:0:0:0:
320,192,119522,128,0,119726:0:0:0:0:
64,192,119726,128,0,119828:0:0:0:0:
448,192,119726,1,0,0:0:0:0:
448,192,119828,128,0,119930:0:0:0:0:
192,192,119828,128,0,120033:0:0:0:0:
320,192,119930,1,0,0:0:0:0:
448,192,120033,128,0,120135:0:0:0:0:
64,192,120033,1,0,0:0:0:0:
320,192,120135,128,0,120237:0:0:0:0:
192,192,120135,128,0,120339:0:0:0:0:
64,192,120339,128,0,120441:0:0:0:0:
448,192,120339,1,0,0:0:0:0:
448,192,120441,128,0,120543:0:0:0:0:
192,192,120441,128,0,120645:0:0:0:0:
64,192,120645,128,0,120747:0:0:0:0:
448,192,120645,1,0,0:0:0:0:
448,192,120747,128,0,120849:0:0:0:0:
320,192,120747,128,0,120951:0:0:0:0:
64,192,120951,128,0,121053:0:0:0:0:
448,192,120951,1,0,0:0:0:0:
448,192,121053,128,0,121155:0:0:0:0:
192,192,121053,128,0,121257:0:0:0:0:
320,192,121155,1,0,0:0:0:0:
448,192,121257,128,0,121359:0:0:0:0:
64,192,121257,1,0,0:0:0:0:
192,192,121359,128,0,121461:0:0:0:0:
320,192,121359,128,0,121562:0:0:0:0:
448,192,121562,128,0,121665:0:0:0:0:
64,192,121562,1,0,0:0:0:0:
64,192,121665,128,0,121768:0:0:0:0:
320,192,121665,128,0,121872:0:0:0:0:
448,192,121872,128,0,121975:0:0:0:0:
64,192,121872,1,0,0:0:0:0:
64,192,121975,128,0,122079:0:0:0:0:
192,192,121975,128,0,122182:0:0:0:0:
448,192,122182,128,0,122286:0:0:0:0:
64,192,122182,1,0,0:0:0:0:
64,192,122286,128,0,122389:0:0:0:0:
320,192,122286,128,0,122389:0:0:0:0:
192,192,122389,1,0,0:0:0:0:
320,192,122493,128,0,122544:0:0:0:0:
64,192,122493,128,0,122544:0:0:0:0:
64,192,122596,128,0,122803:0:0:0:0:
320,192,122596,128,0,122699:0:0:0:0:
320,192,122803,128,0,122855:0:0:0:0:
192,192,122803,128,0,122855:0:0:0:0:
192,192,122906,128,0,123010:0:0:0:0:
320,192,122906,128,0,123113:0:0:0:0:
64,192,123079,1,0,0:0:0:0:
192,192,123113,128,0,123165:0:0:0:0:
448,192,123113,128,0,123165:0:0:0:0:
192,192,123217,128,0,123320:0:0:0:0:
448,192,123217,128,0,123423:0:0:0:0:
192,192,123423,128,0,123475:0:0:0:0:
320,192,123423,128,0,123475:0:0:0:0:
320,192,123527,128,0,123630:0:0:0:0:
192,192,123527,128,0,123734:0:0:0:0:
448,192,123630,1,0,0:0:0:0:
64,192,123734,128,0,123785:0:0:0:0:
320,192,123734,128,0,123785:0:0:0:0:
64,192,123837,128,0,123941:0:0:0:0:
320,192,123837,128,0,124044:0:0:0:0:
448,192,124044,128,0,124148:0:0:0:0:
64,192,124044,1,0,0:0:0:0:
320,192,124148,128,0,124251:0:0:0:0:
192,192,124148,128,0,124354:0:0:0:0:
64,192,124354,128,0,124458:0:0:0:0:
448,192,124354,1,0,0:0:0:0:
448,192,124458,128,0,124561:0:0:0:0:
192,192,124458,128,0,124665:0:0:0:0:
64,192,124665,128,0,124768:0:0:0:0:
448,192,124665,1,0,0:0:0:0:
448,192,124768,128,0,124872:0:0:0:0:
320,192,124768,128,0,124975:0:0:0:0:
192,192,124872,1,0,0:0:0:0:
64,192,124975,128,0,125079:0:0:0:0:
448,192,124975,1,0,0:0:0:0:
448,192,125079,128,0,125182:0:0:0:0:
192,192,125079,128,0,125285:0:0:0:0:
64,192,125285,128,0,125389:0:0:0:0:
320,192,125285,1,0,0:0:0:0:
320,192,125389,128,0,125544:0:0:0:0:
448,192,125389,128,0,125492:0:0:0:0:
64,192,125596,128,0,125699:0:0:0:0:
192,192,125596,1,0,0:0:0:0:
448,192,125622,128,0,125751:0:0:0:0:
192,192,125699,128,0,125803:0:0:0:0:
320,192,125699,128,0,125906:0:0:0:0:
64,192,125906,128,0,126010:0:0:0:0:
448,192,125906,1,0,0:0:0:0:
192,192,125932,128,0,126061:0:0:0:0:
320,192,126010,128,0,126165:0:0:0:0:
448,192,126010,128,0,126113:0:0:0:0:
64,192,126113,1,0,0:0:0:0:
320,192,126217,128,0,126320:0:0:0:0:
192,192,126217,1,0,0:0:0:0:
448,192,126242,128,0,126372:0:0:0:0:
192,192,126320,128,0,126423:0:0:0:0:
64,192,126320,128,0,126527:0:0:0:0:
448,192,126527,128,0,126631:0:0:0:0:
320,192,126527,1,0,0:0:0:0:
192,192,126553,128,0,126684:0:0:0:0:
64,192,126631,128,0,126736:0:0:0:0:
320,192,126631,128,0,126841:0:0:0:0:
448,192,126841,128,0,126946:0:0:0:0:
192,192,126841,128,0,126946:0:0:0:0:
64,192,126841,1,0,0:0:0:0:
64,192,126946,128,0,127103:0:0:0:0:
320,192,126946,128,0,127051:0:0:0:0:
192,192,127156,128,0,127261:0:0:0:0:
320,192,127156,1,0,0:0:0:0:
64,192,127182,128,0,127313:0:0:0:0:
448,192,127261,128,0,127366:0:0:0:0:
320,192,127261,128,0,127471:0:0:0:0:
64,192,127366,1,0,0:0:0:0:
64,192,127471,128,0,127575:0:0:0:0:
192,192,127471,1,0,0:0:0:0:
448,192,127497,128,0,127628:0:0:0:0:
320,192,127575,128,0,127680:0:0:0:0:
192,192,127575,128,0,127785:0:0:0:0:
320,192,127785,128,0,127890:0:0:0:0:
448,192,127785,128,0,127890:0:0:0:0:
64,192,127785,1,0,0:0:0:0:
192,192,127890,128,0,127995:0:0:0:0:
64,192,127890,128,0,128100:0:0:0:0:
448,192,127995,1,0,0:0:0:0:
192,192,128100,128,0,128205:0:0:0:0:
320,192,128100,1,0,0:0:0:0:
320,192,128205,128,0,128308:0:0:0:0:
448,192,128205,128,0,128411:0:0:0:0:
320,192,128411,128,0,128515:0:0:0:0:
64,192,128411,1,0,0:0:0:0:
64,192,128515,128,0,128618:0:0:0:0:
192,192,128515,128,0,128722:0:0:0:0:
448,192,128618,1,0,0:0:0:0:
320,192,128722,1,0,0:0:0:0:
448,192,128773,1,0,0:0:0:0:
64,192,128825,128,0,128929:0:0:0:0:
192,192,128825,128,0,129032:0:0:0:0:
448,192,128929,1,0,0:0:0:0:
320,192,128980,1,0,0:0:0:0:
448,192,129032,128,0,129136:0:0:0:0:
64,192,129032,128,0,129239:0:0:0:0:
192,192,129136,1,0,0:0:0:0:
448,192,129239,128,0,129342:0:0:0:0:
320,192,129239,128,0,129446:0:0:0:0:
192,192,129342,1,0,0:0:0:0:
448,192,129446,128,0,129630:0:0:0:0:
320,192,129492,128,0,129584:0:0:0:0:
192,192,129538,128,0,129630:0:0:0:0:
64,192,129584,128,0,129768:0:0:0:0:
320,192,129630,128,0,129768:0:0:0:0:
192,192,129676,128,0,129814:0:0:0:0:
448,192,129756,128,0,130386:0:0:0:0:
64,192,129860,5,0,0:0:0:0:
192,192,129860,1,0,0:0:0:0:
320,192,130156,1,0,0:0:0:0:
192,192,130156,1,0,0:0:0:0:
64,192,130156,1,0,0:0:0:0:
64,192,130452,1,0,0:0:0:0:
192,192,130649,1,0,0:0:0:0:
448,192,130649,1,0,0:0:0:0:
320,192,130748,1,0,0:0:0:0:
64,192,130748,1,0,0:0:0:0:
64,192,130846,1,0,0:0:0:0:
448,192,130846,1,0,0:0:0:0:
320,192,130945,1,0,0:0:0:0:
192,192,130945,1,0,0:0:0:0:
320,192,131044,1,0,0:0:0:0:
448,192,131044,1,0,0:0:0:0:
64,192,131110,1,0,0:0:0:0:
192,192,131175,1,0,0:0:0:0:
320,192,131241,1,0,0:0:0:0:
64,192,131290,1,0,0:0:0:0:
448,192,131340,1,0,0:0:0:0:
192,192,131389,1,0,0:0:0:0:
64,192,131438,1,0,0:0:0:0:
320,192,131438,1,0,0:0:0:0:
64,192,131537,1,0,0:0:0:0:
320,192,131537,1,0,0:0:0:0:
448,192,131636,1,0,0:0:0:0:
192,192,131735,1,0,0:0:0:0:
64,192,131735,1,0,0:0:0:0:
320,192,131833,1,0,0:0:0:0:
320,192,131932,1,0,0:0:0:0:
448,192,132031,1,0,0:0:0:0:
64,192,132031,1,0,0:0:0:0:
192,192,132129,1,0,0:0:0:0:
192,192,132228,1,0,0:0:0:0:
448,192,132277,1,0,0:0:0:0:
320,192,132327,1,0,0:0:0:0:
64,192,132376,1,0,0:0:0:0:
448,192,132425,1,0,0:0:0:0:
192,192,132425,1,0,0:0:0:0:
448,192,132524,1,0,0:0:0:0:
192,192,132524,1,0,0:0:0:0:
320,192,132623,1,0,0:0:0:0:
64,192,132623,1,0,0:0:0:0:
64,192,132721,1,0,0:0:0:0:
320,192,132721,1,0,0:0:0:0:
192,192,132820,1,0,0:0:0:0:
320,192,133017,1,0,0:0:0:0:
448,192,133017,1,0,0:0:0:0:
192,192,133017,128,0,133317:0:0:0:0:
448,192,133117,1,0,0:0:0:0:
320,192,133217,1,0,0:0:0:0:
448,192,133317,1,0,0:0:0:0:
64,192,133317,128,0,133517:0:0:0:0:
192,192,133483,1,0,0:0:0:0:
320,192,133567,1,0,0:0:0:0:
448,192,133617,1,0,0:0:0:0:
192,192,133617,1,0,0:0:0:0:
64,192,133717,1,0,0:0:0:0:
64,192,133817,1,0,0:0:0:0:
320,192,133917,1,0,0:0:0:0:
192,192,134117,1,0,0:0:0:0:
448,192,134117,1,0,0:0:0:0:
320,192,134217,1,0,0:0:0:0:
448,192,134217,1,0,0:0:0:0:
320,192,134417,1,0,0:0:0:0:
448,192,134417,1,0,0:0:0:0:
320,192,134617,1,0,0:0:0:0:
64,192,134617,1,0,0:0:0:0:
320,192,134818,1,0,0:0:0:0:
192,192,134868,1,0,0:0:0:0:
64,192,134919,1,0,0:0:0:0:
320,192,134969,1,0,0:0:0:0:
192,192,135019,1,0,0:0:0:0:
448,192,135019,1,0,0:0:0:0:
192,192,135120,1,0,0:0:0:0:
448,192,135120,1,0,0:0:0:0:
320,192,135221,1,0,0:0:0:0:
64,192,135221,1,0,0:0:0:0:
192,192,135321,1,0,0:0:0:0:
64,192,135321,1,0,0:0:0:0:
448,192,135422,1,0,0:0:0:0:
320,192,135523,1,0,0:0:0:0:
64,192,135523,1,0,0:0:0:0:
192,192,135590,1,0,0:0:0:0:
64,192,135690,1,0,0:0:0:0:
448,192,135690,1,0,0:0:0:0:
192,192,135791,1,0,0:0:0:0:
448,192,135791,1,0,0:0:0:0:
320,192,135892,1,0,0:0:0:0:
64,192,135892,1,0,0:0:0:0:
192,192,135959,1,0,0:0:0:0:
64,192,136026,1,0,0:0:0:0:
448,192,136026,1,0,0:0:0:0:
192,192,136127,1,0,0:0:0:0:
448,192,136127,1,0,0:0:0:0:
320,192,136227,1,0,0:0:0:0:
192,192,136227,128,0,136433:0:0:0:0:
64,192,136330,1,0,0:0:0:0:
320,192,136433,1,0,0:0:0:0:
192,192,136537,1,0,0:0:0:0:
320,192,136537,128,0,136744:0:0:0:0:
192,192,136709,1,0,0:0:0:0:
448,192,136709,1,0,0:0:0:0:
64,192,136778,1,0,0:0:0:0:
448,192,136847,1,0,0:0:0:0:
192,192,136916,1,0,0:0:0:0:
64,192,136916,1,0,0:0:0:0:
320,192,137020,1,0,0:0:0:0:
192,192,137123,1,0,0:0:0:0:
448,192,137123,1,0,0:0:0:0:
64,192,137235,1,0,0:0:0:0:
192,192,137235,1,0,0:0:0:0:
448,192,137313,1,0,0:0:0:0:
64,192,137313,1,0,0:0:0:0:
320,192,137416,1,0,0:0:0:0:
192,192,137416,1,0,0:0:0:0:
320,192,137537,1,0,0:0:0:0:
192,192,137606,1,0,0:0:0:0:
320,192,137675,1,0,0:0:0:0:
64,192,137727,1,0,0:0:0:0:
192,192,137778,1,0,0:0:0:0:
448,192,137778,1,0,0:0:0:0:
64,192,137882,1,0,0:0:0:0:
448,192,137882,1,0,0:0:0:0:
64,192,138042,1,0,0:0:0:0:
192,192,138122,1,0,0:0:0:0:
320,192,138122,1,0,0:0:0:0:
320,192,138202,1,0,0:0:0:0:
448,192,138202,1,0,0:0:0:0:
448,192,138394,1,0,0:0:0:0:
64,192,138458,1,0,0:0:0:0:
192,192,138523,1,0,0:0:0:0:
320,192,138603,1,0,0:0:0:0:
64,192,138603,1,0,0:0:0:0:
192,192,138699,1,0,0:0:0:0:
448,192,138699,1,0,0:0:0:0:
192,192,138811,1,0,0:0:0:0:
320,192,138811,1,0,0:0:0:0:
320,192,138907,1,0,0:0:0:0:
448,192,138907,1,0,0:0:0:0:
192,192,139003,1,0,0:0:0:0:
64,192,139003,1,0,0:0:0:0:
448,192,139099,1,0,0:0:0:0:
64,192,139099,1,0,0:0:0:0:
320,192,139228,1,0,0:0:0:0:
192,192,139324,1,0,0:0:0:0:
448,192,139420,1,0,0:0:0:0:
64,192,139420,1,0,0:0:0:0:
320,192,139420,128,0,139728:0:0:0:0:
64,192,139625,1,0,0:0:0:0:
192,192,139728,1,0,0:0:0:0:
448,192,139728,128,0,139933:0:0:0:0:
320,192,139882,1,0,0:0:0:0:
192,192,139882,1,0,0:0:0:0:
320,192,139985,1,0,0:0:0:0:
448,192,139985,1,0,0:0:0:0:
448,192,140062,1,0,0:0:0:0:
64,192,140062,1,0,0:0:0:0:
192,192,140241,1,0,0:0:0:0:
64,192,140344,1,0,0:0:0:0:
64,192,140447,1,0,0:0:0:0:
192,192,140550,1,0,0:0:0:0:
448,192,140550,1,0,0:0:0:0:
320,192,140652,1,0,0:0:0:0:
448,192,140652,1,0,0:0:0:0:
320,192,140858,1,0,0:0:0:0:
448,192,140858,1,0,0:0:0:0:
448,192,141063,1,0,0:0:0:0:
64,192,141063,1,0,0:0:0:0:
192,192,141266,1,0,0:0:0:0:
448,192,141317,1,0,0:0:0:0:
64,192,141368,1,0,0:0:0:0:
448,192,141419,1,0,0:0:0:0:
320,192,141470,1,0,0:0:0:0:
64,192,141470,1,0,0:0:0:0:
192,192,141572,1,0,0:0:0:0:
448,192,141572,1,0,0:0:0:0:
192,192,141674,1,0,0:0:0:0:
320,192,141674,1,0,0:0:0:0:
64,192,141877,1,0,0:0:0:0:
448,192,141877,1,0,0:0:0:0:
320,192,142081,1,0,0:0:0:0:
64,192,142081,1,0,0:0:0:0:
320,192,142183,1,0,0:0:0:0:
64,192,142183,1,0,0:0:0:0:
448,192,142387,1,0,0:0:0:0:
192,192,142387,1,0,0:0:0:0:
192,192,142489,1,0,0:0:0:0:
448,192,142489,1,0,0:0:0:0:
64,192,142692,128,0,142851:0:0:0:0:
448,192,142692,128,0,142793:0:0:0:0:
320,192,142742,128,0,142894:0:0:0:0:
192,192,142894,128,0,142996:0:0:0:0:
64,192,142996,128,0,143063:0:0:0:0:
448,192,143029,128,0,143164:0:0:0:0:
320,192,143097,128,0,143198:0:0:0:0:
192,192,143097,1,0,0:0:0:0:
64,192,143198,128,0,143300:0:0:0:0:
192,192,143300,128,0,143367:0:0:0:0:
320,192,143333,128,0,143435:0:0:0:0:
192,192,143502,1,0,0:0:0:0:
64,192,143502,128,0,143570:0:0:0:0:
320,192,143536,128,0,143705:0:0:0:0:
192,192,143637,128,0,143773:0:0:0:0:
64,192,143773,128,0,143840:0:0:0:0:
448,192,143840,128,0,144009:0:0:0:0:
192,192,143908,128,0,143975:0:0:0:0:
64,192,143975,128,0,144043:0:0:0:0:
320,192,144043,128,0,144110:0:0:0:0:
192,192,144110,128,0,144178:0:0:0:0:
448,192,144144,128,0,144246:0:0:0:0:
192,192,144313,1,0,0:0:0:0:
448,192,144313,128,0,144448:0:0:0:0:
64,192,144364,128,0,144617:0:0:0:0:
320,192,144516,128,0,144719:0:0:0:0:
448,192,144617,128,0,144719:0:0:0:0:
64,192,144719,1,0,0:0:0:0:
192,192,144719,128,0,144820:0:0:0:0:
320,192,144820,128,0,144921:0:0:0:0:
64,192,144921,128,0,145023:0:0:0:0:
192,192,144989,128,0,145124:0:0:0:0:
320,192,145056,128,0,145158:0:0:0:0:
448,192,145124,128,0,145428:0:0:0:0:
64,192,145124,1,0,0:0:0:0:
192,192,145225,128,0,145360:0:0:0:0:
64,192,145327,128,0,145496:0:0:0:0:
192,192,145428,1,0,0:0:0:0:
320,192,145428,128,0,145664:0:0:0:0:
448,192,145529,128,0,145631:0:0:0:0:
192,192,145529,1,0,0:0:0:0:
64,192,145631,128,0,145833:0:0:0:0:
192,192,145732,128,0,145935:0:0:0:0:
320,192,145732,1,0,0:0:0:0:
448,192,145935,1,0,0:0:0:0:
320,192,145935,128,0,146036:0:0:0:0:
64,192,145969,128,0,146171:0:0:0:0:
448,192,146137,128,0,146340:0:0:0:0:
192,192,146239,128,0,146408:0:0:0:0:
64,192,146239,1,0,0:0:0:0:
64,192,146340,1,0,0:0:0:0:
320,192,146340,128,0,146475:0:0:0:0:
448,192,146442,128,0,146543:0:0:0:0:
192,192,146543,128,0,146712:0:0:0:0:
320,192,146543,1,0,0:0:0:0:
64,192,146644,128,0,146847:0:0:0:0:
320,192,146746,1,0,0:0:0:0:
448,192,146746,128,0,146982:0:0:0:0:
320,192,146948,128,0,147151:0:0:0:0:
64,192,147050,128,0,147252:0:0:0:0:
192,192,147050,1,0,0:0:0:0:
448,192,147151,128,0,147286:0:0:0:0:
192,192,147151,1,0,0:0:0:0:
320,192,147252,128,0,147421:0:0:0:0:
192,192,147354,128,0,147556:0:0:0:0:
448,192,147354,1,0,0:0:0:0:
64,192,147556,128,0,147692:0:0:0:0:
448,192,147556,1,0,0:0:0:0:
320,192,147607,128,0,147810:0:0:0:0:
448,192,147759,128,0,147894:0:0:0:0:
192,192,147860,128,0,147962:0:0:0:0:
64,192,147894,128,0,148029:0:0:0:0:
448,192,147962,1,0,0:0:0:0:
320,192,147962,128,0,148097:0:0:0:0:
192,192,148063,128,0,148232:0:0:0:0:
320,192,148164,1,0,0:0:0:0:
64,192,148164,128,0,148266:0:0:0:0:
448,192,148215,128,0,148418:0:0:0:0:
64,192,148367,128,0,148570:0:0:0:0:
192,192,148367,1,0,0:0:0:0:
320,192,148469,128,0,148604:0:0:0:0:
448,192,148570,128,0,148671:0:0:0:0:
64,192,148671,1,0,0:0:0:0:
192,192,148671,128,0,148840:0:0:0:0:
448,192,148773,1,0,0:0:0:0:
320,192,148773,128,0,149043:0:0:0:0:
64,192,148975,1,0,0:0:0:0:
448,192,148975,128,0,149110:0:0:0:0:
192,192,149077,128,0,149246:0:0:0:0:
64,192,149178,128,0,149279:0:0:0:0:
448,192,149212,128,0,149448:0:0:0:0:
320,192,149381,128,0,149516:0:0:0:0:
192,192,149482,128,0,149583:0:0:0:0:
448,192,149583,128,0,149685:0:0:0:0:
320,192,149583,1,0,0:0:0:0:
64,192,149685,128,0,149887:0:0:0:0:
192,192,149786,128,0,149989:0:0:0:0:
448,192,149887,1,0,0:0:0:0:
448,192,149989,128,0,150056:0:0:0:0:
64,192,149989,1,0,0:0:0:0:
320,192,150023,128,0,150192:0:0:0:0:
192,192,150192,128,0,150344:0:0:0:0:
448,192,150293,128,0,150394:0:0:0:0:
64,192,150293,1,0,0:0:0:0:
320,192,150344,128,0,150496:0:0:0:0:
64,192,150394,128,0,150529:0:0:0:0:
192,192,150394,1,0,0:0:0:0:
448,192,150496,128,0,150597:0:0:0:0:
192,192,150597,128,0,150732:0:0:0:0:
320,192,150597,1,0,0:0:0:0:
64,192,150698,128,0,150800:0:0:0:0:
448,192,150800,1,0,0:0:0:0:
320,192,150800,128,0,150867:0:0:0:0:
192,192,150833,128,0,151104:0:0:0:0:
448,192,151002,128,0,151137:0:0:0:0:
320,192,151104,128,0,151306:0:0:0:0:
64,192,151104,1,0,0:0:0:0:
64,192,151205,128,0,151408:0:0:0:0:
192,192,151205,1,0,0:0:0:0:
448,192,151306,128,0,151475:0:0:0:0:
192,192,151408,128,0,151509:0:0:0:0:
320,192,151475,128,0,151610:0:0:0:0:
64,192,151543,128,0,151712:0:0:0:0:
448,192,151610,128,0,151762:0:0:0:0:
192,192,151610,1,0,0:0:0:0:
320,192,151661,128,0,151914:0:0:0:0:
192,192,151813,128,0,151965:0:0:0:0:
64,192,151914,128,0,152083:0:0:0:0:
448,192,151914,1,0,0:0:0:0:
448,192,152016,128,0,152151:0:0:0:0:
320,192,152016,1,0,0:0:0:0:
192,192,152117,128,0,152219:0:0:0:0:
320,192,152219,128,0,152320:0:0:0:0:
448,192,152286,128,0,152354:0:0:0:0:
64,192,152354,128,0,152421:0:0:0:0:
192,192,152421,128,0,152624:0:0:0:0:
320,192,152421,1,0,0:0:0:0:
448,192,152624,128,0,152759:0:0:0:0:
64,192,152725,128,0,152827:0:0:0:0:
320,192,152725,1,0,0:0:0:0:
192,192,152759,128,0,152962:0:0:0:0:
448,192,152827,1,0,0:0:0:0:
320,192,152827,128,0,152928:0:0:0:0:
64,192,152928,128,0,153063:0:0:0:0:
448,192,153029,128,0,153198:0:0:0:0:
192,192,153029,1,0,0:0:0:0:
320,192,153131,128,0,153232:0:0:0:0:
64,192,153232,128,0,153300:0:0:0:0:
192,192,153232,1,0,0:0:0:0:
448,192,153266,128,0,153469:0:0:0:0:
320,192,153435,128,0,153536:0:0:0:0:
448,192,153536,1,0,0:0:0:0:
64,192,153536,128,0,153637:0:0:0:0:
192,192,153587,128,0,153739:0:0:0:0:
448,192,153637,1,0,0:0:0:0:
320,192,153637,128,0,153874:0:0:0:0:
64,192,153739,128,0,153840:0:0:0:0:
448,192,153840,128,0,153975:0:0:0:0:
192,192,153942,128,0,154110:0:0:0:0:
64,192,154042,128,0,154315:0:0:0:0:
320,192,154042,1,0,0:0:0:0:
448,192,154246,128,0,154383:0:0:0:0:
320,192,154349,128,0,154553:0:0:0:0:
192,192,154349,1,0,0:0:0:0:
192,192,154451,1,0,0:0:0:0:
64,192,154451,128,0,154656:0:0:0:0:
192,192,154656,1,0,0:0:0:0:
448,192,154656,128,0,154792:0:0:0:0:
64,192,154861,1,0,0:0:0:0:
320,192,154861,128,0,155031:0:0:0:0:
192,192,154963,128,0,155168:0:0:0:0:
448,192,155065,128,0,155338:0:0:0:0:
64,192,155168,128,0,155407:0:0:0:0:
320,192,155168,1,0,0:0:0:0:
320,192,155270,128,0,155475:0:0:0:0:
192,192,155270,1,0,0:0:0:0:
192,192,155373,128,0,155475:0:0:0:0:
64,192,155475,128,0,155577:0:0:0:0:
448,192,155475,128,0,155680:0:0:0:0:
320,192,155577,128,0,155680:0:0:0:0:
192,192,155680,128,0,155953:0:0:0:0:
64,192,155680,1,0,0:0:0:0:
448,192,155884,128,0,156089:0:0:0:0:
64,192,155987,128,0,156191:0:0:0:0:
320,192,155987,1,0,0:0:0:0:
320,192,156089,128,0,156294:0:0:0:0:
192,192,156089,1,0,0:0:0:0:
64,192,156294,128,0,156430:0:0:0:0:
448,192,156294,1,0,0:0:0:0:
448,192,156499,128,0,156669:0:0:0:0:
320,192,156499,1,0,0:0:0:0:
192,192,156601,128,0,156738:0:0:0:0:
320,192,156703,128,0,156840:0:0:0:0:
64,192,156806,128,0,156976:0:0:0:0:
448,192,156806,1,0,0:0:0:0:
192,192,156908,128,0,157045:0:0:0:0:
448,192,156908,1,0,0:0:0:0:
320,192,157011,128,0,157147:0:0:0:0:
448,192,157113,128,0,157249:0:0:0:0:
64,192,157113,1,0,0:0:0:0:
192,192,157215,128,0,157318:0:0:0:0:
64,192,157318,128,0,157384:0:0:0:0:
320,192,157318,1,0,0:0:0:0:
448,192,157351,128,0,157584:0:0:0:0:
320,192,157518,128,0,157651:0:0:0:0:
64,192,157618,128,0,157818:0:0:0:0:
192,192,157618,1,0,0:0:0:0:
448,192,157718,1,0,0:0:0:0:
320,192,157718,128,0,157884:0:0:0:0:
192,192,157818,128,0,157951:0:0:0:0:
448,192,157918,128,0,158051:0:0:0:0:
64,192,157918,1,0,0:0:0:0:
320,192,157984,128,0,158118:0:0:0:0:
64,192,158051,128,0,158151:0:0:0:0:
192,192,158118,128,0,158384:0:0:0:0:
448,192,158118,1,0,0:0:0:0:
320,192,158218,128,0,158318:0:0:0:0:
448,192,158318,128,0,158518:0:0:0:0:
64,192,158418,128,0,158618:0:0:0:0:
320,192,158418,1,0,0:0:0:0:
320,192,158518,1,0,0:0:0:0:
192,192,158518,128,0,158751:0:0:0:0:
448,192,158718,128,0,158985:0:0:0:0:
320,192,158718,1,0,0:0:0:0:
192,192,158918,128,0,159188:0:0:0:0:
64,192,158918,1,0,0:0:0:0:
448,192,159120,128,0,159323:0:0:0:0:
64,192,159222,128,0,159424:0:0:0:0:
320,192,159222,1,0,0:0:0:0:
320,192,159323,128,0,159526:0:0:0:0:
192,192,159323,1,0,0:0:0:0:
64,192,159526,128,0,159661:0:0:0:0:
448,192,159526,1,0,0:0:0:0:
320,192,159728,1,0,0:0:0:0:
448,192,159728,128,0,159897:0:0:0:0:
192,192,159830,128,0,159965:0:0:0:0:
320,192,159931,128,0,160066:0:0:0:0:
64,192,160032,128,0,160201:0:0:0:0:
448,192,160032,1,0,0:0:0:0:
192,192,160134,128,0,160269:0:0:0:0:
448,192,160134,1,0,0:0:0:0:
320,192,160235,128,0,160370:0:0:0:0:
64,192,160336,1,0,0:0:0:0:
448,192,160336,128,0,160472:0:0:0:0:
192,192,160438,128,0,160539:0:0:0:0:
64,192,160539,128,0,160606:0:0:0:0:
320,192,160539,1,0,0:0:0:0:
448,192,160572,128,0,160807:0:0:0:0:
320,192,160740,128,0,160874:0:0:0:0:
64,192,160841,128,0,161042:0:0:0:0:
192,192,160841,1,0,0:0:0:0:
448,192,160941,1,0,0:0:0:0:
320,192,160941,128,0,161109:0:0:0:0:
192,192,161042,128,0,161176:0:0:0:0:
448,192,161143,128,0,161277:0:0:0:0:
64,192,161143,1,0,0:0:0:0:
320,192,161210,128,0,161344:0:0:0:0:
64,192,161277,128,0,161377:0:0:0:0:
192,192,161344,128,0,161612:0:0:0:0:
448,192,161344,1,0,0:0:0:0:
320,192,161445,128,0,161545:0:0:0:0:
448,192,161545,128,0,161747:0:0:0:0:
64,192,161646,128,0,161847:0:0:0:0:
320,192,161646,1,0,0:0:0:0:
192,192,161747,128,0,161981:0:0:0:0:
320,192,161747,1,0,0:0:0:0:
448,192,161948,128,0,162217:0:0:0:0:
320,192,161948,1,0,0:0:0:0:
64,192,162149,1,0,0:0:0:0:
192,192,162149,128,0,162421:0:0:0:0:
448,192,162353,128,0,162557:0:0:0:0:
64,192,162455,128,0,162659:0:0:0:0:
320,192,162455,1,0,0:0:0:0:
320,192,162557,128,0,162761:0:0:0:0:
192,192,162557,1,0,0:0:0:0:
64,192,162761,128,0,162897:0:0:0:0:
192,192,162863,1,0,0:0:0:0:
320,192,162863,1,0,0:0:0:0:
320,192,162965,1,0,0:0:0:0:
448,192,162965,128,0,163135:0:0:0:0:
192,192,163067,128,0,163203:0:0:0:0:
320,192,163169,128,0,163305:0:0:0:0:
64,192,163271,128,0,163441:0:0:0:0:
448,192,163271,1,0,0:0:0:0:
192,192,163373,128,0,163509:0:0:0:0:
448,192,163373,1,0,0:0:0:0:
320,192,163475,128,0,163611:0:0:0:0:
448,192,163577,128,0,163849:0:0:0:0:
64,192,163577,1,0,0:0:0:0:
192,192,163781,128,0,164054:0:0:0:0:
64,192,163781,1,0,0:0:0:0:
448,192,163986,128,0,164191:0:0:0:0:
64,192,163986,1,0,0:0:0:0:
64,192,164089,128,0,164294:0:0:0:0:
320,192,164191,128,0,164397:0:0:0:0:
192,192,164191,1,0,0:0:0:0:
64,192,164397,128,0,164534:0:0:0:0:
320,192,164500,1,0,0:0:0:0:
192,192,164500,1,0,0:0:0:0:
448,192,164602,128,0,164774:0:0:0:0:
320,192,164602,1,0,0:0:0:0:
192,192,164705,128,0,164842:0:0:0:0:
320,192,164808,128,0,164945:0:0:0:0:
64,192,164911,128,0,165082:0:0:0:0:
448,192,164911,1,0,0:0:0:0:
192,192,165013,128,0,165150:0:0:0:0:
448,192,165013,1,0,0:0:0:0:
320,192,165116,128,0,165253:0:0:0:0:
64,192,165219,1,0,0:0:0:0:
448,192,165219,128,0,165492:0:0:0:0:
192,192,165322,1,0,0:0:0:0:
192,192,165424,128,0,165697:0:0:0:0:
64,192,165424,1,0,0:0:0:0:
448,192,165629,128,0,165834:0:0:0:0:
320,192,165732,1,0,0:0:0:0:
64,192,165732,128,0,165937:0:0:0:0:
192,192,165834,1,0,0:0:0:0:
320,192,165834,128,0,166040:0:0:0:0:
64,192,166040,128,0,166177:0:0:0:0:
192,192,166040,1,0,0:0:0:0:
320,192,166245,1,0,0:0:0:0:
448,192,166245,128,0,166417:0:0:0:0:
192,192,166348,128,0,166485:0:0:0:0:
320,192,166451,128,0,166588:0:0:0:0:
64,192,166554,128,0,166725:0:0:0:0:
448,192,166554,1,0,0:0:0:0:
448,192,166656,1,0,0:0:0:0:
192,192,166656,128,0,166793:0:0:0:0:
320,192,166759,128,0,166896:0:0:0:0:
448,192,166862,128,0,167135:0:0:0:0:
64,192,166862,1,0,0:0:0:0:
192,192,166965,1,0,0:0:0:0:
192,192,167067,128,0,167342:0:0:0:0:
64,192,167067,1,0,0:0:0:0:
448,192,167273,128,0,167480:0:0:0:0:
64,192,167273,1,0,0:0:0:0:
64,192,167377,128,0,167584:0:0:0:0:
192,192,167480,1,0,0:0:0:0:
320,192,167480,128,0,167687:0:0:0:0:
64,192,167687,128,0,167825:0:0:0:0:
192,192,167687,1,0,0:0:0:0:
192,192,167791,1,0,0:0:0:0:
448,192,167791,1,0,0:0:0:0:
448,192,167894,128,0,168067:0:0:0:0:
320,192,167894,1,0,0:0:0:0:
192,192,167998,128,0,168135:0:0:0:0:
320,192,167998,1,0,0:0:0:0:
320,192,168101,128,0,168239:0:0:0:0:
64,192,168101,1,0,0:0:0:0:
64,192,168204,128,0,168377:0:0:0:0:
192,192,168308,128,0,168446:0:0:0:0:
448,192,168308,1,0,0:0:0:0:
320,192,168411,128,0,168549:0:0:0:0:
448,192,168515,128,0,168653:0:0:0:0:
64,192,168515,1,0,0:0:0:0:
192,192,168584,1,0,0:0:0:0:
320,192,168653,1,0,0:0:0:0:
192,192,168722,5,0,0:0:0:0:
448,192,168722,1,0,0:0:0:0:
448,192,168824,128,0,168927:0:0:0:0:
64,192,168927,1,0,0:0:0:0:
64,192,169030,128,0,169132:0:0:0:0:
192,192,169064,128,0,169132:0:0:0:0:
448,192,169132,1,0,0:0:0:0:
320,192,169132,1,0,0:0:0:0:
320,192,169235,128,0,169338:0:0:0:0:
192,192,169269,128,0,169338:0:0:0:0:
448,192,169338,1,0,0:0:0:0:
64,192,169441,1,0,0:0:0:0:
64,192,169543,1,0,0:0:0:0:
192,192,169543,1,0,0:0:0:0:
320,192,169646,128,0,169749:0:0:0:0:
64,192,169749,1,0,0:0:0:0:
448,192,169852,128,0,169954:0:0:0:0:
192,192,169886,128,0,169954:0:0:0:0:
64,192,169954,1,0,0:0:0:0:
320,192,169954,1,0,0:0:0:0:
64,192,170057,128,0,170160:0:0:0:0:
192,192,170091,128,0,170160:0:0:0:0:
320,192,170160,1,0,0:0:0:0:
448,192,170263,1,0,0:0:0:0:
448,192,170365,1,0,0:0:0:0:
320,192,170365,1,0,0:0:0:0:
192,192,170468,128,0,170571:0:0:0:0:
320,192,170571,1,0,0:0:0:0:
64,192,170674,128,0,170776:0:0:0:0:
448,192,170708,128,0,170776:0:0:0:0:
192,192,170776,1,0,0:0:0:0:
320,192,170776,1,0,0:0:0:0:
192,192,170879,128,0,170982:0:0:0:0:
448,192,170913,128,0,170982:0:0:0:0:
64,192,170982,1,0,0:0:0:0:
320,192,171050,128,0,171153:0:0:0:0:
192,192,171085,1,0,0:0:0:0:
64,192,171187,128,0,171290:0:0:0:0:
192,192,171187,1,0,0:0:0:0:
448,192,171290,1,0,0:0:0:0:
320,192,171393,128,0,171495:0:0:0:0:
192,192,171427,128,0,171495:0:0:0:0:
448,192,171495,128,0,171598:0:0:0:0:
64,192,171598,1,0,0:0:0:0:
320,192,171598,1,0,0:0:0:0:
64,192,171701,128,0,171941:0:0:0:0:
192,192,171804,1,0,0:0:0:0:
320,192,171906,1,0,0:0:0:0:
448,192,172008,1,0,0:0:0:0:
320,192,172008,1,0,0:0:0:0:
448,192,172108,128,0,172208:0:0:0:0:
64,192,172208,1,0,0:0:0:0:
64,192,172308,128,0,172408:0:0:0:0:
192,192,172341,128,0,172408:0:0:0:0:
448,192,172408,1,0,0:0:0:0:
320,192,172408,1,0,0:0:0:0:
320,192,172508,128,0,172608:0:0:0:0:
192,192,172541,128,0,172608:0:0:0:0:
448,192,172608,1,0,0:0:0:0:
64,192,172708,1,0,0:0:0:0:
64,192,172808,1,0,0:0:0:0:
192,192,172808,1,0,0:0:0:0:
320,192,172908,128,0,173008:0:0:0:0:
64,192,173008,1,0,0:0:0:0:
448,192,173108,128,0,173208:0:0:0:0:
192,192,173141,128,0,173208:0:0:0:0:
64,192,173208,1,0,0:0:0:0:
320,192,173208,1,0,0:0:0:0:
64,192,173308,128,0,173408:0:0:0:0:
192,192,173341,128,0,173408:0:0:0:0:
320,192,173408,1,0,0:0:0:0:
448,192,173508,1,0,0:0:0:0:
448,192,173608,1,0,0:0:0:0:
320,192,173608,1,0,0:0:0:0:
192,192,173709,128,0,173810:0:0:0:0:
320,192,173810,1,0,0:0:0:0:
64,192,173912,128,0,174013:0:0:0:0:
448,192,173945,128,0,174013:0:0:0:0:
192,192,174013,1,0,0:0:0:0:
320,192,174013,1,0,0:0:0:0:
192,192,174114,128,0,174216:0:0:0:0:
448,192,174148,128,0,174216:0:0:0:0:
64,192,174216,1,0,0:0:0:0:
320,192,174283,128,0,174385:0:0:0:0:
192,192,174317,1,0,0:0:0:0:
64,192,174418,128,0,174520:0:0:0:0:
192,192,174418,1,0,0:0:0:0:
448,192,174520,1,0,0:0:0:0:
320,192,174621,128,0,174722:0:0:0:0:
192,192,174655,128,0,174722:0:0:0:0:
448,192,174722,128,0,174824:0:0:0:0:
320,192,174824,1,0,0:0:0:0:
64,192,174824,1,0,0:0:0:0:
64,192,174925,128,0,175128:0:0:0:0:
192,192,175026,1,0,0:0:0:0:
320,192,175128,1,0,0:0:0:0:
320,192,175229,1,0,0:0:0:0:
448,192,175229,1,0,0:0:0:0:
448,192,175330,128,0,175432:0:0:0:0:
64,192,175432,1,0,0:0:0:0:
64,192,175533,128,0,175635:0:0:0:0:
192,192,175567,128,0,175635:0:0:0:0:
320,192,175635,1,0,0:0:0:0:
448,192,175635,1,0,0:0:0:0:
320,192,175736,128,0,175837:0:0:0:0:
192,192,175770,128,0,175939:0:0:0:0:
448,192,175837,1,0,0:0:0:0:
64,192,175939,1,0,0:0:0:0:
64,192,176040,1,0,0:0:0:0:
320,192,176040,128,0,176141:0:0:0:0:
448,192,176074,128,0,176310:0:0:0:0:
192,192,176141,1,0,0:0:0:0:
192,192,176243,1,0,0:0:0:0:
64,192,176344,128,0,176513:0:0:0:0:
320,192,176445,1,0,0:0:0:0:
192,192,176445,128,0,176580:0:0:0:0:
448,192,176547,128,0,176614:0:0:0:0:
192,192,176648,128,0,176749:0:0:0:0:
320,192,176682,128,0,176850:0:0:0:0:
192,192,176850,1,0,0:0:0:0:
64,192,176850,128,0,176950:0:0:0:0:
448,192,176883,128,0,177050:0:0:0:0:
320,192,177050,1,0,0:0:0:0:
448,192,177150,128,0,177250:0:0:0:0:
64,192,177183,128,0,177416:0:0:0:0:
192,192,177250,1,0,0:0:0:0:
320,192,177250,1,0,0:0:0:0:
448,192,177350,1,0,0:0:0:0:
320,192,177383,128,0,177516:0:0:0:0:
192,192,177450,128,0,177600:0:0:0:0:
64,192,177550,1,0,0:0:0:0:
448,192,177650,1,0,0:0:0:0:
320,192,177650,128,0,177750:0:0:0:0:
64,192,177683,128,0,177816:0:0:0:0:
448,192,177750,1,0,0:0:0:0:
192,192,177850,128,0,177950:0:0:0:0:
320,192,177950,128,0,178083:0:0:0:0:
192,192,178050,1,0,0:0:0:0:
64,192,178050,1,0,0:0:0:0:
64,192,178150,128,0,178250:0:0:0:0:
448,192,178183,128,0,178350:0:0:0:0:
320,192,178250,1,0,0:0:0:0:
192,192,178350,1,0,0:0:0:0:
192,192,178450,1,0,0:0:0:0:
448,192,178450,1,0,0:0:0:0:
448,192,178550,128,0,178651:0:0:0:0:
64,192,178651,1,0,0:0:0:0:
64,192,178752,128,0,178852:0:0:0:0:
192,192,178785,128,0,178852:0:0:0:0:
448,192,178852,1,0,0:0:0:0:
320,192,178852,1,0,0:0:0:0:
320,192,178953,128,0,179054:0:0:0:0:
192,192,178986,128,0,179154:0:0:0:0:
448,192,179054,1,0,0:0:0:0:
64,192,179154,1,0,0:0:0:0:
320,192,179255,128,0,179356:0:0:0:0:
64,192,179255,1,0,0:0:0:0:
448,192,179288,128,0,179532:0:0:0:0:
192,192,179356,1,0,0:0:0:0:
192,192,179456,1,0,0:0:0:0:
64,192,179557,128,0,179725:0:0:0:0:
192,192,179658,128,0,179792:0:0:0:0:
320,192,179658,1,0,0:0:0:0:
448,192,179758,128,0,179825:0:0:0:0:
192,192,179859,128,0,179960:0:0:0:0:
320,192,179892,128,0,179993:0:0:0:0:
192,192,180060,1,0,0:0:0:0:
64,192,180060,128,0,180161:0:0:0:0:
448,192,180094,128,0,180161:0:0:0:0:
320,192,180262,128,0,180362:0:0:0:0:
448,192,180295,128,0,180362:0:0:0:0:
192,192,180362,128,0,180463:0:0:0:0:
320,192,180463,1,0,0:0:0:0:
64,192,180463,128,0,180564:0:0:0:0:
448,192,180496,128,0,180664:0:0:0:0:
320,192,180597,128,0,180731:0:0:0:0:
192,192,180664,1,0,0:0:0:0:
64,192,180765,128,0,180866:0:0:0:0:
192,192,180798,128,0,180866:0:0:0:0:
320,192,180866,1,0,0:0:0:0:
448,192,180866,128,0,180966:0:0:0:0:
320,192,180966,128,0,181134:0:0:0:0:
64,192,181067,1,0,0:0:0:0:
192,192,181168,128,0,181268:0:0:0:0:
320,192,181268,128,0,181369:0:0:0:0:
448,192,181268,1,0,0:0:0:0:
64,192,181302,128,0,181470:0:0:0:0:
192,192,181470,128,0,181570:0:0:0:0:
448,192,181503,128,0,181570:0:0:0:0:
64,192,181570,1,0,0:0:0:0:
64,192,181671,1,0,0:0:0:0:
192,192,181671,128,0,181772:0:0:0:0:
320,192,181872,128,0,181973:0:0:0:0:
448,192,181973,1,0,0:0:0:0:
320,192,182074,1,0,0:0:0:0:
448,192,182074,128,0,182174:0:0:0:0:
192,192,182107,128,0,182342:0:0:0:0:
64,192,182174,1,0,0:0:0:0:
64,192,182275,128,0,182476:0:0:0:0:
320,192,182376,128,0,182476:0:0:0:0:
192,192,182476,1,0,0:0:0:0:
448,192,182476,128,0,182577:0:0:0:0:
320,192,182577,1,0,0:0:0:0:
192,192,182678,128,0,182778:0:0:0:0:
320,192,182778,1,0,0:0:0:0:
64,192,182879,1,0,0:0:0:0:
320,192,182879,128,0,182980:0:0:0:0:
448,192,182913,128,0,183147:0:0:0:0:
192,192,182980,1,0,0:0:0:0:
192,192,183080,128,0,183282:0:0:0:0:
64,192,183181,128,0,183282:0:0:0:0:
320,192,183282,128,0,183382:0:0:0:0:
448,192,183282,1,0,0:0:0:0:
192,192,183483,128,0,183584:0:0:0:0:
448,192,183584,1,0,0:0:0:0:
448,192,183684,1,0,0:0:0:0:
64,192,183684,128,0,183785:0:0:0:0:
320,192,183718,128,0,183953:0:0:0:0:
192,192,183785,1,0,0:0:0:0:
192,192,183886,128,0,184087:0:0:0:0:
448,192,183986,128,0,184087:0:0:0:0:
64,192,184087,128,0,184288:0:0:0:0:
320,192,184087,1,0,0:0:0:0:
448,192,184188,128,0,184288:0:0:0:0:
320,192,184288,1,0,0:0:0:0:
64,192,184389,1,0,0:0:0:0:
448,192,184490,1,0,0:0:0:0:
320,192,184490,128,0,184590:0:0:0:0:
192,192,184523,128,0,184758:0:0:0:0:
448,192,184590,1,0,0:0:0:0:
64,192,184691,128,0,184892:0:0:0:0:
448,192,184792,128,0,184892:0:0:0:0:
192,192,184892,1,0,0:0:0:0:
320,192,184892,128,0,184993:0:0:0:0:
64,192,185094,128,0,185194:0:0:0:0:
448,192,185194,1,0,0:0:0:0:
448,192,185295,128,0,185396:0:0:0:0:
192,192,185295,1,0,0:0:0:0:
64,192,185329,128,0,185564:0:0:0:0:
320,192,185396,1,0,0:0:0:0:
320,192,185496,128,0,185698:0:0:0:0:
192,192,185597,128,0,185698:0:0:0:0:
448,192,185698,128,0,185798:0:0:0:0:
64,192,185698,1,0,0:0:0:0:
64,192,185798,1,0,0:0:0:0:
192,192,185899,128,0,186000:0:0:0:0:
448,192,186000,1,0,0:0:0:0:
64,192,186101,128,0,186201:0:0:0:0:
192,192,186101,1,0,0:0:0:0:
320,192,186134,128,0,186369:0:0:0:0:
448,192,186201,1,0,0:0:0:0:
448,192,186302,128,0,186503:0:0:0:0:
192,192,186403,128,0,186503:0:0:0:0:
320,192,186503,1,0,0:0:0:0:
64,192,186503,128,0,186602:0:0:0:0:
320,192,186701,128,0,186801:0:0:0:0:
64,192,186801,1,0,0:0:0:0:
192,192,186900,128,0,186999:0:0:0:0:
64,192,186900,1,0,0:0:0:0:
448,192,186933,128,0,187165:0:0:0:0:
320,192,186999,1,0,0:0:0:0:
64,192,187099,128,0,187297:0:0:0:0:
192,192,187198,128,0,187297:0:0:0:0:
448,192,187297,1,0,0:0:0:0:
320,192,187297,128,0,187397:0:0:0:0:
448,192,187397,1,0,0:0:0:0:
64,192,187496,128,0,187595:0:0:0:0:
192,192,187595,1,0,0:0:0:0:
448,192,187695,128,0,187794:0:0:0:0:
192,192,187695,1,0,0:0:0:0:
320,192,187728,128,0,187860:0:0:0:0:
64,192,187844,128,0,188042:0:0:0:0:
320,192,187943,128,0,188042:0:0:0:0:
192,192,187993,128,0,188192:0:0:0:0:
448,192,188092,128,0,188947:0:0:0:0:
320,192,188092,1,0,0:0:0:0:
320,192,188293,128,0,188394:0:0:0:0:
192,192,188494,1,0,0:0:0:0:
320,192,188494,128,0,188595:0:0:0:0:
64,192,188528,128,0,188763:0:0:0:0:
192,192,188696,128,0,188796:0:0:0:0:
320,192,188796,128,0,188897:0:0:0:0:
64,192,188897,1,0,0:0:0:0:
192,192,188897,128,0,189751:0:0:0:0:
320,192,188998,1,0,0:0:0:0:
448,192,189098,128,0,189199:0:0:0:0:
64,192,189199,1,0,0:0:0:0:
64,192,189300,128,0,189501:0:0:0:0:
448,192,189300,1,0,0:0:0:0:
320,192,189501,128,0,189602:0:0:0:0:
448,192,189602,128,0,189702:0:0:0:0:
320,192,189702,128,0,190546:0:0:0:0:
64,192,189702,1,0,0:0:0:0:
64,192,189900,128,0,190000:0:0:0:0:
448,192,190000,1,0,0:0:0:0:
192,192,190099,128,0,190298:0:0:0:0:
448,192,190099,1,0,0:0:0:0:
448,192,190298,128,0,190430:0:0:0:0:
192,192,190496,1,0,0:0:0:0:
64,192,190496,128,0,191341:0:0:0:0:
448,192,190596,1,0,0:0:0:0:
192,192,190695,128,0,190794:0:0:0:0:
320,192,190794,1,0,0:0:0:0:
192,192,190894,1,0,0:0:0:0:
320,192,190894,128,0,190993:0:0:0:0:
448,192,190927,128,0,191158:0:0:0:0:
192,192,191092,128,0,191192:0:0:0:0:
320,192,191192,128,0,191291:0:0:0:0:
192,192,191291,128,0,192135:0:0:0:0:
448,192,191291,1,0,0:0:0:0:
64,192,191491,128,0,191591:0:0:0:0:
320,192,191591,1,0,0:0:0:0:
448,192,191691,128,0,191791:0:0:0:0:
64,192,191691,1,0,0:0:0:0:
320,192,191724,128,0,191957:0:0:0:0:
64,192,191791,1,0,0:0:0:0:
448,192,191891,128,0,191991:0:0:0:0:
64,192,191991,128,0,192091:0:0:0:0:
448,192,192091,128,0,192941:0:0:0:0:
320,192,192091,1,0,0:0:0:0:
64,192,192191,1,0,0:0:0:0:
320,192,192291,128,0,192391:0:0:0:0:
192,192,192391,1,0,0:0:0:0:
192,192,192491,128,0,192757:0:0:0:0:
64,192,192491,1,0,0:0:0:0:
64,192,192691,128,0,192791:0:0:0:0:
320,192,192791,128,0,192891:0:0:0:0:
192,192,192891,1,0,0:0:0:0:
64,192,192891,128,0,193752:0:0:0:0:
448,192,193093,128,0,193195:0:0:0:0:
320,192,193296,1,0,0:0:0:0:
192,192,193296,128,0,193397:0:0:0:0:
448,192,193397,1,0,0:0:0:0:
448,192,193499,128,0,193600:0:0:0:0:
192,192,193600,1,0,0:0:0:0:
448,192,193701,1,0,0:0:0:0:
320,192,193701,128,0,194360:0:0:0:0:
192,192,193803,1,0,0:0:0:0:
448,192,193904,128,0,194005:0:0:0:0:
64,192,194005,1,0,0:0:0:0:
192,192,194107,128,0,194208:0:0:0:0:
64,192,194107,1,0,0:0:0:0:
448,192,194208,1,0,0:0:0:0:
64,192,194309,128,0,194411:0:0:0:0:
192,192,194411,1,0,0:0:0:0:
64,192,194512,5,0,0:0:0:0:
448,192,194512,1,0,0:0:0:0:
192,192,194512,128,0,194726:0:0:0:0:
64,192,194726,1,0,0:0:0:0:
192,192,194833,128,0,195047:0:0:0:0:
448,192,194940,1,0,0:0:0:0:
320,192,195154,128,0,195262:0:0:0:0:
320,192,195369,128,0,195476:0:0:0:0:
448,192,195369,1,0,0:0:0:0:
192,192,195583,1,0,0:0:0:0:
64,192,195654,128,0,195797:0:0:0:0:
320,192,195797,1,0,0:0:0:0:
64,192,195940,128,0,196226:0:0:0:0:
192,192,196012,1,0,0:0:0:0:
448,192,196226,128,0,196331:0:0:0:0:
192,192,196226,1,0,0:0:0:0:
448,192,196436,128,0,196542:0:0:0:0:
64,192,196542,128,0,196647:0:0:0:0:
192,192,196647,128,0,196858:0:0:0:0:
320,192,196647,1,0,0:0:0:0:
64,192,196753,1,0,0:0:0:0:
448,192,196858,128,0,196964:0:0:0:0:
192,192,196964,128,0,197175:0:0:0:0:
320,192,197069,1,0,0:0:0:0:
448,192,197069,1,0,0:0:0:0:
64,192,197175,128,0,197280:0:0:0:0:
320,192,197280,128,0,197385:0:0:0:0:
192,192,197280,1,0,0:0:0:0:
64,192,197385,1,0,0:0:0:0:
320,192,197491,128,0,197596:0:0:0:0:
448,192,197491,128,0,197596:0:0:0:0:
192,192,197596,1,0,0:0:0:0:
64,192,197702,128,0,197913:0:0:0:0:
320,192,197702,1,0,0:0:0:0:
448,192,197807,128,0,197913:0:0:0:0:
192,192,197913,1,0,0:0:0:0:
64,192,198018,128,0,198229:0:0:0:0:
448,192,198018,1,0,0:0:0:0:
320,192,198124,128,0,198229:0:0:0:0:
192,192,198229,1,0,0:0:0:0:
448,192,198334,128,0,198440:0:0:0:0:
64,192,198334,1,0,0:0:0:0:
320,192,198440,1,0,0:0:0:0:
448,192,198545,128,0,198651:0:0:0:0:
192,192,198545,1,0,0:0:0:0:
64,192,198651,128,0,198756:0:0:0:0:
320,192,198651,1,0,0:0:0:0:
448,192,198756,1,0,0:0:0:0:
192,192,198756,1,0,0:0:0:0:
448,192,198860,1,0,0:0:0:0:
192,192,198860,1,0,0:0:0:0:
64,192,198964,1,0,0:0:0:0:
448,192,199068,1,0,0:0:0:0:
320,192,199068,1,0,0:0:0:0:
448,192,199172,1,0,0:0:0:0:
192,192,199172,1,0,0:0:0:0:
320,192,199276,1,0,0:0:0:0:
192,192,199381,1,0,0:0:0:0:
64,192,199381,1,0,0:0:0:0:
192,192,199485,1,0,0:0:0:0:
320,192,199589,1,0,0:0:0:0:
64,192,199589,1,0,0:0:0:0:
320,192,199693,1,0,0:0:0:0:
64,192,199797,1,0,0:0:0:0:
448,192,199797,1,0,0:0:0:0:
64,192,199901,1,0,0:0:0:0:
320,192,199901,1,0,0:0:0:0:
448,192,200006,1,0,0:0:0:0:
64,192,200110,1,0,0:0:0:0:
192,192,200110,1,0,0:0:0:0:
64,192,200214,1,0,0:0:0:0:
320,192,200214,1,0,0:0:0:0:
192,192,200318,1,0,0:0:0:0:
320,192,200422,1,0,0:0:0:0:
448,192,200422,1,0,0:0:0:0:
320,192,200526,1,0,0:0:0:0:
448,192,200631,1,0,0:0:0:0:
192,192,200631,1,0,0:0:0:0:
192,192,200735,1,0,0:0:0:0:
64,192,200839,1,0,0:0:0:0:
448,192,200839,1,0,0:0:0:0:
448,192,200940,1,0,0:0:0:0:
320,192,200940,1,0,0:0:0:0:
64,192,201041,1,0,0:0:0:0:
320,192,201143,1,0,0:0:0:0:
448,192,201143,1,0,0:0:0:0:
320,192,201244,1,0,0:0:0:0:
192,192,201244,1,0,0:0:0:0:
448,192,201345,1,0,0:0:0:0:
192,192,201447,1,0,0:0:0:0:
64,192,201447,1,0,0:0:0:0:
192,192,201548,1,0,0:0:0:0:
320,192,201649,1,0,0:0:0:0:
448,192,201649,1,0,0:0:0:0:
448,192,201751,1,0,0:0:0:0:
320,192,201852,1,0,0:0:0:0:
64,192,201852,1,0,0:0:0:0:
64,192,201953,1,0,0:0:0:0:
192,192,201953,1,0,0:0:0:0:
448,192,202055,1,0,0:0:0:0:
192,192,202156,1,0,0:0:0:0:
64,192,202156,1,0,0:0:0:0:
192,192,202257,1,0,0:0:0:0:
320,192,202257,1,0,0:0:0:0:
64,192,202359,1,0,0:0:0:0:
320,192,202460,1,0,0:0:0:0:
448,192,202460,1,0,0:0:0:0:
320,192,202561,1,0,0:0:0:0:
64,192,202663,1,0,0:0:0:0:
192,192,202663,1,0,0:0:0:0:
64,192,202764,1,0,0:0:0:0:
192,192,202866,1,0,0:0:0:0:
448,192,202866,1,0,0:0:0:0:
64,192,202966,1,0,0:0:0:0:
448,192,202966,1,0,0:0:0:0:
320,192,203066,1,0,0:0:0:0:
448,192,203166,1,0,0:0:0:0:
64,192,203166,1,0,0:0:0:0:
192,192,203266,1,0,0:0:0:0:
448,192,203266,1,0,0:0:0:0:
64,192,203366,1,0,0:0:0:0:
192,192,203466,1,0,0:0:0:0:
320,192,203466,1,0,0:0:0:0:
320,192,203566,1,0,0:0:0:0:
448,192,203666,1,0,0:0:0:0:
192,192,203666,1,0,0:0:0:0:
192,192,203766,1,0,0:0:0:0:
320,192,203866,1,0,0:0:0:0:
64,192,203866,1,0,0:0:0:0:
448,192,203966,1,0,0:0:0:0:
64,192,203966,1,0,0:0:0:0:
192,192,204066,1,0,0:0:0:0:
64,192,204166,1,0,0:0:0:0:
448,192,204166,1,0,0:0:0:0:
320,192,204266,1,0,0:0:0:0:
64,192,204266,1,0,0:0:0:0:
448,192,204366,1,0,0:0:0:0:
320,192,204466,1,0,0:0:0:0:
192,192,204466,1,0,0:0:0:0:
192,192,204566,1,0,0:0:0:0:
64,192,204666,1,0,0:0:0:0:
320,192,204666,1,0,0:0:0:0:
320,192,204766,1,0,0:0:0:0:
64,192,204866,1,0,0:0:0:0:
448,192,204866,1,0,0:0:0:0:
64,192,204967,1,0,0:0:0:0:
192,192,204967,1,0,0:0:0:0:
448,192,205068,1,0,0:0:0:0:
192,192,205170,1,0,0:0:0:0:
64,192,205170,1,0,0:0:0:0:
192,192,205271,1,0,0:0:0:0:
320,192,205271,1,0,0:0:0:0:
64,192,205372,1,0,0:0:0:0:
320,192,205474,1,0,0:0:0:0:
448,192,205474,1,0,0:0:0:0:
320,192,205575,1,0,0:0:0:0:
192,192,205676,1,0,0:0:0:0:
64,192,205676,1,0,0:0:0:0:
192,192,205778,1,0,0:0:0:0:
448,192,205879,1,0,0:0:0:0:
64,192,205879,1,0,0:0:0:0:
448,192,205980,1,0,0:0:0:0:
320,192,205980,1,0,0:0:0:0:
64,192,206082,1,0,0:0:0:0:
320,192,206183,1,0,0:0:0:0:
448,192,206183,1,0,0:0:0:0:
320,192,206284,1,0,0:0:0:0:
192,192,206284,1,0,0:0:0:0:
448,192,206386,1,0,0:0:0:0:
192,192,206487,1,0,0:0:0:0:
64,192,206487,1,0,0:0:0:0:
192,192,206588,1,0,0:0:0:0:
320,192,206690,1,0,0:0:0:0:
448,192,206690,1,0,0:0:0:0:
320,192,206791,1,0,0:0:0:0:
64,192,206893,1,0,0:0:0:0:
448,192,206893,1,0,0:0:0:0:
64,192,206995,1,0,0:0:0:0:
320,192,206995,1,0,0:0:0:0:
448,192,207097,1,0,0:0:0:0:
64,192,207199,1,0,0:0:0:0:
192,192,207199,1,0,0:0:0:0:
64,192,207301,1,0,0:0:0:0:
320,192,207301,1,0,0:0:0:0:
192,192,207403,1,0,0:0:0:0:
320,192,207505,1,0,0:0:0:0:
448,192,207505,1,0,0:0:0:0:
320,192,207607,1,0,0:0:0:0:
192,192,207709,1,0,0:0:0:0:
448,192,207709,1,0,0:0:0:0:
192,192,207811,1,0,0:0:0:0:
448,192,207913,1,0,0:0:0:0:
64,192,207913,1,0,0:0:0:0:
448,192,208015,1,0,0:0:0:0:
192,192,208015,1,0,0:0:0:0:
64,192,208117,1,0,0:0:0:0:
448,192,208219,1,0,0:0:0:0:
320,192,208219,1,0,0:0:0:0:
448,192,208321,1,0,0:0:0:0:
192,192,208321,1,0,0:0:0:0:
320,192,208423,1,0,0:0:0:0:
192,192,208525,1,0,0:0:0:0:
64,192,208525,1,0,0:0:0:0:
192,192,208627,1,0,0:0:0:0:
64,192,208729,1,0,0:0:0:0:
320,192,208729,1,0,0:0:0:0:
320,192,208831,1,0,0:0:0:0:
448,192,208933,1,0,0:0:0:0:
192,192,208933,1,0,0:0:0:0:
192,192,209034,1,0,0:0:0:0:
64,192,209034,1,0,0:0:0:0:
448,192,209135,1,0,0:0:0:0:
64,192,209236,1,0,0:0:0:0:
192,192,209236,1,0,0:0:0:0:
64,192,209337,1,0,0:0:0:0:
320,192,209337,1,0,0:0:0:0:
192,192,209438,1,0,0:0:0:0:
320,192,209539,1,0,0:0:0:0:
448,192,209539,1,0,0:0:0:0:
320,192,209640,1,0,0:0:0:0:
64,192,209741,1,0,0:0:0:0:
192,192,209741,1,0,0:0:0:0:
192,192,209842,1,0,0:0:0:0:
64,192,209943,1,0,0:0:0:0:
448,192,209943,1,0,0:0:0:0:
448,192,210044,1,0,0:0:0:0:
320,192,210044,1,0,0:0:0:0:
192,192,210145,1,0,0:0:0:0:
320,192,210246,1,0,0:0:0:0:
448,192,210246,1,0,0:0:0:0:
320,192,210347,1,0,0:0:0:0:
64,192,210347,1,0,0:0:0:0:
448,192,210448,1,0,0:0:0:0:
64,192,210549,1,0,0:0:0:0:
192,192,210549,1,0,0:0:0:0:
64,192,210650,1,0,0:0:0:0:
320,192,210751,1,0,0:0:0:0:
448,192,210751,1,0,0:0:0:0:
320,192,210852,1,0,0:0:0:0:
448,192,210953,1,0,0:0:0:0:
64,192,210953,1,0,0:0:0:0:
320,192,211054,1,0,0:0:0:0:
64,192,211054,1,0,0:0:0:0:
192,192,211155,1,0,0:0:0:0:
64,192,211256,1,0,0:0:0:0:
320,192,211256,1,0,0:0:0:0:
448,192,211357,1,0,0:0:0:0:
64,192,211357,1,0,0:0:0:0:
320,192,211458,1,0,0:0:0:0:
448,192,211559,1,0,0:0:0:0:
192,192,211559,1,0,0:0:0:0:
192,192,211660,1,0,0:0:0:0:
64,192,211761,1,0,0:0:0:0:
448,192,211761,1,0,0:0:0:0:
448,192,211862,1,0,0:0:0:0:
192,192,211963,1,0,0:0:0:0:
320,192,211963,1,0,0:0:0:0:
64,192,212064,1,0,0:0:0:0:
320,192,212064,1,0,0:0:0:0:
448,192,212165,1,0,0:0:0:0:
320,192,212266,1,0,0:0:0:0:
64,192,212266,1,0,0:0:0:0:
192,192,212367,1,0,0:0:0:0:
320,192,212367,1,0,0:0:0:0:
64,192,212468,1,0,0:0:0:0:
192,192,212569,1,0,0:0:0:0:
448,192,212569,1,0,0:0:0:0:
448,192,212670,1,0,0:0:0:0:
320,192,212771,1,0,0:0:0:0:
64,192,212771,1,0,0:0:0:0:
64,192,212872,1,0,0:0:0:0:
448,192,212973,1,0,0:0:0:0:
192,192,212973,1,0,0:0:0:0:
448,192,213074,1,0,0:0:0:0:
320,192,213074,1,0,0:0:0:0:
192,192,213175,1,0,0:0:0:0:
320,192,213276,1,0,0:0:0:0:
448,192,213276,1,0,0:0:0:0:
320,192,213377,1,0,0:0:0:0:
64,192,213377,1,0,0:0:0:0:
448,192,213478,1,0,0:0:0:0:
64,192,213579,1,0,0:0:0:0:
192,192,213579,1,0,0:0:0:0:
64,192,213680,1,0,0:0:0:0:
320,192,213781,1,0,0:0:0:0:
448,192,213781,1,0,0:0:0:0:
320,192,213882,1,0,0:0:0:0:
192,192,213983,1,0,0:0:0:0:
448,192,213983,1,0,0:0:0:0:
192,192,214084,1,0,0:0:0:0:
64,192,214084,1,0,0:0:0:0:
448,192,214185,1,0,0:0:0:0:
64,192,214286,1,0,0:0:0:0:
192,192,214286,1,0,0:0:0:0:
64,192,214387,1,0,0:0:0:0:
320,192,214387,1,0,0:0:0:0:
192,192,214488,1,0,0:0:0:0:
320,192,214589,1,0,0:0:0:0:
448,192,214589,1,0,0:0:0:0:
320,192,214690,1,0,0:0:0:0:
64,192,214791,1,0,0:0:0:0:
192,192,214791,1,0,0:0:0:0:
64,192,214892,1,0,0:0:0:0:
448,192,214993,1,0,0:0:0:0:
192,192,214993,1,0,0:0:0:0:
448,192,215094,1,0,0:0:0:0:
64,192,215094,1,0,0:0:0:0:
192,192,215195,1,0,0:0:0:0:
448,192,215296,1,0,0:0:0:0:
320,192,215296,1,0,0:0:0:0:
448,192,215397,1,0,0:0:0:0:
64,192,215397,1,0,0:0:0:0:
320,192,215498,1,0,0:0:0:0:
64,192,215599,1,0,0:0:0:0:
192,192,215599,1,0,0:0:0:0:
64,192,215700,1,0,0:0:0:0:
320,192,215801,1,0,0:0:0:0:
192,192,215801,1,0,0:0:0:0:
320,192,215902,1,0,0:0:0:0:
192,192,216003,1,0,0:0:0:0:
448,192,216003,1,0,0:0:0:0:
192,192,216104,1,0,0:0:0:0:
320,192,216104,1,0,0:0:0:0:
448,192,216205,1,0,0:0:0:0:
192,192,216306,1,0,0:0:0:0:
64,192,216306,1,0,0:0:0:0:
192,192,216407,1,0,0:0:0:0:
320,192,216407,1,0,0:0:0:0:
64,192,216508,1,0,0:0:0:0:
320,192,216609,1,0,0:0:0:0:
448,192,216609,1,0,0:0:0:0:
320,192,216710,1,0,0:0:0:0:
448,192,216811,1,0,0:0:0:0:
192,192,216811,1,0,0:0:0:0:
192,192,216912,1,0,0:0:0:0:
64,192,217013,1,0,0:0:0:0:
320,192,217013,1,0,0:0:0:0:
320,192,217114,1,0,0:0:0:0:
448,192,217114,1,0,0:0:0:0:
64,192,217215,1,0,0:0:0:0:
448,192,217316,1,0,0:0:0:0:
320,192,217316,1,0,0:0:0:0:
448,192,217417,1,0,0:0:0:0:
192,192,217417,1,0,0:0:0:0:
320,192,217518,1,0,0:0:0:0:
192,192,217619,1,0,0:0:0:0:
64,192,217619,1,0,0:0:0:0:
192,192,217720,1,0,0:0:0:0:
448,192,217821,1,0,0:0:0:0:
320,192,217821,1,0,0:0:0:0:
320,192,217922,1,0,0:0:0:0:
448,192,218023,1,0,0:0:0:0:
64,192,218023,1,0,0:0:0:0:
64,192,218124,1,0,0:0:0:0:
192,192,218124,1,0,0:0:0:0:
320,192,218225,1,0,0:0:0:0:
192,192,218326,1,0,0:0:0:0:
64,192,218326,1,0,0:0:0:0:
192,192,218427,1,0,0:0:0:0:
448,192,218427,1,0,0:0:0:0:
64,192,218528,1,0,0:0:0:0:
448,192,218629,1,0,0:0:0:0:
320,192,218629,1,0,0:0:0:0:
448,192,218730,1,0,0:0:0:0:
192,192,218831,1,0,0:0:0:0:
64,192,218831,1,0,0:0:0:0:
192,192,218933,1,0,0:0:0:0:
64,192,219034,1,0,0:0:0:0:
448,192,219034,1,0,0:0:0:0:
192,192,219135,1,0,0:0:0:0:
448,192,219135,1,0,0:0:0:0:
320,192,219236,1,0,0:0:0:0:
448,192,219337,1,0,0:0:0:0:
192,192,219337,1,0,0:0:0:0:
64,192,219438,1,0,0:0:0:0:
448,192,219438,1,0,0:0:0:0:
192,192,219539,1,0,0:0:0:0:
64,192,219640,1,0,0:0:0:0:
320,192,219640,1,0,0:0:0:0:
320,192,219741,1,0,0:0:0:0:
448,192,219842,1,0,0:0:0:0:
64,192,219842,1,0,0:0:0:0:
64,192,219943,1,0,0:0:0:0:
320,192,220044,1,0,0:0:0:0:
192,192,220044,1,0,0:0:0:0:
448,192,220145,1,0,0:0:0:0:
192,192,220145,1,0,0:0:0:0:
64,192,220246,1,0,0:0:0:0:
192,192,220347,1,0,0:0:0:0:
448,192,220347,1,0,0:0:0:0:
320,192,220448,1,0,0:0:0:0:
192,192,220448,1,0,0:0:0:0:
448,192,220549,1,0,0:0:0:0:
320,192,220650,1,0,0:0:0:0:
64,192,220650,1,0,0:0:0:0:
64,192,220751,1,0,0:0:0:0:
192,192,220852,1,0,0:0:0:0:
448,192,220852,1,0,0:0:0:0:
448,192,220953,1,0,0:0:0:0:
64,192,221054,1,0,0:0:0:0:
320,192,221054,1,0,0:0:0:0:
64,192,221155,1,0,0:0:0:0:
192,192,221155,1,0,0:0:0:0:
320,192,221256,1,0,0:0:0:0:
192,192,221357,1,0,0:0:0:0:
64,192,221357,1,0,0:0:0:0:
192,192,221458,1,0,0:0:0:0:
448,192,221458,1,0,0:0:0:0:
64,192,221559,1,0,0:0:0:0:
448,192,221660,1,0,0:0:0:0:
320,192,221660,1,0,0:0:0:0:
448,192,221761,1,0,0:0:0:0:
192,192,221862,1,0,0:0:0:0:
64,192,221862,1,0,0:0:0:0:
192,192,221963,1,0,0:0:0:0:
320,192,222064,1,0,0:0:0:0:
64,192,222064,1,0,0:0:0:0:
320,192,222165,1,0,0:0:0:0:
448,192,222165,1,0,0:0:0:0:
64,192,222266,1,0,0:0:0:0:
448,192,222367,1,0,0:0:0:0:
320,192,222367,1,0,0:0:0:0:
448,192,222468,1,0,0:0:0:0:
192,192,222468,1,0,0:0:0:0:
320,192,222569,1,0,0:0:0:0:
192,192,222670,1,0,0:0:0:0:
64,192,222670,1,0,0:0:0:0:
192,192,222771,1,0,0:0:0:0:
448,192,222872,1,0,0:0:0:0:
320,192,222872,1,0,0:0:0:0:
448,192,222973,1,0,0:0:0:0:
192,192,223074,1,0,0:0:0:0:
64,192,223074,1,0,0:0:0:0:
448,192,223175,1,0,0:0:0:0:
192,192,223175,1,0,0:0:0:0:
64,192,223276,1,0,0:0:0:0:
192,192,223377,1,0,0:0:0:0:
320,192,223377,1,0,0:0:0:0:
64,192,223478,1,0,0:0:0:0:
192,192,223478,1,0,0:0:0:0:
320,192,223579,1,0,0:0:0:0:
192,192,223680,1,0,0:0:0:0:
448,192,223680,1,0,0:0:0:0:
448,192,223781,1,0,0:0:0:0:
192,192,223882,1,0,0:0:0:0:
64,192,223882,1,0,0:0:0:0:
64,192,223983,1,0,0:0:0:0:
320,192,224084,1,0,0:0:0:0:
448,192,224084,1,0,0:0:0:0:
64,192,224185,1,0,0:0:0:0:
320,192,224185,1,0,0:0:0:0:
448,192,224286,1,0,0:0:0:0:
320,192,224387,1,0,0:0:0:0:
192,192,224387,1,0,0:0:0:0:
448,192,224488,1,0,0:0:0:0:
320,192,224488,1,0,0:0:0:0:
192,192,224589,1,0,0:0:0:0:
320,192,224690,1,0,0:0:0:0:
64,192,224690,1,0,0:0:0:0:
64,192,224791,1,0,0:0:0:0:
320,192,224892,1,0,0:0:0:0:
448,192,224892,1,0,0:0:0:0:
448,192,224993,1,0,0:0:0:0:
192,192,225094,1,0,0:0:0:0:
64,192,225094,1,0,0:0:0:0:
448,192,225194,1,0,0:0:0:0:
192,192,225194,1,0,0:0:0:0:
64,192,225294,1,0,0:0:0:0:
192,192,225394,1,0,0:0:0:0:
320,192,225394,1,0,0:0:0:0:
64,192,225494,1,0,0:0:0:0:
192,192,225494,1,0,0:0:0:0:
320,192,225594,1,0,0:0:0:0:
192,192,225694,1,0,0:0:0:0:
448,192,225694,1,0,0:0:0:0:
448,192,225794,1,0,0:0:0:0:
192,192,225894,1,0,0:0:0:0:
64,192,225894,1,0,0:0:0:0:
64,192,225994,1,0,0:0:0:0:
320,192,226094,1,0,0:0:0:0:
448,192,226094,1,0,0:0:0:0:
64,192,226194,1,0,0:0:0:0:
320,192,226194,1,0,0:0:0:0:
448,192,226294,1,0,0:0:0:0:
320,192,226394,1,0,0:0:0:0:
192,192,226394,1,0,0:0:0:0:
448,192,226494,1,0,0:0:0:0:
320,192,226494,1,0,0:0:0:0:
192,192,226594,1,0,0:0:0:0:
320,192,226694,1,0,0:0:0:0:
64,192,226694,1,0,0:0:0:0:
64,192,226794,1,0,0:0:0:0:
320,192,226894,1,0,0:0:0:0:
448,192,226894,1,0,0:0:0:0:
448,192,226994,1,0,0:0:0:0:
192,192,227094,1,0,0:0:0:0:
64,192,227094,1,0,0:0:0:0:
448,192,227194,1,0,0:0:0:0:
192,192,227194,1,0,0:0:0:0:
64,192,227295,1,0,0:0:0:0:
192,192,227396,1,0,0:0:0:0:
320,192,227396,1,0,0:0:0:0:
64,192,227496,1,0,0:0:0:0:
192,192,227496,1,0,0:0:0:0:
320,192,227597,1,0,0:0:0:0:
192,192,227698,1,0,0:0:0:0:
448,192,227698,1,0,0:0:0:0:
448,192,227798,1,0,0:0:0:0:
192,192,227899,1,0,0:0:0:0:
64,192,227899,1,0,0:0:0:0:
64,192,228000,1,0,0:0:0:0:
320,192,228100,1,0,0:0:0:0:
448,192,228100,1,0,0:0:0:0:
64,192,228201,1,0,0:0:0:0:
320,192,228201,1,0,0:0:0:0:
448,192,228302,1,0,0:0:0:0:
320,192,228402,1,0,0:0:0:0:
192,192,228402,1,0,0:0:0:0:
448,192,228503,1,0,0:0:0:0:
320,192,228503,1,0,0:0:0:0:
192,192,228604,1,0,0:0:0:0:
320,192,228704,1,0,0:0:0:0:
64,192,228704,1,0,0:0:0:0:
64,192,228805,1,0,0:0:0:0:
320,192,228906,1,0,0:0:0:0:
448,192,228906,1,0,0:0:0:0:
448,192,229006,1,0,0:0:0:0:
192,192,229107,1,0,0:0:0:0:
64,192,229107,1,0,0:0:0:0:
448,192,229208,1,0,0:0:0:0:
192,192,229208,1,0,0:0:0:0:
64,192,229309,1,0,0:0:0:0:
192,192,229411,1,0,0:0:0:0:
320,192,229411,1,0,0:0:0:0:
64,192,229512,1,0,0:0:0:0:
192,192,229512,1,0,0:0:0:0:
320,192,229613,1,0,0:0:0:0:
192,192,229715,1,0,0:0:0:0:
448,192,229715,1,0,0:0:0:0:
448,192,229816,1,0,0:0:0:0:
192,192,229917,1,0,0:0:0:0:
64,192,229917,1,0,0:0:0:0:
64,192,230019,1,0,0:0:0:0:
320,192,230120,1,0,0:0:0:0:
448,192,230120,1,0,0:0:0:0:
64,192,230221,1,0,0:0:0:0:
320,192,230221,1,0,0:0:0:0:
448,192,230323,1,0,0:0:0:0:
320,192,230424,1,0,0:0:0:0:
192,192,230424,1,0,0:0:0:0:
448,192,230525,1,0,0:0:0:0:
320,192,230525,1,0,0:0:0:0:
192,192,230627,1,0,0:0:0:0:
320,192,230728,1,0,0:0:0:0:
64,192,230728,1,0,0:0:0:0:
64,192,230829,1,0,0:0:0:0:
320,192,230931,1,0,0:0:0:0:
448,192,230931,1,0,0:0:0:0:
448,192,231032,1,0,0:0:0:0:
192,192,231134,1,0,0:0:0:0:
64,192,231134,1,0,0:0:0:0:
448,192,231184,128,0,231285:0:0:0:0:
192,192,231234,128,0,231335:0:0:0:0:
64,192,231335,1,0,0:0:0:0:
320,192,231436,1,0,0:0:0:0:
192,192,231436,1,0,0:0:0:0:
64,192,231486,128,0,231587:0:0:0:0:
192,192,231536,128,0,231637:0:0:0:0:
320,192,231637,1,0,0:0:0:0:
192,192,231738,1,0,0:0:0:0:
448,192,231738,1,0,0:0:0:0:
448,192,231838,128,0,231939:0:0:0:0:
192,192,231939,1,0,0:0:0:0:
64,192,231939,1,0,0:0:0:0:
64,192,232040,128,0,232140:0:0:0:0:
320,192,232140,1,0,0:0:0:0:
448,192,232140,1,0,0:0:0:0:
64,192,232191,128,0,232291:0:0:0:0:
320,192,232241,128,0,232342:0:0:0:0:
448,192,232342,1,0,0:0:0:0:
192,192,232442,1,0,0:0:0:0:
320,192,232442,1,0,0:0:0:0:
448,192,232493,128,0,232593:0:0:0:0:
320,192,232543,128,0,232644:0:0:0:0:
192,192,232644,1,0,0:0:0:0:
320,192,232744,1,0,0:0:0:0:
64,192,232744,1,0,0:0:0:0:
64,192,232845,128,0,232946:0:0:0:0:
320,192,232946,1,0,0:0:0:0:
448,192,232946,1,0,0:0:0:0:
448,192,233046,128,0,233147:0:0:0:0:
192,192,233147,1,0,0:0:0:0:
64,192,233147,1,0,0:0:0:0:
448,192,233214,128,0,233282:0:0:0:0:
192,192,233248,128,0,233315:0:0:0:0:
64,192,233349,1,0,0:0:0:0:
192,192,233451,1,0,0:0:0:0:
320,192,233451,1,0,0:0:0:0:
64,192,233518,128,0,233586:0:0:0:0:
192,192,233552,128,0,233619:0:0:0:0:
320,192,233653,1,0,0:0:0:0:
448,192,233755,1,0,0:0:0:0:
192,192,233755,1,0,0:0:0:0:
64,192,233856,128,0,233924:0:0:0:0:
192,192,233957,1,0,0:0:0:0:
320,192,233957,1,0,0:0:0:0:
64,192,234059,128,0,234126:0:0:0:0:
320,192,234160,1,0,0:0:0:0:
448,192,234160,1,0,0:0:0:0:
64,192,234228,128,0,234295:0:0:0:0:
320,192,234261,128,0,234329:0:0:0:0:
448,192,234363,1,0,0:0:0:0:
320,192,234464,1,0,0:0:0:0:
192,192,234464,1,0,0:0:0:0:
448,192,234532,128,0,234599:0:0:0:0:
320,192,234565,128,0,234633:0:0:0:0:
192,192,234667,1,0,0:0:0:0:
320,192,234768,1,0,0:0:0:0:
64,192,234768,1,0,0:0:0:0:
192,192,234869,128,0,234937:0:0:0:0:
64,192,234971,1,0,0:0:0:0:
448,192,234971,1,0,0:0:0:0:
320,192,235072,128,0,235140:0:0:0:0:
192,192,235174,1,0,0:0:0:0:
64,192,235174,1,0,0:0:0:0:
448,192,235275,1,0,0:0:0:0:
192,192,235275,1,0,0:0:0:0:
64,192,235376,1,0,0:0:0:0:
192,192,235477,1,0,0:0:0:0:
320,192,235477,1,0,0:0:0:0:
64,192,235578,1,0,0:0:0:0:
192,192,235578,1,0,0:0:0:0:
320,192,235679,1,0,0:0:0:0:
192,192,235780,1,0,0:0:0:0:
448,192,235780,1,0,0:0:0:0:
320,192,235881,1,0,0:0:0:0:
448,192,235982,1,0,0:0:0:0:
64,192,235982,1,0,0:0:0:0:
192,192,236083,1,0,0:0:0:0:
320,192,236184,1,0,0:0:0:0:
448,192,236184,1,0,0:0:0:0:
64,192,236251,128,0,236318:0:0:0:0:
320,192,236285,128,0,236352:0:0:0:0:
448,192,236386,1,0,0:0:0:0:
320,192,236487,1,0,0:0:0:0:
192,192,236487,1,0,0:0:0:0:
448,192,236554,128,0,236621:0:0:0:0:
320,192,236588,128,0,236655:0:0:0:0:
192,192,236689,1,0,0:0:0:0:
320,192,236790,1,0,0:0:0:0:
64,192,236790,1,0,0:0:0:0:
64,192,236891,128,0,236992:0:0:0:0:
320,192,236992,1,0,0:0:0:0:
448,192,236992,1,0,0:0:0:0:
448,192,237093,128,0,237194:0:0:0:0:
192,192,237194,1,0,0:0:0:0:
64,192,237194,1,0,0:0:0:0:
448,192,237244,128,0,237345:0:0:0:0:
192,192,237295,128,0,237396:0:0:0:0:
64,192,237396,1,0,0:0:0:0:
192,192,237497,1,0,0:0:0:0:
320,192,237497,1,0,0:0:0:0:
64,192,237547,128,0,237648:0:0:0:0:
192,192,237598,128,0,237699:0:0:0:0:
320,192,237699,1,0,0:0:0:0:
192,192,237800,1,0,0:0:0:0:
448,192,237800,1,0,0:0:0:0:
448,192,237901,128,0,238002:0:0:0:0:
192,192,238002,1,0,0:0:0:0:
64,192,238002,1,0,0:0:0:0:
64,192,238103,128,0,238204:0:0:0:0:
320,192,238204,1,0,0:0:0:0:
448,192,238204,1,0,0:0:0:0:
64,192,238254,128,0,238355:0:0:0:0:
320,192,238305,128,0,238406:0:0:0:0:
448,192,238406,1,0,0:0:0:0:
320,192,238507,1,0,0:0:0:0:
192,192,238507,1,0,0:0:0:0:
448,192,238557,128,0,238658:0:0:0:0:
320,192,238608,128,0,238709:0:0:0:0:
192,192,238709,1,0,0:0:0:0:
320,192,238810,5,0,0:0:0:0:
64,192,238810,1,0,0:0:0:0:
64,192,238911,128,0,239012:0:0:0:0:
448,192,239012,1,0,0:0:0:0:
320,192,239012,1,0,0:0:0:0:
448,192,239113,128,0,239214:0:0:0:0:
64,192,239214,128,0,239450:0:0:0:0:
192,192,239214,1,0,0:0:0:0:
320,192,239281,128,0,239382:0:0:0:0:
192,192,239349,128,0,239416:0:0:0:0:
448,192,239416,128,0,239551:0:0:0:0:
192,192,239517,128,0,239719:0:0:0:0:
320,192,239593,128,0,239668:0:0:0:0:
64,192,239668,128,0,239870:0:0:0:0:
320,192,239744,128,0,239845:0:0:0:0:
448,192,239820,128,0,240022:0:0:0:0:
320,192,239955,128,0,240089:0:0:0:0:
64,192,240022,128,0,240224:0:0:0:0:
192,192,240157,128,0,240291:0:0:0:0:
448,192,240224,128,0,240460:0:0:0:0:
320,192,240291,128,0,240392:0:0:0:0:
192,192,240359,128,0,240426:0:0:0:0:
64,192,240426,128,0,240561:0:0:0:0:
192,192,240527,128,0,240729:0:0:0:0:
320,192,240603,128,0,240679:0:0:0:0:
448,192,240679,128,0,240881:0:0:0:0:
320,192,240754,128,0,240855:0:0:0:0:
64,192,240830,128,0,241032:0:0:0:0:
320,192,240965,128,0,241099:0:0:0:0:
448,192,241032,128,0,241234:0:0:0:0:
192,192,241167,128,0,241301:0:0:0:0:
64,192,241234,128,0,241470:0:0:0:0:
320,192,241301,128,0,241402:0:0:0:0:
192,192,241369,128,0,241436:0:0:0:0:
448,192,241436,128,0,241571:0:0:0:0:
192,192,241538,128,0,241740:0:0:0:0:
320,192,241614,128,0,241690:0:0:0:0:
64,192,241690,128,0,241892:0:0:0:0:
320,192,241766,128,0,241867:0:0:0:0:
448,192,241842,128,0,242044:0:0:0:0:
320,192,241977,128,0,242112:0:0:0:0:
64,192,242044,128,0,242247:0:0:0:0:
192,192,242179,128,0,242315:0:0:0:0:
448,192,242247,128,0,242484:0:0:0:0:
320,192,242315,128,0,242416:0:0:0:0:
192,192,242382,128,0,242450:0:0:0:0:
64,192,242450,128,0,242585:0:0:0:0:
192,192,242551,128,0,242754:0:0:0:0:
320,192,242627,128,0,242703:0:0:0:0:
448,192,242703,128,0,242906:0:0:0:0:
320,192,242779,128,0,242880:0:0:0:0:
64,192,242855,128,0,243058:0:0:0:0:
320,192,242990,128,0,243125:0:0:0:0:
448,192,243058,128,0,243261:0:0:0:0:
192,192,243193,128,0,243328:0:0:0:0:
64,192,243261,128,0,243495:0:0:0:0:
320,192,243328,128,0,243428:0:0:0:0:
192,192,243395,128,0,243462:0:0:0:0:
448,192,243462,128,0,243596:0:0:0:0:
192,192,243563,128,0,243764:0:0:0:0:
320,192,243638,128,0,243714:0:0:0:0:
64,192,243714,128,0,243915:0:0:0:0:
320,192,243789,128,0,243890:0:0:0:0:
448,192,243865,128,0,244066:0:0:0:0:
320,192,243999,128,0,244133:0:0:0:0:
64,192,244066,128,0,244267:0:0:0:0:
192,192,244200,128,0,244334:0:0:0:0:
448,192,244267,128,0,244502:0:0:0:0:
320,192,244334,128,0,244435:0:0:0:0:
192,192,244401,128,0,244469:0:0:0:0:
64,192,244469,128,0,244603:0:0:0:0:
192,192,244569,128,0,244771:0:0:0:0:
320,192,244645,128,0,244720:0:0:0:0:
448,192,244720,128,0,244922:0:0:0:0:
320,192,244796,128,0,244896:0:0:0:0:
64,192,244871,128,0,245073:0:0:0:0:
320,192,245005,128,0,245140:0:0:0:0:
448,192,245073,128,0,245274:0:0:0:0:
192,192,245207,128,0,245340:0:0:0:0:
64,192,245274,128,0,245507:0:0:0:0:
320,192,245340,128,0,245440:0:0:0:0:
192,192,245407,128,0,245474:0:0:0:0:
448,192,245474,128,0,245607:0:0:0:0:
192,192,245574,128,0,245774:0:0:0:0:
320,192,245649,128,0,245724:0:0:0:0:
64,192,245724,128,0,245924:0:0:0:0:
320,192,245799,128,0,245899:0:0:0:0:
448,192,245874,128,0,246074:0:0:0:0:
320,192,246007,128,0,246140:0:0:0:0:
64,192,246074,128,0,246274:0:0:0:0:
192,192,246207,128,0,246340:0:0:0:0:
448,192,246274,128,0,246507:0:0:0:0:
320,192,246340,128,0,246440:0:0:0:0:
192,192,246407,128,0,246474:0:0:0:0:
64,192,246474,128,0,246607:0:0:0:0:
192,192,246574,128,0,246774:0:0:0:0:
320,192,246649,128,0,246724:0:0:0:0:
448,192,246724,128,0,246924:0:0:0:0:
320,192,246799,128,0,246899:0:0:0:0:
64,192,246874,128,0,247074:0:0:0:0:
320,192,247007,128,0,247140:0:0:0:0:
448,192,247074,128,0,247274:0:0:0:0:
192,192,247207,128,0,247341:0:0:0:0:
64,192,247274,128,0,247510:0:0:0:0:
320,192,247341,128,0,247442:0:0:0:0:
192,192,247409,128,0,247476:0:0:0:0:
448,192,247476,128,0,247611:0:0:0:0:
192,192,247578,128,0,247780:0:0:0:0:
320,192,247654,128,0,247730:0:0:0:0:
64,192,247730,128,0,247932:0:0:0:0:
320,192,247806,128,0,247907:0:0:0:0:
448,192,247882,128,0,248084:0:0:0:0:
320,192,248017,128,0,248152:0:0:0:0:
64,192,248084,128,0,248287:0:0:0:0:
192,192,248219,128,0,248355:0:0:0:0:
448,192,248287,128,0,248524:0:0:0:0:
320,192,248355,128,0,248456:0:0:0:0:
192,192,248422,128,0,248490:0:0:0:0:
64,192,248490,128,0,248625:0:0:0:0:
192,192,248591,128,0,248794:0:0:0:0:
320,192,248667,128,0,248743:0:0:0:0:
448,192,248743,128,0,248946:0:0:0:0:
320,192,248819,128,0,248920:0:0:0:0:
64,192,248895,128,0,249098:0:0:0:0:
320,192,249030,128,0,249165:0:0:0:0:
448,192,249098,128,0,249301:0:0:0:0:
192,192,249233,128,0,249368:0:0:0:0:
64,192,249301,128,0,249535:0:0:0:0:
320,192,249368,128,0,249468:0:0:0:0:
192,192,249435,128,0,249502:0:0:0:0:
448,192,249502,128,0,249636:0:0:0:0:
192,192,249603,128,0,249804:0:0:0:0:
320,192,249678,128,0,249754:0:0:0:0:
64,192,249754,128,0,249955:0:0:0:0:
320,192,249829,128,0,249930:0:0:0:0:
448,192,249905,128,0,250106:0:0:0:0:
320,192,250039,128,0,250173:0:0:0:0:
64,192,250106,128,0,250307:0:0:0:0:
192,192,250240,128,0,250374:0:0:0:0:
448,192,250307,128,0,250542:0:0:0:0:
320,192,250374,128,0,250475:0:0:0:0:
192,192,250441,128,0,250509:0:0:0:0:
64,192,250509,128,0,250643:0:0:0:0:
192,192,250609,128,0,250811:0:0:0:0:
320,192,250685,128,0,250760:0:0:0:0:
448,192,250760,128,0,250962:0:0:0:0:
320,192,250836,128,0,250936:0:0:0:0:
64,192,250911,128,0,251113:0:0:0:0:
320,192,251045,128,0,251180:0:0:0:0:
448,192,251113,128,0,251314:0:0:0:0:
192,192,251247,128,0,251381:0:0:0:0:
64,192,251314,128,0,251551:0:0:0:0:
320,192,251381,128,0,251483:0:0:0:0:
192,192,251449,128,0,251517:0:0:0:0:
448,192,251517,128,0,251652:0:0:0:0:
192,192,251619,128,0,251822:0:0:0:0:
320,192,251695,128,0,251771:0:0:0:0:
64,192,251771,128,0,251975:0:0:0:0:
320,192,251847,128,0,251949:0:0:0:0:
448,192,251924,128,0,252127:0:0:0:0:
320,192,252059,128,0,252195:0:0:0:0:
64,192,252127,128,0,252330:0:0:0:0:
192,192,252263,128,0,252398:0:0:0:0:
448,192,252330,128,0,252568:0:0:0:0:
320,192,252398,128,0,252500:0:0:0:0:
192,192,252466,128,0,252534:0:0:0:0:
64,192,252534,128,0,252669:0:0:0:0:
192,192,252636,128,0,252839:0:0:0:0:
320,192,252712,128,0,252788:0:0:0:0:
448,192,252788,128,0,252991:0:0:0:0:
320,192,252864,128,0,252966:0:0:0:0:
64,192,252941,128,0,253144:0:0:0:0:
320,192,253076,128,0,253212:0:0:0:0:
448,192,253144,128,0,253347:0:0:0:0:
192,192,253280,128,0,253415:0:0:0:0:
64,192,253347,128,0,253586:0:0:0:0:
320,192,253415,128,0,253518:0:0:0:0:
192,192,253483,128,0,253552:0:0:0:0:
448,192,253552,128,0,253689:0:0:0:0:
192,192,253655,128,0,253860:0:0:0:0:
320,192,253732,128,0,253809:0:0:0:0:
64,192,253809,128,0,254014:0:0:0:0:
320,192,253886,128,0,253989:0:0:0:0:
448,192,253963,128,0,254168:0:0:0:0:
320,192,254100,128,0,254237:0:0:0:0:
64,192,254168,128,0,254374:0:0:0:0:
192,192,254305,128,0,254442:0:0:0:0:
448,192,254374,128,0,254605:0:0:0:0:
320,192,254442,128,0,254545:0:0:0:0:
192,192,254511,128,0,254579:0:0:0:0:
64,192,254579,128,0,254716:0:0:0:0:
192,192,254682,128,0,254819:0:0:0:0:
64,192,254785,1,0,0:0:0:0:
320,192,254785,1,0,0:0:0:0:
448,192,254836,128,0,255042:0:0:0:0:
320,192,254888,1,0,0:0:0:0:
192,192,254888,1,0,0:0:0:0:
64,192,254990,128,0,255196:0:0:0:0:
192,192,254990,1,0,0:0:0:0:
320,192,255093,1,0,0:0:0:0:
448,192,255093,1,0,0:0:0:0:
448,192,255196,128,0,255333:0:0:0:0:
192,192,255196,1,0,0:0:0:0:
320,192,255299,1,0,0:0:0:0:
64,192,255299,1,0,0:0:0:0:
192,192,255333,128,0,255472:0:0:0:0:
64,192,255401,5,0,0:0:0:0:
448,192,255401,1,0,0:0:0:0:
320,192,255401,128,0,255827:0:0:0:0:
64,192,255720,128,0,256147:0:0:0:0:
320,192,256040,128,0,256306:0:0:0:0:
448,192,256253,128,0,256520:0:0:0:0:
192,192,256466,128,0,256786:0:0:0:0:
64,192,256786,128,0,257106:0:0:0:0:
448,192,257106,128,0,257319:0:0:0:0:
192,192,257319,128,0,257532:0:0:0:0:
320,192,257532,128,0,257798:0:0:0:0:
448,192,257852,128,0,258118:0:0:0:0:
64,192,258171,128,0,258331:0:0:0:0:
192,192,258385,128,0,258544:0:0:0:0:
448,192,258598,128,0,258811:0:0:0:0:
192,192,258917,128,0,259131:0:0:0:0:
64,192,259237,128,0,259344:0:0:0:0:
448,192,259450,128,0,259557:0:0:0:0:
192,192,259628,128,0,259697:0:0:0:0:
448,192,259663,128,0,259765:0:0:0:0:
64,192,259663,128,0,259816:0:0:0:0:
320,192,259765,128,0,259867:0:0:0:0:
192,192,259867,1,0,0:0:0:0:
448,192,259867,1,0,0:0:0:0:
320,192,259969,1,0,0:0:0:0:
64,192,259969,1,0,0:0:0:0:
448,192,260003,128,0,260139:0:0:0:0:
64,192,260071,1,0,0:0:0:0:
192,192,260071,128,0,260173:0:0:0:0:
320,192,260173,1,0,0:0:0:0:
64,192,260275,128,0,260343:0:0:0:0:
192,192,260309,128,0,260411:0:0:0:0:
448,192,260479,1,0,0:0:0:0:
320,192,260479,128,0,260581:0:0:0:0:
64,192,260530,128,0,260632:0:0:0:0:
192,192,260581,1,0,0:0:0:0:
448,192,260581,1,0,0:0:0:0:
192,192,260683,1,0,0:0:0:0:
320,192,260683,1,0,0:0:0:0:
448,192,260836,128,0,260989:0:0:0:0:
192,192,260887,1,0,0:0:0:0:
64,192,260887,1,0,0:0:0:0:
64,192,260989,1,0,0:0:0:0:
320,192,260989,1,0,0:0:0:0:
448,192,261091,1,0,0:0:0:0:
320,192,261091,128,0,261159:0:0:0:0:
192,192,261125,128,0,261227:0:0:0:0:
64,192,261193,1,0,0:0:0:0:
448,192,261295,1,0,0:0:0:0:
192,192,261295,128,0,261397:0:0:0:0:
64,192,261363,128,0,261499:0:0:0:0:
320,192,261431,128,0,261567:0:0:0:0:
448,192,261499,1,0,0:0:0:0:
64,192,261567,128,0,261703:0:0:0:0:
320,192,261635,128,0,261769:0:0:0:0:
192,192,261703,1,0,0:0:0:0:
448,192,261703,1,0,0:0:0:0:
64,192,261769,128,0,261903:0:0:0:0:
320,192,261836,128,0,261969:0:0:0:0:
192,192,261903,1,0,0:0:0:0:
448,192,262003,1,0,0:0:0:0:
64,192,262003,128,0,262136:0:0:0:0:
320,192,262103,1,0,0:0:0:0:
448,192,262103,128,0,262236:0:0:0:0:
192,192,262203,1,0,0:0:0:0:
192,192,262303,1,0,0:0:0:0:
448,192,262303,1,0,0:0:0:0:
320,192,262403,1,0,0:0:0:0:
192,192,262503,1,0,0:0:0:0:
64,192,262503,1,0,0:0:0:0:
192,192,262603,1,0,0:0:0:0:
64,192,262703,1,0,0:0:0:0:
448,192,262703,1,0,0:0:0:0:
448,192,262803,1,0,0:0:0:0:
320,192,262903,1,0,0:0:0:0:
192,192,262903,1,0,0:0:0:0:
320,192,263003,1,0,0:0:0:0:
64,192,263003,1,0,0:0:0:0:
64,192,263103,1,0,0:0:0:0:
192,192,263203,1,0,0:0:0:0:
192,192,263303,1,0,0:0:0:0:
448,192,263303,1,0,0:0:0:0:
320,192,263403,1,0,0:0:0:0:
320,192,263503,1,0,0:0:0:0:
448,192,263503,1,0,0:0:0:0:
64,192,263603,1,0,0:0:0:0:
448,192,263703,1,0,0:0:0:0:
64,192,263703,128,0,263803:0:0:0:0:
320,192,263770,128,0,263904:0:0:0:0:
192,192,263837,128,0,263904:0:0:0:0:
448,192,263904,128,0,263971:0:0:0:0:
64,192,264005,128,0,264105:0:0:0:0:
320,192,264005,1,0,0:0:0:0:
192,192,264105,128,0,264172:0:0:0:0:
320,192,264105,1,0,0:0:0:0:
448,192,264172,128,0,264239:0:0:0:0:
64,192,264239,128,0,264307:0:0:0:0:
448,192,264307,128,0,264407:0:0:0:0:
192,192,264307,1,0,0:0:0:0:
320,192,264340,128,0,264441:0:0:0:0:
192,192,264407,1,0,0:0:0:0:
64,192,264407,1,0,0:0:0:0:
320,192,264508,128,0,264609:0:0:0:0:
448,192,264508,1,0,0:0:0:0:
192,192,264558,128,0,264659:0:0:0:0:
448,192,264609,128,0,264810:0:0:0:0:
320,192,264709,1,0,0:0:0:0:
64,192,264709,1,0,0:0:0:0:
64,192,264810,1,0,0:0:0:0:
192,192,264860,128,0,264961:0:0:0:0:
448,192,264911,1,0,0:0:0:0:
320,192,264911,128,0,265011:0:0:0:0:
64,192,265011,128,0,265112:0:0:0:0:
448,192,265112,128,0,265213:0:0:0:0:
192,192,265162,128,0,265263:0:0:0:0:
64,192,265313,128,0,265414:0:0:0:0:
448,192,265313,1,0,0:0:0:0:
192,192,265371,128,0,265486:0:0:0:0:
320,192,265447,128,0,265515:0:0:0:0:
448,192,265515,128,0,265649:0:0:0:0:
192,192,265615,128,0,265716:0:0:0:0:
320,192,265716,128,0,265783:0:0:0:0:
64,192,265716,1,0,0:0:0:0:
448,192,265783,128,0,265851:0:0:0:0:
192,192,265851,128,0,265919:0:0:0:0:
448,192,265919,128,0,266021:0:0:0:0:
192,192,266021,1,0,0:0:0:0:
320,192,266021,1,0,0:0:0:0:
320,192,266122,128,0,266224:0:0:0:0:
64,192,266180,128,0,266239:0:0:0:0:
448,192,266239,128,0,266297:0:0:0:0:
320,192,266326,1,0,0:0:0:0:
64,192,266326,1,0,0:0:0:0:
448,192,266393,128,0,266461:0:0:0:0:
64,192,266461,128,0,266529:0:0:0:0:
320,192,266529,1,0,0:0:0:0:
448,192,266529,128,0,266597:0:0:0:0:
64,192,266631,128,0,266732:0:0:0:0:
192,192,266732,1,0,0:0:0:0:
448,192,266732,128,0,266834:0:0:0:0:
64,192,266834,128,0,266936:0:0:0:0:
192,192,266936,1,0,0:0:0:0:
448,192,266936,128,0,267038:0:0:0:0:
192,192,267038,1,0,0:0:0:0:
64,192,267038,128,0,267139:0:0:0:0:
320,192,267139,1,0,0:0:0:0:
448,192,267139,128,0,267241:0:0:0:0:
192,192,267241,128,0,267343:0:0:0:0:
448,192,267343,128,0,267444:0:0:0:0:
64,192,267343,1,0,0:0:0:0:
320,192,267410,128,0,267478:0:0:0:0:
64,192,267478,128,0,267546:0:0:0:0:
448,192,267546,1,0,0:0:0:0:
320,192,267546,128,0,267648:0:0:0:0:
192,192,267614,1,0,0:0:0:0:
448,192,267682,1,0,0:0:0:0:
320,192,267749,128,0,267850:0:0:0:0:
64,192,267749,128,0,267901:0:0:0:0:
192,192,267850,128,0,267951:0:0:0:0:
320,192,267951,1,0,0:0:0:0:
448,192,267951,1,0,0:0:0:0:
64,192,268053,1,0,0:0:0:0:
192,192,268053,1,0,0:0:0:0:
448,192,268086,128,0,268221:0:0:0:0:
320,192,268154,128,0,268255:0:0:0:0:
64,192,268154,1,0,0:0:0:0:
192,192,268255,1,0,0:0:0:0:
64,192,268357,128,0,268424:0:0:0:0:
192,192,268390,128,0,268492:0:0:0:0:
320,192,268559,128,0,268661:0:0:0:0:
448,192,268559,1,0,0:0:0:0:
64,192,268610,128,0,268711:0:0:0:0:
448,192,268661,1,0,0:0:0:0:
192,192,268661,1,0,0:0:0:0:
320,192,268762,1,0,0:0:0:0:
192,192,268762,1,0,0:0:0:0:
448,192,268914,128,0,269066:0:0:0:0:
64,192,268965,1,0,0:0:0:0:
192,192,268965,1,0,0:0:0:0:
320,192,269066,1,0,0:0:0:0:
64,192,269066,1,0,0:0:0:0:
320,192,269167,128,0,269235:0:0:0:0:
448,192,269167,1,0,0:0:0:0:
192,192,269201,128,0,269303:0:0:0:0:
64,192,269269,1,0,0:0:0:0:
192,192,269370,128,0,269471:0:0:0:0:
448,192,269370,1,0,0:0:0:0:
64,192,269438,128,0,269573:0:0:0:0:
320,192,269505,128,0,269640:0:0:0:0:
448,192,269573,1,0,0:0:0:0:
64,192,269640,128,0,269776:0:0:0:0:
320,192,269708,128,0,269842:0:0:0:0:
448,192,269776,1,0,0:0:0:0:
192,192,269776,1,0,0:0:0:0:
64,192,269842,128,0,269976:0:0:0:0:
320,192,269909,128,0,270043:0:0:0:0:
192,192,269976,1,0,0:0:0:0:
64,192,270077,128,0,270210:0:0:0:0:
448,192,270077,1,0,0:0:0:0:
448,192,270177,128,0,270311:0:0:0:0:
320,192,270177,1,0,0:0:0:0:
192,192,270277,1,0,0:0:0:0:
192,192,270378,1,0,0:0:0:0:
448,192,270378,1,0,0:0:0:0:
320,192,270478,1,0,0:0:0:0:
192,192,270578,1,0,0:0:0:0:
64,192,270578,1,0,0:0:0:0:
192,192,270679,1,0,0:0:0:0:
64,192,270779,1,0,0:0:0:0:
448,192,270779,1,0,0:0:0:0:
448,192,270879,1,0,0:0:0:0:
320,192,270980,1,0,0:0:0:0:
192,192,270980,1,0,0:0:0:0:
320,192,271080,1,0,0:0:0:0:
64,192,271080,1,0,0:0:0:0:
64,192,271180,1,0,0:0:0:0:
192,192,271281,1,0,0:0:0:0:
192,192,271381,1,0,0:0:0:0:
448,192,271381,1,0,0:0:0:0:
320,192,271481,1,0,0:0:0:0:
320,192,271582,1,0,0:0:0:0:
448,192,271582,1,0,0:0:0:0:
64,192,271682,1,0,0:0:0:0:
448,192,271782,1,0,0:0:0:0:
64,192,271782,128,0,271883:0:0:0:0:
320,192,271849,128,0,271983:0:0:0:0:
192,192,271916,128,0,271983:0:0:0:0:
448,192,271983,128,0,272050:0:0:0:0:
64,192,272083,128,0,272184:0:0:0:0:
320,192,272083,1,0,0:0:0:0:
192,192,272184,128,0,272250:0:0:0:0:
320,192,272184,1,0,0:0:0:0:
448,192,272250,128,0,272317:0:0:0:0:
64,192,272317,128,0,272384:0:0:0:0:
448,192,272384,128,0,272485:0:0:0:0:
192,192,272384,1,0,0:0:0:0:
320,192,272418,128,0,272518:0:0:0:0:
192,192,272485,1,0,0:0:0:0:
64,192,272485,1,0,0:0:0:0:
320,192,272585,128,0,272685:0:0:0:0:
448,192,272585,1,0,0:0:0:0:
192,192,272635,128,0,272735:0:0:0:0:
448,192,272685,128,0,272886:0:0:0:0:
320,192,272786,1,0,0:0:0:0:
64,192,272786,1,0,0:0:0:0:
64,192,272886,1,0,0:0:0:0:
192,192,272936,128,0,273036:0:0:0:0:
448,192,272986,1,0,0:0:0:0:
320,192,272986,128,0,273087:0:0:0:0:
64,192,273087,128,0,273187:0:0:0:0:
448,192,273187,128,0,273287:0:0:0:0:
192,192,273237,128,0,273337:0:0:0:0:
64,192,273388,128,0,273488:0:0:0:0:
448,192,273388,1,0,0:0:0:0:
192,192,273445,128,0,273560:0:0:0:0:
320,192,273521,128,0,273588:0:0:0:0:
448,192,273588,128,0,273722:0:0:0:0:
192,192,273689,128,0,273789:0:0:0:0:
64,192,273789,1,0,0:0:0:0:
320,192,273789,128,0,273856:0:0:0:0:
448,192,273856,128,0,273923:0:0:0:0:
192,192,273923,128,0,273990:0:0:0:0:
448,192,273990,128,0,274090:0:0:0:0:
320,192,274090,1,0,0:0:0:0:
192,192,274090,1,0,0:0:0:0:
320,192,274190,128,0,274291:0:0:0:0:
64,192,274248,128,0,274305:0:0:0:0:
448,192,274305,128,0,274362:0:0:0:0:
320,192,274391,1,0,0:0:0:0:
64,192,274391,1,0,0:0:0:0:
448,192,274458,128,0,274525:0:0:0:0:
64,192,274525,128,0,274592:0:0:0:0:
320,192,274592,1,0,0:0:0:0:
448,192,274592,128,0,274658:0:0:0:0:
64,192,274692,128,0,274792:0:0:0:0:
192,192,274792,1,0,0:0:0:0:
448,192,274792,128,0,274893:0:0:0:0:
64,192,274893,128,0,274993:0:0:0:0:
192,192,274993,1,0,0:0:0:0:
448,192,274993,128,0,275093:0:0:0:0:
192,192,275093,1,0,0:0:0:0:
64,192,275093,128,0,275194:0:0:0:0:
320,192,275194,1,0,0:0:0:0:
448,192,275194,128,0,275260:0:0:0:0:
192,192,275260,128,0,275327:0:0:0:0:
320,192,275327,128,0,275394:0:0:0:0:
448,192,275394,128,0,275495:0:0:0:0:
64,192,275394,1,0,0:0:0:0:
64,192,275495,128,0,275595:0:0:0:0:
448,192,275595,1,0,0:0:0:0:
320,192,275595,128,0,275720:0:0:0:0:
192,192,275695,1,0,0:0:0:0:
192,192,275796,128,0,275948:0:0:0:0:
448,192,275796,128,0,275897:0:0:0:0:
64,192,275897,128,0,275999:0:0:0:0:
320,192,275999,128,0,276101:0:0:0:0:
64,192,276101,1,0,0:0:0:0:
192,192,276101,1,0,0:0:0:0:
448,192,276134,128,0,276270:0:0:0:0:
320,192,276202,128,0,276406:0:0:0:0:
64,192,276202,1,0,0:0:0:0:
192,192,276304,128,0,276406:0:0:0:0:
64,192,276406,128,0,276507:0:0:0:0:
448,192,276406,1,0,0:0:0:0:
448,192,276507,1,0,0:0:0:0:
320,192,276507,128,0,276609:0:0:0:0:
64,192,276609,128,0,276711:0:0:0:0:
192,192,276609,1,0,0:0:0:0:
448,192,276660,128,0,276762:0:0:0:0:
320,192,276711,1,0,0:0:0:0:
192,192,276812,1,0,0:0:0:0:
320,192,276812,1,0,0:0:0:0:
64,192,276914,1,0,0:0:0:0:
448,192,276965,128,0,277118:0:0:0:0:
320,192,277016,1,0,0:0:0:0:
192,192,277016,1,0,0:0:0:0:
64,192,277118,1,0,0:0:0:0:
192,192,277118,1,0,0:0:0:0:
448,192,277219,128,0,277287:0:0:0:0:
320,192,277253,128,0,277355:0:0:0:0:
64,192,277321,1,0,0:0:0:0:
64,192,277423,128,0,277524:0:0:0:0:
448,192,277423,1,0,0:0:0:0:
192,192,277490,128,0,277626:0:0:0:0:
320,192,277558,128,0,277694:0:0:0:0:
448,192,277626,1,0,0:0:0:0:
192,192,277694,128,0,277829:0:0:0:0:
320,192,277762,128,0,277896:0:0:0:0:
64,192,277829,1,0,0:0:0:0:
448,192,277829,1,0,0:0:0:0:
192,192,277896,128,0,278030:0:0:0:0:
320,192,277963,128,0,278097:0:0:0:0:
64,192,278030,1,0,0:0:0:0:
192,192,278131,128,0,278265:0:0:0:0:
64,192,278131,1,0,0:0:0:0:
320,192,278231,1,0,0:0:0:0:
448,192,278231,128,0,278365:0:0:0:0:
64,192,278332,1,0,0:0:0:0:
64,192,278433,1,0,0:0:0:0:
448,192,278433,1,0,0:0:0:0:
320,192,278533,1,0,0:0:0:0:
64,192,278634,1,0,0:0:0:0:
192,192,278634,1,0,0:0:0:0:
192,192,278735,1,0,0:0:0:0:
320,192,278835,1,0,0:0:0:0:
64,192,278835,1,0,0:0:0:0:
448,192,278936,1,0,0:0:0:0:
448,192,279037,1,0,0:0:0:0:
320,192,279037,1,0,0:0:0:0:
320,192,279137,1,0,0:0:0:0:
64,192,279137,1,0,0:0:0:0:
64,192,279238,1,0,0:0:0:0:
448,192,279238,1,0,0:0:0:0:
192,192,279339,1,0,0:0:0:0:
192,192,279439,1,0,0:0:0:0:
448,192,279439,1,0,0:0:0:0:
448,192,279540,1,0,0:0:0:0:
320,192,279641,1,0,0:0:0:0:
64,192,279641,1,0,0:0:0:0:
192,192,279741,1,0,0:0:0:0:
64,192,279842,1,0,0:0:0:0:
192,192,279842,128,0,279942:0:0:0:0:
320,192,279908,128,0,280042:0:0:0:0:
448,192,279975,128,0,280042:0:0:0:0:
64,192,280042,128,0,280108:0:0:0:0:
192,192,280142,128,0,280242:0:0:0:0:
448,192,280142,1,0,0:0:0:0:
448,192,280242,128,0,280308:0:0:0:0:
320,192,280242,1,0,0:0:0:0:
64,192,280308,128,0,280375:0:0:0:0:
192,192,280375,128,0,280442:0:0:0:0:
448,192,280442,128,0,280542:0:0:0:0:
64,192,280442,1,0,0:0:0:0:
320,192,280475,128,0,280575:0:0:0:0:
192,192,280542,1,0,0:0:0:0:
192,192,280642,128,0,280742:0:0:0:0:
64,192,280642,1,0,0:0:0:0:
320,192,280692,128,0,280792:0:0:0:0:
448,192,280742,128,0,280942:0:0:0:0:
320,192,280842,1,0,0:0:0:0:
64,192,280842,1,0,0:0:0:0:
64,192,280942,1,0,0:0:0:0:
192,192,280992,128,0,281092:0:0:0:0:
448,192,281042,1,0,0:0:0:0:
320,192,281042,128,0,281142:0:0:0:0:
64,192,281142,128,0,281242:0:0:0:0:
448,192,281142,1,0,0:0:0:0:
320,192,281242,128,0,281342:0:0:0:0:
192,192,281292,128,0,281392:0:0:0:0:
64,192,281442,128,0,281542:0:0:0:0:
448,192,281442,1,0,0:0:0:0:
192,192,281492,128,0,281617:0:0:0:0:
320,192,281575,128,0,281642:0:0:0:0:
448,192,281642,128,0,281775:0:0:0:0:
192,192,281742,128,0,281842:0:0:0:0:
64,192,281842,1,0,0:0:0:0:
320,192,281842,128,0,281909:0:0:0:0:
192,192,281909,128,0,281976:0:0:0:0:
320,192,281976,128,0,282043:0:0:0:0:
64,192,282043,128,0,282144:0:0:0:0:
320,192,282144,1,0,0:0:0:0:
192,192,282144,1,0,0:0:0:0:
448,192,282244,128,0,282345:0:0:0:0:
192,192,282302,128,0,282359:0:0:0:0:
64,192,282359,128,0,282417:0:0:0:0:
320,192,282446,1,0,0:0:0:0:
192,192,282446,1,0,0:0:0:0:
448,192,282513,128,0,282580:0:0:0:0:
192,192,282580,128,0,282647:0:0:0:0:
320,192,282647,1,0,0:0:0:0:
448,192,282647,128,0,282714:0:0:0:0:
192,192,282748,128,0,282848:0:0:0:0:
64,192,282848,1,0,0:0:0:0:
448,192,282848,128,0,282949:0:0:0:0:
192,192,282949,128,0,283050:0:0:0:0:
64,192,283050,1,0,0:0:0:0:
448,192,283050,128,0,283150:0:0:0:0:
192,192,283150,128,0,283251:0:0:0:0:
320,192,283150,1,0,0:0:0:0:
448,192,283251,128,0,283318:0:0:0:0:
64,192,283318,128,0,283385:0:0:0:0:
320,192,283385,128,0,283452:0:0:0:0:
448,192,283452,128,0,283553:0:0:0:0:
192,192,283452,1,0,0:0:0:0:
192,192,283553,128,0,283654:0:0:0:0:
448,192,283654,1,0,0:0:0:0:
320,192,283654,128,0,283779:0:0:0:0:
64,192,283754,1,0,0:0:0:0:
192,192,283754,1,0,0:0:0:0:
192,192,283855,128,0,284006:0:0:0:0:
448,192,283855,128,0,283956:0:0:0:0:
64,192,283956,128,0,284056:0:0:0:0:
320,192,284056,128,0,284157:0:0:0:0:
192,192,284157,1,0,0:0:0:0:
64,192,284157,1,0,0:0:0:0:
448,192,284190,128,0,284325:0:0:0:0:
320,192,284258,128,0,284459:0:0:0:0:
64,192,284258,1,0,0:0:0:0:
192,192,284358,128,0,284459:0:0:0:0:
448,192,284459,1,0,0:0:0:0:
64,192,284459,128,0,284560:0:0:0:0:
320,192,284560,128,0,284660:0:0:0:0:
448,192,284560,1,0,0:0:0:0:
192,192,284660,1,0,0:0:0:0:
64,192,284660,128,0,284761:0:0:0:0:
448,192,284711,128,0,284811:0:0:0:0:
320,192,284761,1,0,0:0:0:0:
192,192,284862,1,0,0:0:0:0:
320,192,284862,1,0,0:0:0:0:
64,192,284962,1,0,0:0:0:0:
448,192,285013,128,0,285164:0:0:0:0:
320,192,285063,1,0,0:0:0:0:
192,192,285063,1,0,0:0:0:0:
64,192,285164,1,0,0:0:0:0:
192,192,285164,1,0,0:0:0:0:
448,192,285264,128,0,285331:0:0:0:0:
320,192,285298,128,0,285399:0:0:0:0:
64,192,285365,1,0,0:0:0:0:
64,192,285466,128,0,285566:0:0:0:0:
448,192,285466,1,0,0:0:0:0:
192,192,285533,128,0,285667:0:0:0:0:
320,192,285600,128,0,285734:0:0:0:0:
448,192,285667,1,0,0:0:0:0:
192,192,285734,128,0,285868:0:0:0:0:
320,192,285801,128,0,285935:0:0:0:0:
64,192,285868,1,0,0:0:0:0:
448,192,285868,1,0,0:0:0:0:
192,192,285935,128,0,286070:0:0:0:0:
320,192,286003,128,0,286137:0:0:0:0:
64,192,286070,1,0,0:0:0:0:
192,192,286170,128,0,286305:0:0:0:0:
64,192,286170,1,0,0:0:0:0:
320,192,286271,1,0,0:0:0:0:
448,192,286271,128,0,286405:0:0:0:0:
64,192,286372,1,0,0:0:0:0:
64,192,286472,1,0,0:0:0:0:
448,192,286472,1,0,0:0:0:0:
320,192,286573,1,0,0:0:0:0:
64,192,286674,1,0,0:0:0:0:
192,192,286674,1,0,0:0:0:0:
192,192,286774,1,0,0:0:0:0:
320,192,286875,1,0,0:0:0:0:
64,192,286875,1,0,0:0:0:0:
448,192,286976,1,0,0:0:0:0:
448,192,287076,1,0,0:0:0:0:
320,192,287076,1,0,0:0:0:0:
320,192,287177,1,0,0:0:0:0:
64,192,287177,1,0,0:0:0:0:
64,192,287278,1,0,0:0:0:0:
448,192,287278,1,0,0:0:0:0:
192,192,287378,1,0,0:0:0:0:
192,192,287479,1,0,0:0:0:0:
448,192,287479,1,0,0:0:0:0:
448,192,287580,1,0,0:0:0:0:
320,192,287680,1,0,0:0:0:0:
64,192,287680,1,0,0:0:0:0:
192,192,287781,1,0,0:0:0:0:
192,192,287881,128,0,287981:0:0:0:0:
64,192,287881,1,0,0:0:0:0:
320,192,287947,128,0,288081:0:0:0:0:
448,192,288014,128,0,288081:0:0:0:0:
64,192,288081,128,0,288147:0:0:0:0:
448,192,288181,1,0,0:0:0:0:
192,192,288181,128,0,288281:0:0:0:0:
320,192,288281,1,0,0:0:0:0:
448,192,288281,128,0,288347:0:0:0:0:
64,192,288347,128,0,288414:0:0:0:0:
192,192,288414,128,0,288481:0:0:0:0:
64,192,288481,1,0,0:0:0:0:
448,192,288481,128,0,288581:0:0:0:0:
320,192,288514,128,0,288614:0:0:0:0:
192,192,288581,1,0,0:0:0:0:
64,192,288681,1,0,0:0:0:0:
192,192,288681,128,0,288781:0:0:0:0:
320,192,288731,128,0,288831:0:0:0:0:
448,192,288781,128,0,288981:0:0:0:0:
64,192,288881,1,0,0:0:0:0:
320,192,288881,1,0,0:0:0:0:
64,192,288981,1,0,0:0:0:0:
192,192,289031,128,0,289131:0:0:0:0:
320,192,289081,128,0,289181:0:0:0:0:
448,192,289081,1,0,0:0:0:0:
448,192,289181,1,0,0:0:0:0:
64,192,289181,128,0,289281:0:0:0:0:
320,192,289281,128,0,289381:0:0:0:0:
192,192,289331,128,0,289431:0:0:0:0:
448,192,289481,1,0,0:0:0:0:
64,192,289481,128,0,289581:0:0:0:0:
192,192,289531,128,0,289656:0:0:0:0:
320,192,289614,128,0,289681:0:0:0:0:
448,192,289681,128,0,289814:0:0:0:0:
64,192,289681,1,0,0:0:0:0:
192,192,289781,128,0,289881:0:0:0:0:
320,192,289881,128,0,289948:0:0:0:0:
64,192,289881,1,0,0:0:0:0:
192,192,289948,128,0,290016:0:0:0:0:
320,192,290016,128,0,290084:0:0:0:0:
64,192,290084,128,0,290186:0:0:0:0:
192,192,290186,1,0,0:0:0:0:
320,192,290186,1,0,0:0:0:0:
448,192,290287,128,0,290389:0:0:0:0:
64,192,290287,1,0,0:0:0:0:
192,192,290345,128,0,290404:0:0:0:0:
64,192,290404,128,0,290462:0:0:0:0:
320,192,290491,1,0,0:0:0:0:
192,192,290491,1,0,0:0:0:0:
448,192,290558,128,0,290626:0:0:0:0:
192,192,290626,128,0,290694:0:0:0:0:
448,192,290694,128,0,290762:0:0:0:0:
320,192,290694,1,0,0:0:0:0:
192,192,290796,128,0,290897:0:0:0:0:
448,192,290897,128,0,290999:0:0:0:0:
64,192,290897,1,0,0:0:0:0:
192,192,290999,128,0,291101:0:0:0:0:
448,192,291101,128,0,291203:0:0:0:0:
64,192,291101,1,0,0:0:0:0:
192,192,291203,128,0,291304:0:0:0:0:
448,192,291304,128,0,291355:0:0:0:0:
320,192,291304,1,0,0:0:0:0:
64,192,291355,128,0,291431:0:0:0:0:
320,192,291431,128,0,291508:0:0:0:0:
192,192,291508,5,0,0:0:0:0:
448,192,291508,128,0,291609:0:0:0:0:
192,192,291609,128,0,291711:0:0:0:0:
64,192,291609,1,0,0:0:0:0:
320,192,291711,128,0,291813:0:0:0:0:
448,192,291711,1,0,0:0:0:0:
192,192,291813,1,0,0:0:0:0:
64,192,291813,1,0,0:0:0:0:
64,192,291914,5,0,0:0:0:0:
448,192,291914,1,0,0:0:0:0:
320,192,292012,1,0,0:0:0:0:
448,192,292110,1,0,0:0:0:0:
448,192,292208,1,0,0:0:0:0:
192,192,292208,1,0,0:0:0:0:
192,192,292306,1,0,0:0:0:0:
64,192,292306,1,0,0:0:0:0:
320,192,292404,1,0,0:0:0:0:
320,192,292502,1,0,0:0:0:0:
64,192,292502,1,0,0:0:0:0:
192,192,292600,1,0,0:0:0:0:
320,192,292698,1,0,0:0:0:0:
448,192,292698,1,0,0:0:0:0:
448,192,292796,1,0,0:0:0:0:
320,192,292894,1,0,0:0:0:0:
64,192,292894,1,0,0:0:0:0:
64,192,292992,1,0,0:0:0:0:
192,192,293090,1,0,0:0:0:0:
320,192,293090,1,0,0:0:0:0:
448,192,293188,1,0,0:0:0:0:
192,192,293188,1,0,0:0:0:0:
448,192,293286,1,0,0:0:0:0:
64,192,293286,1,0,0:0:0:0:
320,192,293384,1,0,0:0:0:0:
192,192,293482,1,0,0:0:0:0:
64,192,293482,1,0,0:0:0:0:
64,192,293580,1,0,0:0:0:0:
192,192,293678,1,0,0:0:0:0:
448,192,293678,1,0,0:0:0:0:
448,192,293776,1,0,0:0:0:0:
320,192,293874,1,0,0:0:0:0:
192,192,293874,1,0,0:0:0:0:
64,192,293971,1,0,0:0:0:0:
448,192,293971,1,0,0:0:0:0:
320,192,294069,1,0,0:0:0:0:
64,192,294069,1,0,0:0:0:0:
192,192,294167,1,0,0:0:0:0:
192,192,294264,1,0,0:0:0:0:
448,192,294264,1,0,0:0:0:0:
320,192,294362,1,0,0:0:0:0:
320,192,294460,1,0,0:0:0:0:
192,192,294558,1,0,0:0:0:0:
64,192,294558,1,0,0:0:0:0:
64,192,294655,1,0,0:0:0:0:
448,192,294655,1,0,0:0:0:0:
448,192,294753,1,0,0:0:0:0:
192,192,294753,1,0,0:0:0:0:
320,192,294851,1,0,0:0:0:0:
320,192,294948,1,0,0:0:0:0:
64,192,294948,1,0,0:0:0:0:
192,192,295046,1,0,0:0:0:0:
64,192,295046,1,0,0:0:0:0:
448,192,295144,1,0,0:0:0:0:
320,192,295242,1,0,0:0:0:0:
320,192,295339,1,0,0:0:0:0:
64,192,295437,1,0,0:0:0:0:
448,192,295437,1,0,0:0:0:0:
448,192,295535,1,0,0:0:0:0:
320,192,295632,1,0,0:0:0:0:
64,192,295632,1,0,0:0:0:0:
64,192,295730,1,0,0:0:0:0:
192,192,295828,1,0,0:0:0:0:
320,192,295828,1,0,0:0:0:0:
320,192,295926,1,0,0:0:0:0:
192,192,296023,1,0,0:0:0:0:
448,192,296023,1,0,0:0:0:0:
64,192,296121,1,0,0:0:0:0:
64,192,296219,1,0,0:0:0:0:
448,192,296219,1,0,0:0:0:0:
320,192,296316,1,0,0:0:0:0:
320,192,296414,1,0,0:0:0:0:
192,192,296414,1,0,0:0:0:0:
192,192,296512,1,0,0:0:0:0:
448,192,296512,1,0,0:0:0:0:
320,192,296610,1,0,0:0:0:0:
448,192,296610,1,0,0:0:0:0:
64,192,296707,1,0,0:0:0:0:
64,192,296805,1,0,0:0:0:0:
448,192,296805,1,0,0:0:0:0:
192,192,296903,1,0,0:0:0:0:
320,192,297001,1,0,0:0:0:0:
448,192,297001,1,0,0:0:0:0:
192,192,297098,1,0,0:0:0:0:
192,192,297196,1,0,0:0:0:0:
448,192,297196,1,0,0:0:0:0:
448,192,297294,1,0,0:0:0:0:
64,192,297391,1,0,0:0:0:0:
192,192,297391,1,0,0:0:0:0:
64,192,297489,1,0,0:0:0:0:
320,192,297489,1,0,0:0:0:0:
448,192,297587,1,0,0:0:0:0:
448,192,297685,1,0,0:0:0:0:
64,192,297685,1,0,0:0:0:0:
64,192,297782,1,0,0:0:0:0:
320,192,297782,1,0,0:0:0:0:
448,192,297880,1,0,0:0:0:0:
448,192,297978,1,0,0:0:0:0:
64,192,297978,1,0,0:0:0:0:
192,192,298076,1,0,0:0:0:0:
192,192,298174,1,0,0:0:0:0:
448,192,298174,1,0,0:0:0:0:
64,192,298272,1,0,0:0:0:0:
64,192,298370,1,0,0:0:0:0:
320,192,298370,1,0,0:0:0:0:
192,192,298468,1,0,0:0:0:0:
192,192,298566,1,0,0:0:0:0:
320,192,298566,1,0,0:0:0:0:
448,192,298664,1,0,0:0:0:0:
448,192,298762,1,0,0:0:0:0:
64,192,298762,1,0,0:0:0:0:
192,192,298860,1,0,0:0:0:0:
192,192,298958,1,0,0:0:0:0:
64,192,298958,1,0,0:0:0:0:
64,192,299056,1,0,0:0:0:0:
448,192,299056,1,0,0:0:0:0:
320,192,299154,1,0,0:0:0:0:
320,192,299252,1,0,0:0:0:0:
192,192,299350,1,0,0:0:0:0:
448,192,299350,1,0,0:0:0:0:
192,192,299448,1,0,0:0:0:0:
320,192,299546,1,0,0:0:0:0:
448,192,299644,1,0,0:0:0:0:
192,192,299693,1,0,0:0:0:0:
448,192,299742,1,0,0:0:0:0:
64,192,299742,1,0,0:0:0:0:
192,192,299842,1,0,0:0:0:0:
448,192,299942,1,0,0:0:0:0:
320,192,300042,1,0,0:0:0:0:
320,192,300142,1,0,0:0:0:0:
64,192,300142,1,0,0:0:0:0:
192,192,300242,1,0,0:0:0:0:
64,192,300342,1,0,0:0:0:0:
64,192,300442,1,0,0:0:0:0:
192,192,300542,1,0,0:0:0:0:
448,192,300542,1,0,0:0:0:0:
448,192,300642,1,0,0:0:0:0:
320,192,300742,1,0,0:0:0:0:
64,192,300842,1,0,0:0:0:0:
448,192,300842,1,0,0:0:0:0:
320,192,300942,1,0,0:0:0:0:
64,192,300942,1,0,0:0:0:0:
320,192,301042,1,0,0:0:0:0:
192,192,301142,1,0,0:0:0:0:
448,192,301242,1,0,0:0:0:0:
448,192,301342,1,0,0:0:0:0:
64,192,301342,1,0,0:0:0:0:
192,192,301442,1,0,0:0:0:0:
64,192,301442,1,0,0:0:0:0:
320,192,301542,1,0,0:0:0:0:
320,192,301642,1,0,0:0:0:0:
64,192,301642,1,0,0:0:0:0:
64,192,301742,1,0,0:0:0:0:
448,192,301742,1,0,0:0:0:0:
192,192,301742,1,0,0:0:0:0:
448,192,301842,1,0,0:0:0:0:
192,192,301943,1,0,0:0:0:0:
320,192,302044,1,0,0:0:0:0:
320,192,302144,1,0,0:0:0:0:
448,192,302144,1,0,0:0:0:0:
64,192,302144,1,0,0:0:0:0:
192,192,302245,1,0,0:0:0:0:
64,192,302346,1,0,0:0:0:0:
448,192,302396,1,0,0:0:0:0:
320,192,302446,1,0,0:0:0:0:
64,192,302497,1,0,0:0:0:0:
192,192,302547,1,0,0:0:0:0:
448,192,302547,1,0,0:0:0:0:
448,192,302648,1,0,0:0:0:0:
192,192,302648,1,0,0:0:0:0:
320,192,302748,1,0,0:0:0:0:
64,192,302849,1,0,0:0:0:0:
192,192,302950,1,0,0:0:0:0:
64,192,302950,1,0,0:0:0:0:
192,192,303050,1,0,0:0:0:0:
448,192,303050,1,0,0:0:0:0:
448,192,303151,1,0,0:0:0:0:
320,192,303252,1,0,0:0:0:0:
64,192,303252,1,0,0:0:0:0:
192,192,303352,1,0,0:0:0:0:
320,192,303352,1,0,0:0:0:0:
64,192,303453,1,0,0:0:0:0:
448,192,303554,1,0,0:0:0:0:
192,192,303604,1,0,0:0:0:0:
320,192,303654,1,0,0:0:0:0:
64,192,303705,1,0,0:0:0:0:
320,192,303755,1,0,0:0:0:0:
448,192,303755,1,0,0:0:0:0:
192,192,303856,1,0,0:0:0:0:
192,192,303957,1,0,0:0:0:0:
448,192,304059,1,0,0:0:0:0:
448,192,304160,1,0,0:0:0:0:
64,192,304160,1,0,0:0:0:0:
192,192,304261,1,0,0:0:0:0:
320,192,304363,1,0,0:0:0:0:
320,192,304464,1,0,0:0:0:0:
64,192,304464,1,0,0:0:0:0:
192,192,304565,1,0,0:0:0:0:
192,192,304667,1,0,0:0:0:0:
64,192,304667,1,0,0:0:0:0:
320,192,304717,1,0,0:0:0:0:
448,192,304768,1,0,0:0:0:0:
448,192,304869,1,0,0:0:0:0:
192,192,304869,1,0,0:0:0:0:
320,192,304971,1,0,0:0:0:0:
192,192,304971,1,0,0:0:0:0:
64,192,305072,1,0,0:0:0:0:
64,192,305173,1,0,0:0:0:0:
448,192,305173,1,0,0:0:0:0:
320,192,305275,1,0,0:0:0:0:
192,192,305376,1,0,0:0:0:0:
448,192,305376,1,0,0:0:0:0:
64,192,305376,1,0,0:0:0:0:
192,192,305477,1,0,0:0:0:0:
320,192,305579,1,0,0:0:0:0:
64,192,305680,1,0,0:0:0:0:
64,192,305782,1,0,0:0:0:0:
192,192,305782,1,0,0:0:0:0:
448,192,305884,1,0,0:0:0:0:
320,192,305986,1,0,0:0:0:0:
192,192,306054,1,0,0:0:0:0:
64,192,306122,1,0,0:0:0:0:
192,192,306190,1,0,0:0:0:0:
320,192,306190,1,0,0:0:0:0:
320,192,306292,1,0,0:0:0:0:
64,192,306292,1,0,0:0:0:0:
448,192,306394,1,0,0:0:0:0:
448,192,306496,1,0,0:0:0:0:
192,192,306496,1,0,0:0:0:0:
64,192,306598,1,0,0:0:0:0:
192,192,306598,1,0,0:0:0:0:
320,192,306598,1,0,0:0:0:0:
320,192,306700,1,0,0:0:0:0:
64,192,306802,1,0,0:0:0:0:
64,192,306904,1,0,0:0:0:0:
192,192,307006,1,0,0:0:0:0:
320,192,307006,1,0,0:0:0:0:
448,192,307006,1,0,0:0:0:0:
448,192,307108,1,0,0:0:0:0:
320,192,307210,1,0,0:0:0:0:
64,192,307312,1,0,0:0:0:0:
192,192,307363,1,0,0:0:0:0:
320,192,307414,1,0,0:0:0:0:
448,192,307414,1,0,0:0:0:0:
448,192,307516,1,0,0:0:0:0:
64,192,307516,1,0,0:0:0:0:
64,192,307618,1,0,0:0:0:0:
192,192,307618,1,0,0:0:0:0:
192,192,307720,1,0,0:0:0:0:
320,192,307720,1,0,0:0:0:0:
448,192,307822,5,0,0:0:0:0:
320,192,307822,128,0,307904:0:0:0:0:
64,192,307822,128,0,307904:0:0:0:0:
448,192,307904,128,0,307986:0:0:0:0:
320,192,308027,1,0,0:0:0:0:
64,192,308130,1,0,0:0:0:0:
320,192,308233,1,0,0:0:0:0:
192,192,308439,1,0,0:0:0:0:
320,192,308542,1,0,0:0:0:0:
64,192,308645,1,0,0:0:0:0:
320,192,308748,1,0,0:0:0:0:
448,192,308748,1,0,0:0:0:0:
192,192,308851,1,0,0:0:0:0:
64,192,308954,1,0,0:0:0:0:
192,192,309159,1,0,0:0:0:0:
320,192,309262,1,0,0:0:0:0:
448,192,309365,1,0,0:0:0:0:
64,192,309468,1,0,0:0:0:0:
320,192,309575,1,0,0:0:0:0:
448,192,309682,1,0,0:0:0:0:
192,192,309789,1,0,0:0:0:0:
320,192,309896,1,0,0:0:0:0:
448,192,310003,1,0,0:0:0:0:
320,192,310110,1,0,0:0:0:0:
192,192,310218,1,0,0:0:0:0:
320,192,310325,128,0,310639:0:0:0:0:
448,192,310325,128,0,310429:0:0:0:0:
64,192,310359,128,0,310534:0:0:0:0:
192,192,310429,1,0,0:0:0:0:
448,192,310534,128,0,311164:0:0:0:0:
64,192,310639,128,0,310849:0:0:0:0:
320,192,310744,128,0,310954:0:0:0:0:
192,192,310849,1,0,0:0:0:0:
64,192,310954,128,0,311059:0:0:0:0:
320,192,311059,128,0,311373:0:0:0:0:
64,192,311164,128,0,311269:0:0:0:0:
448,192,311269,128,0,311688:0:0:0:0:
64,192,311373,128,0,311583:0:0:0:0:
320,192,311478,128,0,311583:0:0:0:0:
192,192,311583,128,0,312003:0:0:0:0:
320,192,311667,128,0,311919:0:0:0:0:
64,192,311751,1,0,0:0:0:0:
448,192,311835,128,0,312171:0:0:0:0:
64,192,311919,1,0,0:0:0:0:
320,192,312003,128,0,312087:0:0:0:0:
192,192,312087,128,0,312255:0:0:0:0:
320,192,312171,128,0,312506:0:0:0:0:
448,192,312255,128,0,312422:0:0:0:0:
192,192,312338,128,0,312674:0:0:0:0:
64,192,312422,1,0,0:0:0:0:
448,192,312506,128,0,312674:0:0:0:0:
320,192,312590,128,0,312758:0:0:0:0:
64,192,312674,1,0,0:0:0:0:
192,192,312758,128,0,312927:0:0:0:0:
448,192,312842,1,0,0:0:0:0:
64,192,312842,128,0,312949:0:0:0:0:
320,192,312877,128,0,312984:0:0:0:0:
448,192,312949,128,0,313020:0:0:0:0:
192,192,313056,1,0,0:0:0:0:
448,192,313163,1,0,0:0:0:0:
192,192,313270,1,0,0:0:0:0:
320,192,313377,1,0,0:0:0:0:
448,192,313484,128,0,313556:0:0:0:0:
64,192,313484,1,0,0:0:0:0:
320,192,313520,128,0,313627:0:0:0:0:
64,192,313592,128,0,313734:0:0:0:0:
448,192,313699,1,0,0:0:0:0:
192,192,313806,1,0,0:0:0:0:
64,192,313913,1,0,0:0:0:0:
448,192,314020,1,0,0:0:0:0:
192,192,314126,128,0,314196:0:0:0:0:
320,192,314126,1,0,0:0:0:0:
64,192,314161,128,0,314266:0:0:0:0:
320,192,314231,128,0,314372:0:0:0:0:
192,192,314337,1,0,0:0:0:0:
320,192,314442,1,0,0:0:0:0:
64,192,314548,1,0,0:0:0:0:
192,192,314654,1,0,0:0:0:0:
64,192,314759,128,0,314833:0:0:0:0:
448,192,314759,128,0,314907:0:0:0:0:
320,192,314833,128,0,314907:0:0:0:0:
64,192,314907,128,0,314981:0:0:0:0:
320,192,314981,128,0,315055:0:0:0:0:
64,192,315055,128,0,315129:0:0:0:0:
320,192,315129,128,0,315203:0:0:0:0:
64,192,315203,128,0,315351:0:0:0:0:
192,192,315292,128,0,315381:0:0:0:0:
320,192,315381,128,0,315510:0:0:0:0:
64,192,315425,128,0,315496:0:0:0:0:
448,192,315425,1,0,0:0:0:0:
192,192,315460,128,0,315567:0:0:0:0:
448,192,315531,128,0,315674:0:0:0:0:
320,192,315638,1,0,0:0:0:0:
192,192,315745,1,0,0:0:0:0:
320,192,315852,1,0,0:0:0:0:
64,192,315958,1,0,0:0:0:0:
320,192,316065,128,0,316135:0:0:0:0:
192,192,316065,1,0,0:0:0:0:
448,192,316100,128,0,316205:0:0:0:0:
192,192,316170,128,0,316311:0:0:0:0:
448,192,316276,1,0,0:0:0:0:
192,192,316381,1,0,0:0:0:0:
64,192,316487,1,0,0:0:0:0:
320,192,316593,1,0,0:0:0:0:
64,192,316698,128,0,316769:0:0:0:0:
448,192,316698,1,0,0:0:0:0:
192,192,316734,128,0,316839:0:0:0:0:
448,192,316804,128,0,316945:0:0:0:0:
64,192,316910,1,0,0:0:0:0:
192,192,317015,1,0,0:0:0:0:
448,192,317121,1,0,0:0:0:0:
64,192,317226,1,0,0:0:0:0:
448,192,317331,128,0,317398:0:0:0:0:
320,192,317331,1,0,0:0:0:0:
192,192,317398,128,0,317466:0:0:0:0:
448,192,317466,128,0,317533:0:0:0:0:
192,192,317533,128,0,317668:0:0:0:0:
320,192,317655,128,0,317781:0:0:0:0:
64,192,317736,128,0,317849:0:0:0:0:
448,192,317736,128,0,317849:0:0:0:0:
192,192,317792,128,0,317905:0:0:0:0:
64,192,317962,128,0,318384:0:0:0:0:
320,192,317997,128,0,318173:0:0:0:0:
448,192,318173,1,0,0:0:0:0:
192,192,318278,128,0,318490:0:0:0:0:
320,192,318278,128,0,318595:0:0:0:0:
448,192,318384,1,0,0:0:0:0:
64,192,318490,1,0,0:0:0:0:
192,192,318595,128,0,318648:0:0:0:0:
448,192,318595,128,0,318648:0:0:0:0:
192,192,318701,128,0,318807:0:0:0:0:
320,192,318701,1,0,0:0:0:0:
448,192,318807,128,0,318947:0:0:0:0:
320,192,318807,128,0,319123:0:0:0:0:
64,192,318912,1,0,0:0:0:0:
64,192,319018,1,0,0:0:0:0:
192,192,319123,1,0,0:0:0:0:
448,192,319123,128,0,319546:0:0:0:0:
64,192,319159,128,0,319440:0:0:0:0:
320,192,319229,1,0,0:0:0:0:
320,192,319440,128,0,319686:0:0:0:0:
192,192,319476,128,0,319581:0:0:0:0:
64,192,319652,128,0,319721:0:0:0:0:
192,192,319652,128,0,319721:0:0:0:0:
448,192,319721,1,0,0:0:0:0:
192,192,319790,128,0,319860:0:0:0:0:
64,192,319790,128,0,319860:0:0:0:0:
448,192,319860,1,0,0:0:0:0:
192,192,319929,128,0,320068:0:0:0:0:
64,192,319929,128,0,319999:0:0:0:0:
320,192,319999,128,0,320068:0:0:0:0:
64,192,320277,128,0,320329:0:0:0:0:
192,192,320277,128,0,320329:0:0:0:0:
448,192,320329,1,0,0:0:0:0:
192,192,320381,128,0,320433:0:0:0:0:
64,192,320381,128,0,320433:0:0:0:0:
448,192,320433,1,0,0:0:0:0:
64,192,320485,128,0,320589:0:0:0:0:
192,192,320485,128,0,320641:0:0:0:0:
320,192,320537,128,0,320641:0:0:0:0:
192,192,320971,128,0,321179:0:0:0:0:
320,192,321283,128,0,321420:0:0:0:0:
64,192,321318,128,0,321471:0:0:0:0:
448,192,321318,128,0,321420:0:0:0:0:
192,192,321386,1,0,0:0:0:0:
192,192,321471,128,0,321522:0:0:0:0:
320,192,321522,128,0,321573:0:0:0:0:
448,192,321573,128,0,321624:0:0:0:0:
192,192,321624,1,0,0:0:0:0:
64,192,321624,128,0,321726:0:0:0:0:
448,192,321692,128,0,321794:0:0:0:0:
320,192,321760,128,0,321828:0:0:0:0:
192,192,321828,128,0,321896:0:0:0:0:
448,192,321930,1,0,0:0:0:0:
64,192,321930,128,0,322032:0:0:0:0:
320,192,321964,128,0,322032:0:0:0:0:
192,192,321998,128,0,322066:0:0:0:0:
320,192,322134,128,0,322236:0:0:0:0:
448,192,322134,1,0,0:0:0:0:
64,192,322192,128,0,322309:0:0:0:0:
192,192,322250,128,0,322309:0:0:0:0:
448,192,322309,128,0,322367:0:0:0:0:
192,192,322367,128,0,322425:0:0:0:0:
64,192,322440,128,0,322542:0:0:0:0:
320,192,322440,1,0,0:0:0:0:
448,192,322508,128,0,322610:0:0:0:0:
320,192,322576,128,0,322644:0:0:0:0:
192,192,322644,128,0,322712:0:0:0:0:
320,192,322746,128,0,322848:0:0:0:0:
448,192,322746,1,0,0:0:0:0:
64,192,322780,128,0,322882:0:0:0:0:
192,192,322814,128,0,322882:0:0:0:0:
192,192,322950,128,0,323050:0:0:0:0:
448,192,322950,1,0,0:0:0:0:
64,192,323017,128,0,323151:0:0:0:0:
448,192,323084,128,0,323218:0:0:0:0:
320,192,323151,1,0,0:0:0:0:
64,192,323218,128,0,323352:0:0:0:0:
448,192,323285,128,0,323419:0:0:0:0:
320,192,323352,1,0,0:0:0:0:
192,192,323352,1,0,0:0:0:0:
64,192,323419,128,0,323554:0:0:0:0:
448,192,323486,128,0,323621:0:0:0:0:
192,192,323554,1,0,0:0:0:0:
64,192,323621,128,0,323755:0:0:0:0:
320,192,323705,1,0,0:0:0:0:
192,192,323755,128,0,323906:0:0:0:0:
448,192,323755,1,0,0:0:0:0:
320,192,323856,128,0,324007:0:0:0:0:
448,192,323956,128,0,324057:0:0:0:0:
192,192,324057,128,0,324208:0:0:0:0:
64,192,324057,1,0,0:0:0:0:
448,192,324158,128,0,324309:0:0:0:0:
64,192,324258,128,0,324359:0:0:0:0:
192,192,324359,1,0,0:0:0:0:
448,192,324359,128,0,324460:0:0:0:0:
320,192,324409,128,0,324510:0:0:0:0:
192,192,324560,128,0,324661:0:0:0:0:
320,192,324560,1,0,0:0:0:0:
64,192,324627,128,0,324762:0:0:0:0:
320,192,324694,128,0,324762:0:0:0:0:
192,192,324762,128,0,324829:0:0:0:0:
448,192,324862,128,0,324963:0:0:0:0:
64,192,324862,1,0,0:0:0:0:
192,192,324913,128,0,325013:0:0:0:0:
320,192,324963,128,0,325013:0:0:0:0:
448,192,325013,128,0,325064:0:0:0:0:
64,192,325064,128,0,325114:0:0:0:0:
320,192,325114,128,0,325164:0:0:0:0:
192,192,325164,128,0,325265:0:0:0:0:
64,192,325198,128,0,325298:0:0:0:0:
448,192,325231,128,0,325298:0:0:0:0:
320,192,325366,128,0,325466:0:0:0:0:
448,192,325366,1,0,0:0:0:0:
192,192,325416,128,0,325517:0:0:0:0:
448,192,325466,128,0,325517:0:0:0:0:
320,192,325517,128,0,325567:0:0:0:0:
64,192,325567,128,0,325617:0:0:0:0:
448,192,325617,128,0,325668:0:0:0:0:
64,192,325668,128,0,325768:0:0:0:0:
192,192,325668,1,0,0:0:0:0:
320,192,325735,128,0,325835:0:0:0:0:
448,192,325802,128,0,325869:0:0:0:0:
192,192,325869,128,0,325936:0:0:0:0:
320,192,325970,1,0,0:0:0:0:
64,192,325970,128,0,326070:0:0:0:0:
192,192,326020,128,0,326121:0:0:0:0:
320,192,326070,128,0,326121:0:0:0:0:
64,192,326171,128,0,326272:0:0:0:0:
448,192,326171,1,0,0:0:0:0:
192,192,326228,128,0,326344:0:0:0:0:
320,192,326286,128,0,326344:0:0:0:0:
64,192,326344,128,0,326402:0:0:0:0:
448,192,326402,128,0,326460:0:0:0:0:
192,192,326475,128,0,326576:0:0:0:0:
64,192,326475,1,0,0:0:0:0:
320,192,326576,128,0,326634:0:0:0:0:
448,192,326634,128,0,326692:0:0:0:0:
64,192,326692,128,0,326750:0:0:0:0:
192,192,326750,128,0,326808:0:0:0:0:
320,192,326779,128,0,326880:0:0:0:0:
448,192,326779,1,0,0:0:0:0:
64,192,326829,128,0,326931:0:0:0:0:
448,192,326981,128,0,327083:0:0:0:0:
192,192,326981,1,0,0:0:0:0:
64,192,327039,128,0,327155:0:0:0:0:
320,192,327097,128,0,327155:0:0:0:0:
192,192,327155,128,0,327213:0:0:0:0:
448,192,327213,128,0,327271:0:0:0:0:
192,192,327271,128,0,327329:0:0:0:0:
64,192,327329,128,0,327387:0:0:0:0:
320,192,327387,1,0,0:0:0:0:
448,192,327387,1,0,0:0:0:0:
192,192,327437,1,0,0:0:0:0:
320,192,327488,128,0,327741:0:0:0:0:
448,192,327539,128,0,327640:0:0:0:0:
64,192,327589,128,0,327691:0:0:0:0:
192,192,327640,1,0,0:0:0:0:
448,192,327792,128,0,327893:0:0:0:0:
64,192,327792,1,0,0:0:0:0:
192,192,327850,128,0,327966:0:0:0:0:
320,192,327908,128,0,327966:0:0:0:0:
64,192,327966,128,0,328024:0:0:0:0:
320,192,328024,128,0,328082:0:0:0:0:
192,192,328096,128,0,328198:0:0:0:0:
448,192,328096,1,0,0:0:0:0:
64,192,328164,128,0,328265:0:0:0:0:
320,192,328231,128,0,328299:0:0:0:0:
192,192,328299,128,0,328366:0:0:0:0:
448,192,328400,128,0,328502:0:0:0:0:
64,192,328400,1,0,0:0:0:0:
320,192,328434,128,0,328535:0:0:0:0:
192,192,328468,128,0,328535:0:0:0:0:
320,192,328603,128,0,328704:0:0:0:0:
448,192,328603,1,0,0:0:0:0:
192,192,328671,128,0,328806:0:0:0:0:
64,192,328738,128,0,328806:0:0:0:0:
320,192,328806,128,0,328873:0:0:0:0:
448,192,328907,128,0,329008:0:0:0:0:
64,192,328907,1,0,0:0:0:0:
192,192,328950,128,0,329008:0:0:0:0:
320,192,329008,128,0,329066:0:0:0:0:
192,192,329066,128,0,329124:0:0:0:0:
320,192,329124,128,0,329182:0:0:0:0:
448,192,329182,128,0,329298:0:0:0:0:
192,192,329211,128,0,329312:0:0:0:0:
64,192,329245,128,0,329312:0:0:0:0:
320,192,329279,128,0,329346:0:0:0:0:
64,192,329414,128,0,329515:0:0:0:0:
448,192,329414,1,0,0:0:0:0:
320,192,329481,128,0,329616:0:0:0:0:
192,192,329549,128,0,329684:0:0:0:0:
64,192,329616,1,0,0:0:0:0:
320,192,329684,128,0,329819:0:0:0:0:
192,192,329752,128,0,329887:0:0:0:0:
64,192,329819,1,0,0:0:0:0:
448,192,329819,1,0,0:0:0:0:
320,192,329887,128,0,330022:0:0:0:0:
192,192,329954,128,0,330089:0:0:0:0:
448,192,330022,1,0,0:0:0:0:
448,192,330123,128,0,330326:0:0:0:0:
192,192,330225,128,0,330326:0:0:0:0:
64,192,330225,1,0,0:0:0:0:
320,192,330292,128,0,330427:0:0:0:0:
64,192,330360,128,0,330427:0:0:0:0:
448,192,330427,128,0,330495:0:0:0:0:
320,192,330529,128,0,330630:0:0:0:0:
192,192,330529,1,0,0:0:0:0:
64,192,330596,128,0,330698:0:0:0:0:
448,192,330664,128,0,330731:0:0:0:0:
192,192,330731,128,0,330799:0:0:0:0:
448,192,330833,128,0,330934:0:0:0:0:
320,192,330833,1,0,0:0:0:0:
64,192,330866,128,0,330968:0:0:0:0:
320,192,331035,128,0,331137:0:0:0:0:
192,192,331035,1,0,0:0:0:0:
448,192,331093,128,0,331209:0:0:0:0:
192,192,331151,128,0,331209:0:0:0:0:
320,192,331209,128,0,331267:0:0:0:0:
64,192,331267,128,0,331325:0:0:0:0:
448,192,331339,128,0,331441:0:0:0:0:
192,192,331339,1,0,0:0:0:0:
320,192,331383,128,0,331441:0:0:0:0:
64,192,331441,128,0,331499:0:0:0:0:
320,192,331499,128,0,331557:0:0:0:0:
448,192,331557,128,0,331615:0:0:0:0:
64,192,331643,128,0,331745:0:0:0:0:
192,192,331643,128,0,331745:0:0:0:0:
448,192,331745,1,0,0:0:0:0:
64,192,331846,128,0,331948:0:0:0:0:
320,192,331846,1,0,0:0:0:0:
192,192,331897,128,0,331998:0:0:0:0:
320,192,331948,128,0,331998:0:0:0:0:
448,192,331998,128,0,332049:0:0:0:0:
192,192,332049,128,0,332100:0:0:0:0:
320,192,332100,128,0,332150:0:0:0:0:
448,192,332150,128,0,332252:0:0:0:0:
64,192,332150,1,0,0:0:0:0:
192,192,332218,128,0,332319:0:0:0:0:
64,192,332285,128,0,332353:0:0:0:0:
320,192,332353,128,0,332421:0:0:0:0:
192,192,332454,1,0,0:0:0:0:
448,192,332454,128,0,332556:0:0:0:0:
320,192,332556,128,0,332623:0:0:0:0:
64,192,332657,128,0,332760:0:0:0:0:
192,192,332657,1,0,0:0:0:0:
448,192,332708,1,0,0:0:0:0:
192,192,332760,128,0,332863:0:0:0:0:
64,192,332812,128,0,332915:0:0:0:0:
320,192,332863,128,0,332967:0:0:0:0:
448,192,332863,1,0,0:0:0:0:
192,192,332915,1,0,0:0:0:0:
448,192,332967,128,0,333070:0:0:0:0:
320,192,333019,128,0,333122:0:0:0:0:
64,192,333070,128,0,333174:0:0:0:0:
192,192,333070,1,0,0:0:0:0:
448,192,333122,1,0,0:0:0:0:
192,192,333174,128,0,333277:0:0:0:0:
64,192,333225,128,0,333329:0:0:0:0:
320,192,333277,128,0,333450:0:0:0:0:
448,192,333277,1,0,0:0:0:0:
192,192,333346,1,0,0:0:0:0:
448,192,333415,128,0,333553:0:0:0:0:
192,192,333484,128,0,333602:0:0:0:0:
64,192,333484,1,0,0:0:0:0:
320,192,333543,128,0,333661:0:0:0:0:
64,192,333602,128,0,333661:0:0:0:0:
192,192,333661,128,0,333721:0:0:0:0:
448,192,333721,128,0,333780:0:0:0:0:
320,192,333794,128,0,333898:0:0:0:0:
64,192,333794,128,0,334001:0:0:0:0:
448,192,333898,1,0,0:0:0:0:
192,192,333950,1,0,0:0:0:0:
448,192,334001,1,0,0:0:0:0:
320,192,334105,128,0,334208:0:0:0:0:
192,192,334105,128,0,334312:0:0:0:0:
448,192,334208,1,0,0:0:0:0:
64,192,334208,1,0,0:0:0:0:
64,192,334312,128,0,334412:0:0:0:0:
320,192,334312,1,0,0:0:0:0:
192,192,334369,128,0,334484:0:0:0:0:
320,192,334427,128,0,334484:0:0:0:0:
448,192,334484,128,0,334542:0:0:0:0:
64,192,334542,128,0,334599:0:0:0:0:
320,192,334614,128,0,334714:0:0:0:0:
448,192,334614,1,0,0:0:0:0:
192,192,334681,128,0,334781:0:0:0:0:
64,192,334748,128,0,334815:0:0:0:0:
320,192,334815,128,0,334882:0:0:0:0:
64,192,334916,128,0,335016:0:0:0:0:
192,192,334916,1,0,0:0:0:0:
448,192,334949,128,0,335016:0:0:0:0:
320,192,334983,128,0,335050:0:0:0:0:
320,192,335117,128,0,335251:0:0:0:0:
192,192,335117,1,0,0:0:0:0:
448,192,335184,128,0,335318:0:0:0:0:
192,192,335251,128,0,335318:0:0:0:0:
320,192,335318,128,0,335385:0:0:0:0:
192,192,335419,128,0,335520:0:0:0:0:
64,192,335419,1,0,0:0:0:0:
448,192,335469,128,0,335570:0:0:0:0:
320,192,335520,128,0,335620:0:0:0:0:
64,192,335570,128,0,335671:0:0:0:0:
448,192,335721,128,0,335855:0:0:0:0:
192,192,335721,1,0,0:0:0:0:
320,192,335788,128,0,335855:0:0:0:0:
192,192,335855,128,0,335922:0:0:0:0:
320,192,335922,1,0,0:0:0:0:
64,192,335922,128,0,336056:0:0:0:0:
448,192,335989,128,0,336124:0:0:0:0:
192,192,336056,128,0,336124:0:0:0:0:
320,192,336124,128,0,336191:0:0:0:0:
64,192,336191,128,0,336258:0:0:0:0:
320,192,336258,128,0,336325:0:0:0:0:
448,192,336325,128,0,336392:0:0:0:0:
192,192,336392,128,0,336459:0:0:0:0:
320,192,336459,128,0,336526:0:0:0:0:
64,192,336526,1,0,0:0:0:0:
192,192,336526,1,0,0:0:0:0:
320,192,336627,1,0,0:0:0:0:
448,192,336627,1,0,0:0:0:0:
320,192,336728,128,0,336862:0:0:0:0:
64,192,336728,1,0,0:0:0:0:
192,192,336795,128,0,336862:0:0:0:0:
448,192,336862,128,0,336929:0:0:0:0:
192,192,336929,128,0,336996:0:0:0:0:
448,192,337030,128,0,337130:0:0:0:0:
64,192,337030,1,0,0:0:0:0:
320,192,337073,128,0,337188:0:0:0:0:
192,192,337130,128,0,337188:0:0:0:0:
64,192,337188,128,0,337245:0:0:0:0:
448,192,337245,128,0,337303:0:0:0:0:
320,192,337332,128,0,337432:0:0:0:0:
64,192,337332,1,0,0:0:0:0:
192,192,337365,128,0,337432:0:0:0:0:
448,192,337399,128,0,337466:0:0:0:0:
64,192,337533,128,0,337649:0:0:0:0:
320,192,337533,1,0,0:0:0:0:
192,192,337591,128,0,337707:0:0:0:0:
320,192,337649,128,0,337707:0:0:0:0:
448,192,337707,128,0,337765:0:0:0:0:
64,192,337765,128,0,337823:0:0:0:0:
320,192,337838,128,0,337939:0:0:0:0:
448,192,337838,1,0,0:0:0:0:
192,192,337905,128,0,338007:0:0:0:0:
64,192,337973,128,0,338041:0:0:0:0:
320,192,338041,128,0,338109:0:0:0:0:
192,192,338143,128,0,338244:0:0:0:0:
64,192,338143,1,0,0:0:0:0:
448,192,338177,128,0,338244:0:0:0:0:
320,192,338210,128,0,338278:0:0:0:0:
320,192,338346,128,0,338482:0:0:0:0:
192,192,338346,1,0,0:0:0:0:
448,192,338414,128,0,338549:0:0:0:0:
192,192,338482,128,0,338549:0:0:0:0:
320,192,338549,128,0,338617:0:0:0:0:
192,192,338651,128,0,338753:0:0:0:0:
64,192,338651,1,0,0:0:0:0:
448,192,338702,128,0,338804:0:0:0:0:
320,192,338753,128,0,338855:0:0:0:0:
64,192,338804,128,0,338905:0:0:0:0:
448,192,338956,128,0,339092:0:0:0:0:
192,192,338956,1,0,0:0:0:0:
320,192,339024,128,0,339092:0:0:0:0:
192,192,339092,128,0,339160:0:0:0:0:
64,192,339160,128,0,339295:0:0:0:0:
320,192,339160,1,0,0:0:0:0:
448,192,339227,128,0,339363:0:0:0:0:
192,192,339295,128,0,339363:0:0:0:0:
320,192,339363,128,0,339431:0:0:0:0:
64,192,339431,128,0,339499:0:0:0:0:
320,192,339499,128,0,339566:0:0:0:0:
448,192,339566,128,0,339634:0:0:0:0:
192,192,339634,128,0,339702:0:0:0:0:
320,192,339702,128,0,339770:0:0:0:0:
192,192,339770,1,0,0:0:0:0:
64,192,339770,1,0,0:0:0:0:
320,192,339871,1,0,0:0:0:0:
448,192,339871,1,0,0:0:0:0:
448,192,339973,128,0,340109:0:0:0:0:
64,192,339973,1,0,0:0:0:0:
320,192,340041,128,0,340177:0:0:0:0:
192,192,340109,128,0,340177:0:0:0:0:
64,192,340177,128,0,340244:0:0:0:0:
192,192,340278,128,0,340380:0:0:0:0:
448,192,340278,1,0,0:0:0:0:
320,192,340329,128,0,340431:0:0:0:0:
448,192,340380,128,0,340431:0:0:0:0:
64,192,340431,128,0,340482:0:0:0:0:
192,192,340482,128,0,340533:0:0:0:0:
320,192,340533,128,0,340583:0:0:0:0:
64,192,340583,128,0,340685:0:0:0:0:
448,192,340583,1,0,0:0:0:0:
320,192,340634,128,0,340736:0:0:0:0:
192,192,340685,128,0,340736:0:0:0:0:
64,192,340787,128,0,340922:0:0:0:0:
320,192,340787,1,0,0:0:0:0:
448,192,340854,128,0,340989:0:0:0:0:
192,192,340922,128,0,340989:0:0:0:0:
320,192,340960,128,0,341018:0:0:0:0:
64,192,341018,128,0,341076:0:0:0:0:
320,192,341091,128,0,341192:0:0:0:0:
448,192,341091,1,0,0:0:0:0:
192,192,341134,128,0,341250:0:0:0:0:
448,192,341192,128,0,341250:0:0:0:0:
320,192,341250,128,0,341308:0:0:0:0:
64,192,341308,128,0,341366:0:0:0:0:
448,192,341366,128,0,341424:0:0:0:0:
64,192,341395,128,0,341547:0:0:0:0:
192,192,341395,1,0,0:0:0:0:
320,192,341496,128,0,341597:0:0:0:0:
448,192,341597,128,0,341699:0:0:0:0:
192,192,341597,1,0,0:0:0:0:
320,192,341665,128,0,341800:0:0:0:0:
64,192,341732,128,0,341800:0:0:0:0:
192,192,341800,128,0,341868:0:0:0:0:
320,192,341901,128,0,342003:0:0:0:0:
448,192,341901,1,0,0:0:0:0:
192,192,341969,128,0,342104:0:0:0:0:
448,192,342037,128,0,342104:0:0:0:0:
64,192,342104,128,0,342172:0:0:0:0:
192,192,342205,128,0,342307:0:0:0:0:
64,192,342205,1,0,0:0:0:0:
320,192,342239,128,0,342341:0:0:0:0:
448,192,342273,128,0,342341:0:0:0:0:
64,192,342408,128,0,342508:0:0:0:0:
320,192,342408,1,0,0:0:0:0:
192,192,342475,128,0,342609:0:0:0:0:
448,192,342542,128,0,342609:0:0:0:0:
320,192,342609,128,0,342676:0:0:0:0:
448,192,342710,128,0,342810:0:0:0:0:
192,192,342710,1,0,0:0:0:0:
320,192,342777,128,0,342911:0:0:0:0:
64,192,342844,128,0,342911:0:0:0:0:
192,192,342911,128,0,342978:0:0:0:0:
448,192,343012,128,0,343079:0:0:0:0:
320,192,343012,128,0,343146:0:0:0:0:
64,192,343079,1,0,0:0:0:0:
192,192,343079,1,0,0:0:0:0:
192,192,343213,128,0,343314:0:0:0:0:
448,192,343213,128,0,343414:0:0:0:0:
320,192,343347,1,0,0:0:0:0:
192,192,343481,1,0,0:0:0:0:
320,192,343481,1,0,0:0:0:0:
448,192,343515,128,0,343616:0:0:0:0:
64,192,343515,128,0,343716:0:0:0:0:
192,192,343616,1,0,0:0:0:0:
320,192,343716,1,0,0:0:0:0:
64,192,343817,128,0,343884:0:0:0:0:
192,192,343817,128,0,343951:0:0:0:0:
448,192,343918,1,0,0:0:0:0:
320,192,343968,1,0,0:0:0:0:
448,192,344018,128,0,344220:0:0:0:0:
64,192,344018,128,0,344119:0:0:0:0:
64,192,344152,1,0,0:0:0:0:
320,192,344287,1,0,0:0:0:0:
64,192,344287,1,0,0:0:0:0:
448,192,344320,128,0,344421:0:0:0:0:
192,192,344320,128,0,344522:0:0:0:0:
320,192,344421,1,0,0:0:0:0:
192,192,344555,1,0,0:0:0:0:
448,192,344622,128,0,344689:0:0:0:0:
320,192,344622,128,0,344756:0:0:0:0:
64,192,344723,1,0,0:0:0:0:
192,192,344824,128,0,344924:0:0:0:0:
448,192,344824,128,0,345025:0:0:0:0:
320,192,344924,1,0,0:0:0:0:
64,192,345025,1,0,0:0:0:0:
192,192,345075,1,0,0:0:0:0:
448,192,345126,128,0,345226:0:0:0:0:
64,192,345126,128,0,345327:0:0:0:0:
320,192,345176,1,0,0:0:0:0:
192,192,345226,1,0,0:0:0:0:
320,192,345327,1,0,0:0:0:0:
64,192,345428,128,0,345495:0:0:0:0:
192,192,345428,128,0,345562:0:0:0:0:
448,192,345528,1,0,0:0:0:0:
64,192,345629,128,0,345727:0:0:0:0:
320,192,345629,128,0,345825:0:0:0:0:
448,192,345759,1,0,0:0:0:0:
192,192,345759,1,0,0:0:0:0:
320,192,345890,1,0,0:0:0:0:
448,192,345890,1,0,0:0:0:0:
192,192,345923,128,0,346021:0:0:0:0:
64,192,345923,128,0,346119:0:0:0:0:
320,192,346021,1,0,0:0:0:0:
192,192,346217,128,0,346282:0:0:0:0:
448,192,346217,128,0,346282:0:0:0:0:
192,192,346315,1,0,0:0:0:0:
320,192,346315,1,0,0:0:0:0:
64,192,346413,1,0,0:0:0:0:
448,192,346413,1,0,0:0:0:0:
64,192,346511,1,0,0:0:0:0:
448,192,346511,1,0,0:0:0:0:
192,192,346609,1,0,0:0:0:0:
320,192,346658,1,0,0:0:0:0:
64,192,346707,1,0,0:0:0:0:
320,192,346756,1,0,0:0:0:0:
448,192,346805,1,0,0:0:0:0:
192,192,346805,1,0,0:0:0:0:
448,192,346903,1,0,0:0:0:0:
64,192,347001,1,0,0:0:0:0:
64,192,347099,1,0,0:0:0:0:
192,192,347197,128,0,347297:0:0:0:0:
320,192,347197,128,0,347397:0:0:0:0:
448,192,347197,1,0,0:0:0:0:
192,192,347397,1,0,0:0:0:0:
64,192,347497,128,0,347597:0:0:0:0:
448,192,347497,128,0,347697:0:0:0:0:
320,192,347597,1,0,0:0:0:0:
192,192,347697,1,0,0:0:0:0:
64,192,347797,128,0,347863:0:0:0:0:
448,192,347797,128,0,347930:0:0:0:0:
192,192,347997,128,0,348097:0:0:0:0:
64,192,347997,128,0,348197:0:0:0:0:
320,192,348097,1,0,0:0:0:0:
192,192,348197,1,0,0:0:0:0:
64,192,348297,128,0,348397:0:0:0:0:
448,192,348297,128,0,348497:0:0:0:0:
192,192,348397,1,0,0:0:0:0:
448,192,348597,128,0,348663:0:0:0:0:
320,192,348597,128,0,348730:0:0:0:0:
64,192,348697,1,0,0:0:0:0:
192,192,348797,1,0,0:0:0:0:
320,192,348797,1,0,0:0:0:0:
320,192,348895,1,0,0:0:0:0:
192,192,348945,1,0,0:0:0:0:
64,192,348994,1,0,0:0:0:0:
320,192,349043,1,0,0:0:0:0:
192,192,349093,128,0,349158:0:0:0:0:
448,192,349093,128,0,349191:0:0:0:0:
64,192,349191,1,0,0:0:0:0:
192,192,349191,1,0,0:0:0:0:
448,192,349290,1,0,0:0:0:0:
192,192,349389,128,0,349454:0:0:0:0:
448,192,349389,128,0,349520:0:0:0:0:
320,192,349487,1,0,0:0:0:0:
192,192,349586,1,0,0:0:0:0:
320,192,349586,1,0,0:0:0:0:
448,192,349642,1,0,0:0:0:0:
192,192,349699,1,0,0:0:0:0:
64,192,349755,1,0,0:0:0:0:
448,192,349812,1,0,0:0:0:0:
64,192,349882,1,0,0:0:0:0:
320,192,349882,1,0,0:0:0:0:
192,192,349924,1,0,0:0:0:0:
320,192,349981,1,0,0:0:0:0:
448,192,350047,1,0,0:0:0:0:
192,192,350112,1,0,0:0:0:0:
64,192,350178,1,0,0:0:0:0:
320,192,350178,1,0,0:0:0:0:
192,192,350244,1,0,0:0:0:0:
448,192,350244,1,0,0:0:0:0:
64,192,350375,128,0,350472:0:0:0:0:
448,192,350375,128,0,350570:0:0:0:0:
320,192,350668,128,0,350765:0:0:0:0:
192,192,350668,128,0,350863:0:0:0:0:
64,192,350765,1,0,0:0:0:0:
448,192,350765,1,0,0:0:0:0:
320,192,350961,128,0,351026:0:0:0:0:
448,192,350961,128,0,351091:0:0:0:0:
64,192,351059,1,0,0:0:0:0:
320,192,351156,128,0,351254:0:0:0:0:
192,192,351156,128,0,351352:0:0:0:0:
64,192,351254,1,0,0:0:0:0:
448,192,351352,1,0,0:0:0:0:
192,192,351449,128,0,351547:0:0:0:0:
448,192,351449,128,0,351645:0:0:0:0:
320,192,351547,1,0,0:0:0:0:
64,192,351612,1,0,0:0:0:0:
448,192,351677,1,0,0:0:0:0:
64,192,351743,128,0,351808:0:0:0:0:
320,192,351743,128,0,351873:0:0:0:0:
192,192,351808,1,0,0:0:0:0:
448,192,351873,1,0,0:0:0:0:
64,192,351938,128,0,352038:0:0:0:0:
192,192,351938,128,0,352138:0:0:0:0:
320,192,352038,1,0,0:0:0:0:
448,192,352138,1,0,0:0:0:0:
320,192,352238,128,0,352338:0:0:0:0:
192,192,352238,128,0,352438:0:0:0:0:
448,192,352338,1,0,0:0:0:0:
64,192,352438,1,0,0:0:0:0:
448,192,352538,128,0,352671:0:0:0:0:
320,192,352538,128,0,352604:0:0:0:0:
64,192,352638,1,0,0:0:0:0:
320,192,352738,128,0,352838:0:0:0:0:
192,192,352738,128,0,352938:0:0:0:0:
320,192,352871,1,0,0:0:0:0:
448,192,352938,1,0,0:0:0:0:
192,192,353038,128,0,353138:0:0:0:0:
448,192,353038,128,0,353238:0:0:0:0:
320,192,353138,1,0,0:0:0:0:
64,192,353238,1,0,0:0:0:0:
448,192,353338,128,0,353471:0:0:0:0:
192,192,353338,128,0,353438:0:0:0:0:
448,192,353538,128,0,353636:0:0:0:0:
320,192,353538,128,0,353735:0:0:0:0:
192,192,353538,1,0,0:0:0:0:
192,192,353669,1,0,0:0:0:0:
64,192,353669,1,0,0:0:0:0:
64,192,353801,1,0,0:0:0:0:
320,192,353834,128,0,353932:0:0:0:0:
448,192,353834,128,0,354031:0:0:0:0:
64,192,354064,1,0,0:0:0:0:
320,192,354130,128,0,354195:0:0:0:0:
448,192,354130,128,0,354261:0:0:0:0:
192,192,354195,1,0,0:0:0:0:
64,192,354195,1,0,0:0:0:0:
192,192,354327,128,0,354524:0:0:0:0:
320,192,354327,128,0,354426:0:0:0:0:
448,192,354327,1,0,0:0:0:0:
448,192,354459,1,0,0:0:0:0:
320,192,354590,1,0,0:0:0:0:
448,192,354590,1,0,0:0:0:0:
192,192,354623,128,0,354820:0:0:0:0:
64,192,354623,128,0,354722:0:0:0:0:
448,192,354853,1,0,0:0:0:0:
192,192,354919,128,0,354985:0:0:0:0:
64,192,354919,128,0,355051:0:0:0:0:
320,192,354985,1,0,0:0:0:0:
448,192,354985,1,0,0:0:0:0:
192,192,355116,128,0,355216:0:0:0:0:
320,192,355116,128,0,355316:0:0:0:0:
64,192,355116,1,0,0:0:0:0:
64,192,355249,1,0,0:0:0:0:
192,192,355382,1,0,0:0:0:0:
64,192,355382,1,0,0:0:0:0:
320,192,355416,128,0,355516:0:0:0:0:
448,192,355416,128,0,355616:0:0:0:0:
64,192,355649,1,0,0:0:0:0:
320,192,355716,128,0,355782:0:0:0:0:
448,192,355716,128,0,355849:0:0:0:0:
192,192,355782,1,0,0:0:0:0:
64,192,355782,1,0,0:0:0:0:
448,192,355916,1,0,0:0:0:0:
320,192,355916,128,0,356016:0:0:0:0:
192,192,355916,128,0,356116:0:0:0:0:
448,192,356016,1,0,0:0:0:0:
320,192,356216,128,0,356316:0:0:0:0:
448,192,356216,128,0,356416:0:0:0:0:
64,192,356316,1,0,0:0:0:0:
192,192,356316,1,0,0:0:0:0:
320,192,356416,1,0,0:0:0:0:
64,192,356516,1,0,0:0:0:0:
192,192,356566,1,0,0:0:0:0:
320,192,356616,1,0,0:0:0:0:
448,192,356666,1,0,0:0:0:0:
192,192,356716,128,0,356816:0:0:0:0:
64,192,356716,128,0,356816:0:0:0:0:
320,192,356849,1,0,0:0:0:0:
448,192,356849,1,0,0:0:0:0:
64,192,356916,128,0,357016:0:0:0:0:
192,192,356916,128,0,357016:0:0:0:0:
448,192,356982,1,0,0:0:0:0:
320,192,356982,1,0,0:0:0:0:
64,192,357116,128,0,357182:0:0:0:0:
192,192,357116,128,0,357182:0:0:0:0:
64,192,357216,128,0,357316:0:0:0:0:
448,192,357249,1,0,0:0:0:0:
448,192,357382,1,0,0:0:0:0:
64,192,357416,128,0,357516:0:0:0:0:
192,192,357416,128,0,357516:0:0:0:0:
448,192,357516,1,0,0:0:0:0:
320,192,357516,1,0,0:0:0:0:
192,192,357616,128,0,357716:0:0:0:0:
64,192,357616,128,0,357716:0:0:0:0:
320,192,357716,1,0,0:0:0:0:
192,192,357816,128,0,357882:0:0:0:0:
64,192,357816,128,0,357882:0:0:0:0:
448,192,357866,1,0,0:0:0:0:
320,192,357916,1,0,0:0:0:0:
192,192,357916,128,0,358016:0:0:0:0:
448,192,358016,1,0,0:0:0:0:
64,192,358116,128,0,358216:0:0:0:0:
320,192,358116,128,0,358216:0:0:0:0:
192,192,358216,1,0,0:0:0:0:
448,192,358316,128,0,358415:0:0:0:0:
320,192,358316,128,0,358415:0:0:0:0:
192,192,358448,1,0,0:0:0:0:
64,192,358448,1,0,0:0:0:0:
320,192,358514,128,0,358614:0:0:0:0:
448,192,358514,128,0,358614:0:0:0:0:
64,192,358580,1,0,0:0:0:0:
448,192,358713,128,0,358779:0:0:0:0:
320,192,358713,128,0,358779:0:0:0:0:
64,192,358779,1,0,0:0:0:0:
448,192,358812,128,0,358912:0:0:0:0:
192,192,358845,1,0,0:0:0:0:
192,192,358978,1,0,0:0:0:0:
448,192,359011,128,0,359110:0:0:0:0:
320,192,359011,128,0,359110:0:0:0:0:
64,192,359044,1,0,0:0:0:0:
64,192,359110,1,0,0:0:0:0:
192,192,359110,1,0,0:0:0:0:
320,192,359210,128,0,359309:0:0:0:0:
448,192,359210,128,0,359309:0:0:0:0:
320,192,359408,128,0,359474:0:0:0:0:
448,192,359408,128,0,359474:0:0:0:0:
320,192,359508,128,0,359607:0:0:0:0:
64,192,359574,1,0,0:0:0:0:
192,192,359640,1,0,0:0:0:0:
320,192,359706,1,0,0:0:0:0:
64,192,359772,1,0,0:0:0:0:
320,192,359839,1,0,0:0:0:0:
192,192,359905,128,0,360007:0:0:0:0:
448,192,359905,1,0,0:0:0:0:
64,192,359905,1,0,0:0:0:0:
448,192,359986,128,0,360068:0:0:0:0:
320,192,360007,128,0,360109:0:0:0:0:
192,192,360109,1,0,0:0:0:0:
64,192,360211,1,0,0:0:0:0:
320,192,360313,1,0,0:0:0:0:
192,192,360517,1,0,0:0:0:0:
320,192,360619,1,0,0:0:0:0:
64,192,360721,1,0,0:0:0:0:
320,192,360823,1,0,0:0:0:0:
448,192,360823,1,0,0:0:0:0:
192,192,360925,1,0,0:0:0:0:
64,192,361027,1,0,0:0:0:0:
192,192,361231,1,0,0:0:0:0:
320,192,361333,1,0,0:0:0:0:
448,192,361435,1,0,0:0:0:0:
64,192,361537,1,0,0:0:0:0:
320,192,361639,1,0,0:0:0:0:
448,192,361741,1,0,0:0:0:0:
192,192,361843,1,0,0:0:0:0:
320,192,361945,1,0,0:0:0:0:
448,192,362047,1,0,0:0:0:0:
320,192,362149,1,0,0:0:0:0:
192,192,362251,1,0,0:0:0:0:
320,192,362353,128,0,362667:0:0:0:0:
448,192,362353,128,0,362457:0:0:0:0:
64,192,362387,128,0,362562:0:0:0:0:
192,192,362457,1,0,0:0:0:0:
448,192,362562,128,0,363192:0:0:0:0:
64,192,362667,128,0,362877:0:0:0:0:
320,192,362772,128,0,362982:0:0:0:0:
192,192,362877,1,0,0:0:0:0:
64,192,362982,128,0,363087:0:0:0:0:
320,192,363087,128,0,363401:0:0:0:0:
64,192,363192,128,0,363297:0:0:0:0:
448,192,363297,128,0,363716:0:0:0:0:
64,192,363401,128,0,363900:0:0:0:0:
320,192,363506,128,0,363611:0:0:0:0:
192,192,363611,1,0,0:0:0:0:
320,192,363716,128,0,364031:0:0:0:0:
448,192,363821,128,0,364346:0:0:0:0:
192,192,363926,1,0,0:0:0:0:
64,192,364031,128,0,364136:0:0:0:0:
320,192,364136,128,0,364660:0:0:0:0:
64,192,364241,128,0,364450:0:0:0:0:
192,192,364346,1,0,0:0:0:0:
448,192,364450,128,0,364765:0:0:0:0:
64,192,364555,128,0,364765:0:0:0:0:
192,192,364660,1,0,0:0:0:0:
320,192,364765,128,0,364870:0:0:0:0:
192,192,364870,1,0,0:0:0:0:
448,192,364870,1,0,0:0:0:0:
64,192,364870,128,0,364973:0:0:0:0:
192,192,364973,128,0,365076:0:0:0:0:
448,192,365007,1,0,0:0:0:0:
320,192,365042,128,0,365111:0:0:0:0:
448,192,365180,128,0,365387:0:0:0:0:
64,192,365180,1,0,0:0:0:0:
320,192,365206,1,0,0:0:0:0:
64,192,365283,128,0,365490:0:0:0:0:
192,192,365361,128,0,365456:0:0:0:0:
320,192,365490,1,0,0:0:0:0:
448,192,365594,1,0,0:0:0:0:
320,192,365697,1,0,0:0:0:0:
192,192,365801,1,0,0:0:0:0:
448,192,365904,1,0,0:0:0:0:
64,192,366007,1,0,0:0:0:0:
320,192,366214,1,0,0:0:0:0:
192,192,366318,1,0,0:0:0:0:
64,192,366421,1,0,0:0:0:0:
448,192,366525,1,0,0:0:0:0:
192,192,366628,1,0,0:0:0:0:
64,192,366732,1,0,0:0:0:0:
192,192,366835,1,0,0:0:0:0:
448,192,366938,1,0,0:0:0:0:
64,192,367042,1,0,0:0:0:0:
320,192,367145,1,0,0:0:0:0:
192,192,367249,1,0,0:0:0:0:
320,192,367352,128,0,367456:0:0:0:0:
448,192,367352,128,0,367666:0:0:0:0:
64,192,367386,128,0,367561:0:0:0:0:
192,192,367456,1,0,0:0:0:0:
320,192,367561,128,0,367771:0:0:0:0:
64,192,367666,128,0,367876:0:0:0:0:
448,192,367771,128,0,367981:0:0:0:0:
320,192,367876,128,0,368086:0:0:0:0:
64,192,367981,128,0,368296:0:0:0:0:
448,192,368086,128,0,368400:0:0:0:0:
320,192,368191,128,0,368505:0:0:0:0:
192,192,368296,1,0,0:0:0:0:
64,192,368400,128,0,368925:0:0:0:0:
448,192,368505,128,0,368610:0:0:0:0:
320,192,368610,128,0,368820:0:0:0:0:
448,192,368715,128,0,369030:0:0:0:0:
192,192,368820,1,0,0:0:0:0:
320,192,368925,128,0,369030:0:0:0:0:
64,192,369030,128,0,369135:0:0:0:0:
192,192,369030,1,0,0:0:0:0:
320,192,369135,128,0,369240:0:0:0:0:
448,192,369135,1,0,0:0:0:0:
64,192,369240,128,0,369345:0:0:0:0:
448,192,369240,128,0,369449:0:0:0:0:
320,192,369345,128,0,369554:0:0:0:0:
192,192,369345,1,0,0:0:0:0:
192,192,369449,1,0,0:0:0:0:
64,192,369449,1,0,0:0:0:0:
64,192,369554,128,0,369659:0:0:0:0:
448,192,369554,128,0,369659:0:0:0:0:
320,192,369659,128,0,369764:0:0:0:0:
192,192,369659,1,0,0:0:0:0:
448,192,369764,128,0,369869:0:0:0:0:
64,192,369764,1,0,0:0:0:0:
192,192,369869,128,0,370069:0:0:0:0:
320,192,369869,128,0,370019:0:0:0:0:
64,192,369869,128,0,369969:0:0:0:0:
448,192,370069,1,0,0:0:0:0:
64,192,370294,5,0,0:0:0:0:
320,192,370335,1,0,0:0:0:0:
448,192,370335,1,0,0:0:0:0:
192,192,370369,1,0,0:0:0:0:
320,192,370469,1,0,0:0:0:0:
64,192,370502,1,0,0:0:0:0:
448,192,370502,1,0,0:0:0:0:
64,192,370669,1,0,0:0:0:0:
320,192,370669,1,0,0:0:0:0:
192,192,370706,1,0,0:0:0:0:
320,192,371120,1,0,0:0:0:0:
448,192,371120,1,0,0:0:0:0:
320,192,371477,128,0,372032:0:0:0:0:
192,192,371477,128,0,371921:0:0:0:0:
64,192,371477,128,0,371810:0:0:0:0:
448,192,371773,128,0,372143:0:0:0:0:
64,192,372180,1,0,0:0:0:0:
192,192,372180,1,0,0:0:0:0:
192,192,372291,1,0,0:0:0:0:
64,192,372291,1,0,0:0:0:0:
64,192,372365,128,0,372486:0:0:0:0:
320,192,372365,128,0,372527:0:0:0:0:
448,192,372365,128,0,372928:0:0:0:0:
320,192,372608,128,0,372848:0:0:0:0:
64,192,372689,1,0,0:0:0:0:
192,192,372689,128,0,372848:0:0:0:0:
64,192,372795,128,0,373008:0:0:0:0:
192,192,373008,128,0,373388:0:0:0:0:
448,192,373008,128,0,373111:0:0:0:0:
320,192,373163,128,0,373241:0:0:0:0:
64,192,373241,128,0,373318:0:0:0:0:
448,192,373318,128,0,373599:0:0:0:0:
320,192,373318,1,0,0:0:0:0:
64,192,373388,128,0,373529:0:0:0:0:
320,192,373529,128,0,373719:0:0:0:0:
64,192,373599,1,0,0:0:0:0:
192,192,373599,128,0,373679:0:0:0:0:
448,192,373719,1,0,0:0:0:0:
64,192,373759,128,0,373989:0:0:0:0:
448,192,373839,1,0,0:0:0:0:
320,192,373839,128,0,373939:0:0:0:0:
192,192,373876,128,0,374286:0:0:0:0:
448,192,373989,128,0,374139:0:0:0:0:
64,192,374139,128,0,374433:0:0:0:0:
320,192,374139,1,0,0:0:0:0:
320,192,374286,128,0,374384:0:0:0:0:
448,192,374433,128,0,374613:0:0:0:0:
192,192,374433,1,0,0:0:0:0:
64,192,374493,128,0,374673:0:0:0:0:
448,192,374673,128,0,374854:0:0:0:0:
192,192,374673,1,0,0:0:0:0:
320,192,374793,128,0,374874:0:0:0:0:
192,192,374854,128,0,374973:0:0:0:0:
64,192,374914,128,0,375033:0:0:0:0:
448,192,374914,1,0,0:0:0:0:
320,192,374973,128,0,375093:0:0:0:0:
448,192,375093,128,0,375209:0:0:0:0:
320,192,375153,128,0,375265:0:0:0:0:
64,192,375153,1,0,0:0:0:0:
192,192,375265,128,0,375378:0:0:0:0:
448,192,375378,128,0,375595:0:0:0:0:
64,192,375378,1,0,0:0:0:0:
320,192,375432,1,0,0:0:0:0:
192,192,375486,128,0,375595:0:0:0:0:
64,192,375595,128,0,375812:0:0:0:0:
320,192,375595,1,0,0:0:0:0:
192,192,375649,1,0,0:0:0:0:
448,192,375704,128,0,375812:0:0:0:0:
192,192,375812,1,0,0:0:0:0:
320,192,375812,128,0,375915:0:0:0:0:
64,192,375915,128,0,376018:0:0:0:0:
320,192,376018,128,0,376119:0:0:0:0:
448,192,376018,1,0,0:0:0:0:
192,192,376068,128,0,376220:0:0:0:0:
64,192,376170,1,0,0:0:0:0:
320,192,376220,1,0,0:0:0:0:
448,192,376220,128,0,376370:0:0:0:0:
192,192,376270,1,0,0:0:0:0:
320,192,376320,128,0,376466:0:0:0:0:
448,192,376420,128,0,376512:0:0:0:0:
64,192,376420,1,0,0:0:0:0:
192,192,376512,128,0,376604:0:0:0:0:
64,192,376558,1,0,0:0:0:0:
448,192,376604,128,0,376692:0:0:0:0:
320,192,376604,1,0,0:0:0:0:
64,192,376692,128,0,376780:0:0:0:0:
192,192,376736,128,0,376826:0:0:0:0:
320,192,376780,128,0,376918:0:0:0:0:
448,192,376780,1,0,0:0:0:0:
64,192,376872,128,0,376964:0:0:0:0:
448,192,376964,128,0,377064:0:0:0:0:
192,192,376964,1,0,0:0:0:0:
320,192,377064,128,0,377164:0:0:0:0:
192,192,377114,128,0,377250:0:0:0:0:
448,192,377164,128,0,377337:0:0:0:0:
64,192,377164,1,0,0:0:0:0:
320,192,377250,128,0,377337:0:0:0:0:
64,192,377337,1,0,0:0:0:0:
192,192,377337,128,0,377424:0:0:0:0:
320,192,377424,128,0,377511:0:0:0:0:
448,192,377511,1,0,0:0:0:0:
64,192,377511,1,0,0:0:0:0:
192,192,377598,128,0,377684:0:0:0:0:
320,192,377642,1,0,0:0:0:0:
64,192,377684,1,0,0:0:0:0:
448,192,377684,128,0,377770:0:0:0:0:
192,192,377813,128,0,377899:0:0:0:0:
448,192,377856,1,0,0:0:0:0:
64,192,377856,128,0,377942:0:0:0:0:
320,192,377899,128,0,378028:0:0:0:0:
448,192,377985,1,0,0:0:0:0:
64,192,378028,1,0,0:0:0:0:
192,192,378028,128,0,378216:0:0:0:0:
320,192,378122,128,0,378216:0:0:0:0:
64,192,378216,1,0,0:0:0:0:
448,192,378216,128,0,378301:0:0:0:0:
192,192,378301,1,0,0:0:0:0:
64,192,378344,128,0,378430:0:0:0:0:
448,192,378387,1,0,0:0:0:0:
320,192,378387,128,0,378501:0:0:0:0:
192,192,378501,1,0,0:0:0:0:
448,192,378558,1,0,0:0:0:0:
64,192,378558,128,0,378644:0:0:0:0:
320,192,378644,128,0,378730:0:0:0:0:
448,192,378687,1,0,0:0:0:0:
192,192,378730,128,0,378858:0:0:0:0:
64,192,378730,1,0,0:0:0:0:
320,192,378816,128,0,378943:0:0:0:0:
64,192,378901,128,0,379072:0:0:0:0:
448,192,378901,1,0,0:0:0:0:
192,192,378986,1,0,0:0:0:0:
320,192,379072,128,0,379244:0:0:0:0:
448,192,379072,1,0,0:0:0:0:
192,192,379158,1,0,0:0:0:0:
448,192,379244,128,0,379373:0:0:0:0:
64,192,379244,1,0,0:0:0:0:
192,192,379330,128,0,379416:0:0:0:0:
64,192,379416,1,0,0:0:0:0:
320,192,379416,128,0,379583:0:0:0:0:
192,192,379499,1,0,0:0:0:0:
64,192,379583,128,0,379750:0:0:0:0:
448,192,379583,1,0,0:0:0:0:
320,192,379666,128,0,379750:0:0:0:0:
448,192,379750,1,0,0:0:0:0:
192,192,379750,128,0,379833:0:0:0:0:
64,192,379833,128,0,379917:0:0:0:0:
192,192,379917,1,0,0:0:0:0:
320,192,379917,128,0,380084:0:0:0:0:
64,192,380084,128,0,380167:0:0:0:0:
192,192,380084,1,0,0:0:0:0:
448,192,380167,128,0,380292:0:0:0:0:
64,192,380250,128,0,380334:0:0:0:0:
320,192,380250,1,0,0:0:0:0:
192,192,380334,128,0,380417:0:0:0:0:
320,192,380375,128,0,380500:0:0:0:0:
64,192,380417,1,0,0:0:0:0:
448,192,380417,1,0,0:0:0:0:
192,192,380500,128,0,380584:0:0:0:0:
64,192,380584,128,0,380735:0:0:0:0:
448,192,380584,1,0,0:0:0:0:
448,192,380735,128,0,380849:0:0:0:0:
320,192,380735,1,0,0:0:0:0:
192,192,380811,128,0,380887:0:0:0:0:
320,192,380887,128,0,381053:0:0:0:0:
64,192,380887,1,0,0:0:0:0:
192,192,381053,128,0,381178:0:0:0:0:
448,192,381053,1,0,0:0:0:0:
64,192,381137,128,0,381220:0:0:0:0:
320,192,381220,1,0,0:0:0:0:
448,192,381220,128,0,381297:0:0:0:0:
192,192,381297,128,0,381375:0:0:0:0:
64,192,381375,1,0,0:0:0:0:
320,192,381375,128,0,381452:0:0:0:0:
448,192,381413,1,0,0:0:0:0:
192,192,381452,128,0,381530:0:0:0:0:
64,192,381530,1,0,0:0:0:0:
448,192,381530,128,0,381691:0:0:0:0:
64,192,381691,1,0,0:0:0:0:
192,192,381691,1,0,0:0:0:0:
320,192,381731,128,0,381852:0:0:0:0:
448,192,381852,1,0,0:0:0:0:
64,192,381852,128,0,381931:0:0:0:0:
192,192,381931,128,0,382011:0:0:0:0:
64,192,382011,1,0,0:0:0:0:
448,192,382011,1,0,0:0:0:0:
320,192,382050,128,0,382170:0:0:0:0:
64,192,382170,1,0,0:0:0:0:
448,192,382170,128,0,382249:0:0:0:0:
192,192,382210,128,0,382329:0:0:0:0:
448,192,382329,1,0,0:0:0:0:
320,192,382329,128,0,382409:0:0:0:0:
64,192,382409,128,0,382489:0:0:0:0:
320,192,382489,1,0,0:0:0:0:
448,192,382489,128,0,382649:0:0:0:0:
192,192,382569,128,0,382649:0:0:0:0:
64,192,382649,1,0,0:0:0:0:
320,192,382649,128,0,382729:0:0:0:0:
192,192,382729,128,0,382809:0:0:0:0:
448,192,382809,1,0,0:0:0:0:
64,192,382809,128,0,382970:0:0:0:0:
320,192,382890,1,0,0:0:0:0:
192,192,382970,1,0,0:0:0:0:
448,192,382970,128,0,383051:0:0:0:0:
64,192,383051,1,0,0:0:0:0:
320,192,383131,1,0,0:0:0:0:
192,192,383131,128,0,383293:0:0:0:0:
448,192,383212,128,0,383293:0:0:0:0:
320,192,383293,1,0,0:0:0:0:
64,192,383293,128,0,383363:0:0:0:0:
192,192,383363,128,0,383434:0:0:0:0:
448,192,383434,1,0,0:0:0:0:
320,192,383434,128,0,383599:0:0:0:0:
64,192,383516,1,0,0:0:0:0:
192,192,383599,1,0,0:0:0:0:
448,192,383599,128,0,383771:0:0:0:0:
320,192,383685,128,0,383771:0:0:0:0:
64,192,383771,1,0,0:0:0:0:
192,192,383771,128,0,383900:0:0:0:0:
448,192,383900,1,0,0:0:0:0:
64,192,383900,128,0,384034:0:0:0:0:
320,192,384034,1,0,0:0:0:0:
448,192,384034,128,0,384191:0:0:0:0:
64,192,384191,1,0,0:0:0:0:
320,192,384191,128,0,384312:0:0:0:0:
448,192,384312,1,0,0:0:0:0:
64,192,384312,128,0,384433:0:0:0:0:
192,192,384433,1,0,0:0:0:0:
448,192,384433,128,0,384574:0:0:0:0:
320,192,384574,1,0,0:0:0:0:
192,192,384574,128,0,384715:0:0:0:0:
64,192,384715,128,0,384961:0:0:0:0:
320,192,384715,128,0,384900:0:0:0:0:
448,192,384715,128,0,384838:0:0:0:0:
448,192,384961,5,0,0:0:0:0:
320,192,385020,1,0,0:0:0:0:
192,192,385080,1,0,0:0:0:0:
448,192,385139,1,0,0:0:0:0:
64,192,385139,1,0,0:0:0:0:
192,192,385199,1,0,0:0:0:0:
320,192,385199,1,0,0:0:0:0:
320,192,385283,1,0,0:0:0:0:
64,192,385283,1,0,0:0:0:0:
192,192,385367,1,0,0:0:0:0:
448,192,385367,1,0,0:0:0:0:
448,192,385451,1,0,0:0:0:0:
320,192,385451,1,0,0:0:0:0:
192,192,385554,1,0,0:0:0:0:
64,192,385554,1,0,0:0:0:0:
192,192,385658,1,0,0:0:0:0:
448,192,385658,1,0,0:0:0:0:
448,192,385761,1,0,0:0:0:0:
64,192,385761,1,0,0:0:0:0:
64,192,385893,1,0,0:0:0:0:
320,192,385893,1,0,0:0:0:0:
320,192,386025,1,0,0:0:0:0:
448,192,386025,1,0,0:0:0:0:
448,192,386158,1,0,0:0:0:0:
192,192,386158,1,0,0:0:0:0:
192,192,386294,1,0,0:0:0:0:
320,192,386294,1,0,0:0:0:0:
64,192,386385,1,0,0:0:0:0:
448,192,386430,1,0,0:0:0:0:
192,192,386476,1,0,0:0:0:0:
320,192,386521,1,0,0:0:0:0:
448,192,386567,1,0,0:0:0:0:
64,192,386612,1,0,0:0:0:0:
192,192,386754,1,0,0:0:0:0:
320,192,386754,1,0,0:0:0:0:
448,192,386856,1,0,0:0:0:0:
320,192,386856,1,0,0:0:0:0:
192,192,387009,1,0,0:0:0:0:
64,192,387060,1,0,0:0:0:0:
448,192,387162,1,0,0:0:0:0:
320,192,387213,1,0,0:0:0:0:
192,192,387213,1,0,0:0:0:0:
64,192,387396,1,0,0:0:0:0:
192,192,387436,1,0,0:0:0:0:
448,192,387436,1,0,0:0:0:0:
64,192,387589,1,0,0:0:0:0:
192,192,387589,1,0,0:0:0:0:
320,192,387650,1,0,0:0:0:0:
448,192,387650,1,0,0:0:0:0:
448,192,387741,1,0,0:0:0:0:
64,192,387741,1,0,0:0:0:0:
192,192,387802,1,0,0:0:0:0:
320,192,387802,1,0,0:0:0:0:
64,192,388260,1,0,0:0:0:0:
192,192,388260,1,0,0:0:0:0:
448,192,388352,1,0,0:0:0:0:
320,192,388392,1,0,0:0:0:0:
192,192,388432,1,0,0:0:0:0:
448,192,388473,1,0,0:0:0:0:
320,192,388513,1,0,0:0:0:0:
64,192,388554,1,0,0:0:0:0:
448,192,388594,1,0,0:0:0:0:
192,192,388634,1,0,0:0:0:0:
64,192,388675,1,0,0:0:0:0:
448,192,388715,128,0,389671:0:0:0:0:
320,192,388715,128,0,389640:0:0:0:0:
192,192,388807,128,0,389548:0:0:0:0:
64,192,388900,128,0,389517:0:0:0:0:
64,192,389640,1,0,0:0:0:0:
192,192,389687,1,0,0:0:0:0:
320,192,389779,1,0,0:0:0:0:
192,192,389826,1,0,0:0:0:0:
64,192,389826,1,0,0:0:0:0:
