osu file format v14

[General]
AudioFilename: audio.mp3
AudioLeadIn: 0
PreviewTime: 91171
Countdown: 0
SampleSet: Normal
StackLeniency: 0.7
Mode: 1
LetterboxInBreaks: 0
WidescreenStoryboard: 0

[Editor]
DistanceSpacing: 1.1
BeatDivisor: 4
GridSize: 32
TimelineZoom: 2.4

[Metadata]
Title:I lost my flp
TitleUnicode:I lost my flp
Artist:jioyi attacked by mirror
ArtistUnicode:jioyi attacked by mirror
Creator:Capu
Version:Inner Oni
Source:Deemo
Tags:electronic instrumental funkot stingy ikin5050 Hivie video rhythm game rayark
BeatmapID:3147420
BeatmapSetID:1539520

[Difficulty]
HPDrainRate:6
CircleSize:2
OverallDifficulty:7
ApproachRate:10
SliderMultiplier:1.4
SliderTickRate:1

[Events]
//Background and Video events
0,0,"Happy Halloween.jpg",0,70
//Break Periods
2,61456,70806
//Storyboard Layer 0 (Background)
//Storyboard Layer 1 (Fail)
//Storyboard Layer 2 (Pass)
//Storyboard Layer 3 (Foreground)
//Storyboard Layer 4 (Overlay)
//Storyboard Sound Samples

[TimingPoints]
1256,312.5,4,1,0,75,1,0
91256,-100,4,1,0,75,0,1
115943,-100,4,1,0,75,0,0

[HitObjects]
256,192,1256,5,8,0:0:0:0:
256,192,1568,1,0,0:0:0:0:
256,192,1881,1,8,0:0:0:0:
256,192,2193,1,8,0:0:0:0:
256,192,2506,1,0,0:0:0:0:
256,192,2662,1,0,0:0:0:0:
256,192,2818,1,8,0:0:0:0:
256,192,2974,1,0,0:0:0:0:
256,192,3131,1,8,0:0:0:0:
256,192,3287,1,8,0:0:0:0:
256,192,3443,1,0,0:0:0:0:
256,192,3756,1,8,0:0:0:0:
256,192,4068,1,8,0:0:0:0:
256,192,4381,1,0,0:0:0:0:
256,192,4537,1,8,0:0:0:0:
256,192,4693,1,0,0:0:0:0:
256,192,4849,1,0,0:0:0:0:
256,192,5006,1,8,0:0:0:0:
256,192,5162,1,8,0:0:0:0:
256,192,5318,1,0,0:0:0:0:
256,192,5474,1,8,0:0:0:0:
256,192,5631,1,0,0:0:0:0:
256,192,5943,1,8,0:0:0:0:
256,192,6256,1,4,0:0:0:0:
256,192,6568,1,8,0:0:0:0:
256,192,6881,1,0,0:0:0:0:
256,192,6959,1,0,0:0:0:0:
256,192,7037,1,0,0:0:0:0:
256,192,7193,1,8,0:0:0:0:
256,192,7349,1,0,0:0:0:0:
256,192,7506,1,8,0:0:0:0:
256,192,7740,1,0,0:0:0:0:
256,192,7818,1,8,0:0:0:0:
256,192,7974,1,0,0:0:0:0:
256,192,8131,1,8,0:0:0:0:
256,192,8287,1,12,0:0:0:0:
256,192,8443,1,0,0:0:0:0:
256,192,8599,1,0,0:0:0:0:
256,192,8756,1,12,0:0:0:0:
256,192,8912,1,0,0:0:0:0:
256,192,9068,1,8,0:0:0:0:
256,192,9146,1,8,0:0:0:0:
256,192,9224,1,0,0:0:0:0:
256,192,9381,1,8,0:0:0:0:
256,192,9537,1,0,0:0:0:0:
256,192,9576,1,0,0:0:0:0:
256,192,9693,1,8,0:0:0:0:
256,192,9732,1,8,0:0:0:0:
256,192,9849,1,8,0:0:0:0:
256,192,9888,1,8,0:0:0:0:
256,192,10006,1,0,0:0:0:0:
256,192,10162,1,0,0:0:0:0:
256,192,10240,1,0,0:0:0:0:
256,192,10318,1,0,0:0:0:0:
256,192,10396,1,0,0:0:0:0:
256,192,10474,1,0,0:0:0:0:
256,192,10552,1,0,0:0:0:0:
256,192,10631,1,8,0:0:0:0:
256,192,10787,1,0,0:0:0:0:
256,192,10865,1,0,0:0:0:0:
256,192,10943,1,8,0:0:0:0:
256,192,11256,1,4,0:0:0:0:
256,192,11568,1,8,0:0:0:0:
256,192,11724,1,0,0:0:0:0:
256,192,11881,1,8,0:0:0:0:
256,192,12037,1,8,0:0:0:0:
256,192,12115,1,8,0:0:0:0:
256,192,12193,1,0,0:0:0:0:
256,192,12349,1,8,0:0:0:0:
256,192,12427,1,8,0:0:0:0:
256,192,12506,1,0,0:0:0:0:
256,192,12584,1,0,0:0:0:0:
256,192,12662,1,8,0:0:0:0:
256,192,12740,1,0,0:0:0:0:
256,192,12818,1,8,0:0:0:0:
256,192,12974,1,0,0:0:0:0:
256,192,13131,1,8,0:0:0:0:
256,192,13287,1,8,0:0:0:0:
256,192,13443,1,0,0:0:0:0:
256,192,13599,1,0,0:0:0:0:
256,192,13677,1,0,0:0:0:0:
256,192,13756,1,8,0:0:0:0:
256,192,14068,1,0,0:0:0:0:
256,192,14224,1,0,0:0:0:0:
256,192,14381,1,8,0:0:0:0:
256,192,14537,1,0,0:0:0:0:
256,192,14693,1,8,0:0:0:0:
256,192,14849,1,8,0:0:0:0:
256,192,15006,1,0,0:0:0:0:
256,192,15162,1,8,0:0:0:0:
256,192,15240,1,0,0:0:0:0:
256,192,15318,1,8,0:0:0:0:
256,192,15396,1,8,0:0:0:0:
256,192,15474,1,0,0:0:0:0:
256,192,15552,1,8,0:0:0:0:
256,192,15631,1,0,0:0:0:0:
256,192,15709,1,0,0:0:0:0:
256,192,15787,1,8,0:0:0:0:
256,192,15865,1,0,0:0:0:0:
256,192,15943,1,8,0:0:0:0:
256,192,16021,1,8,0:0:0:0:
256,192,16099,1,0,0:0:0:0:
256,192,16177,1,0,0:0:0:0:
256,192,16256,1,12,0:0:0:0:
256,192,16568,1,0,0:0:0:0:
256,192,16724,1,8,0:0:0:0:
256,192,16881,1,8,0:0:0:0:
256,192,17037,1,0,0:0:0:0:
256,192,17115,1,0,0:0:0:0:
256,192,17193,1,8,0:0:0:0:
256,192,17349,1,0,0:0:0:0:
256,192,17427,1,0,0:0:0:0:
256,192,17506,1,8,0:0:0:0:
256,192,17662,1,8,0:0:0:0:
256,192,17818,1,0,0:0:0:0:
256,192,17974,1,8,0:0:0:0:
256,192,18131,1,0,0:0:0:0:
256,192,18287,1,8,0:0:0:0:
256,192,18443,1,8,0:0:0:0:
256,192,18599,1,0,0:0:0:0:
256,192,18756,1,12,0:0:0:0:
256,192,18912,1,0,0:0:0:0:
256,192,18990,1,0,0:0:0:0:
256,192,19068,1,8,0:0:0:0:
256,192,19146,1,0,0:0:0:0:
256,192,19224,1,0,0:0:0:0:
256,192,19302,1,0,0:0:0:0:
256,192,19381,1,8,0:0:0:0:
256,192,19459,1,0,0:0:0:0:
256,192,19537,1,8,0:0:0:0:
256,192,19615,1,0,0:0:0:0:
256,192,19693,1,8,0:0:0:0:
256,192,19771,1,8,0:0:0:0:
256,192,19849,1,0,0:0:0:0:
256,192,19927,1,0,0:0:0:0:
256,192,20006,1,8,0:0:0:0:
256,192,20162,1,0,0:0:0:0:
256,192,20240,1,0,0:0:0:0:
256,192,20318,1,8,0:0:0:0:
256,192,20396,1,0,0:0:0:0:
256,192,20474,1,8,0:0:0:0:
256,192,20552,1,0,0:0:0:0:
256,192,20631,1,8,0:0:0:0:
256,192,20709,1,8,0:0:0:0:
256,192,20787,1,0,0:0:0:0:
256,192,20865,1,0,0:0:0:0:
256,192,20943,1,8,0:0:0:0:
256,192,21256,1,4,0:0:0:0:
256,192,21412,1,8,0:0:0:0:
256,192,21490,1,0,0:0:0:0:
256,192,21568,1,8,0:0:0:0:
256,192,21724,1,8,0:0:0:0:
256,192,21881,1,0,0:0:0:0:
256,192,22037,1,0,0:0:0:0:
256,192,22115,1,0,0:0:0:0:
256,192,22193,1,8,0:0:0:0:
256,192,22349,1,0,0:0:0:0:
256,192,22506,1,8,0:0:0:0:
256,192,22584,1,0,0:0:0:0:
256,192,22662,1,8,0:0:0:0:
256,192,22740,1,8,0:0:0:0:
256,192,22818,1,0,0:0:0:0:
256,192,22974,1,8,0:0:0:0:
256,192,23052,1,0,0:0:0:0:
256,192,23131,1,8,0:0:0:0:
256,192,23287,1,0,0:0:0:0:
256,192,23365,1,8,0:0:0:0:
256,192,23443,1,0,0:0:0:0:
256,192,23599,1,0,0:0:0:0:
256,192,23756,1,8,0:0:0:0:
256,192,23912,1,8,0:0:0:0:
256,192,23990,1,8,0:0:0:0:
256,192,24068,1,0,0:0:0:0:
256,192,24224,1,8,0:0:0:0:
256,192,24381,1,0,0:0:0:0:
256,192,24537,1,8,0:0:0:0:
256,192,24615,1,0,0:0:0:0:
256,192,24693,1,8,0:0:0:0:
256,192,24849,1,0,0:0:0:0:
256,192,24927,1,0,0:0:0:0:
256,192,25006,1,8,0:0:0:0:
256,192,25084,1,8,0:0:0:0:
256,192,25162,1,0,0:0:0:0:
256,192,25318,1,8,0:0:0:0:
256,192,25474,1,0,0:0:0:0:
256,192,25631,1,0,0:0:0:0:
256,192,25787,1,8,0:0:0:0:
256,192,25865,1,0,0:0:0:0:
256,192,25943,1,8,0:0:0:0:
256,192,26021,1,8,0:0:0:0:
256,192,26099,1,0,0:0:0:0:
256,192,26177,1,0,0:0:0:0:
256,192,26256,1,12,0:0:0:0:
256,192,26412,1,0,0:0:0:0:
256,192,26490,1,8,0:0:0:0:
256,192,26568,1,0,0:0:0:0:
256,192,26724,1,0,0:0:0:0:
256,192,26881,1,8,0:0:0:0:
256,192,26959,1,8,0:0:0:0:
256,192,27037,1,0,0:0:0:0:
256,192,27115,1,0,0:0:0:0:
256,192,27193,1,8,0:0:0:0:
256,192,27349,1,8,0:0:0:0:
256,192,27506,1,0,0:0:0:0:
256,192,27662,1,8,0:0:0:0:
256,192,27740,1,0,0:0:0:0:
256,192,27818,1,8,0:0:0:0:
256,192,27974,1,8,0:0:0:0:
256,192,28052,1,8,0:0:0:0:
256,192,28131,1,0,0:0:0:0:
256,192,28209,1,8,0:0:0:0:
256,192,28287,1,0,0:0:0:0:
256,192,28365,1,0,0:0:0:0:
256,192,28443,1,8,0:0:0:0:
256,192,28599,1,0,0:0:0:0:
256,192,28756,1,8,0:0:0:0:
256,192,28912,1,0,0:0:0:0:
256,192,28990,1,0,0:0:0:0:
256,192,29068,1,8,0:0:0:0:
256,192,29224,1,0,0:0:0:0:
256,192,29302,1,0,0:0:0:0:
256,192,29381,1,8,0:0:0:0:
256,192,29459,1,8,0:0:0:0:
256,192,29537,1,0,0:0:0:0:
256,192,29615,1,0,0:0:0:0:
256,192,29693,1,8,0:0:0:0:
256,192,29849,1,0,0:0:0:0:
256,192,30006,1,8,0:0:0:0:
256,192,30162,1,0,0:0:0:0:
256,192,30240,1,0,0:0:0:0:
256,192,30318,1,8,0:0:0:0:
256,192,30474,1,0,0:0:0:0:
256,192,30631,1,8,0:0:0:0:
256,192,30709,1,0,0:0:0:0:
256,192,30787,1,8,0:0:0:0:
256,192,30839,1,8,0:0:0:0:
256,192,30891,1,8,0:0:0:0:
256,192,30943,1,0,0:0:0:0:
256,192,31021,1,0,0:0:0:0:
256,192,31099,1,8,0:0:0:0:
256,192,31256,1,4,0:0:0:0:
256,192,31490,1,8,0:0:0:0:
256,192,31568,1,8,0:0:0:0:
256,192,31724,1,0,0:0:0:0:
256,192,31881,1,8,0:0:0:0:
256,192,32037,1,8,0:0:0:0:
256,192,32193,1,0,0:0:0:0:
256,192,32506,1,12,0:0:0:0:
256,192,32740,1,0,0:0:0:0:
256,192,32818,1,8,0:0:0:0:
256,192,32974,1,0,0:0:0:0:
256,192,33131,1,8,0:0:0:0:
256,192,33287,1,0,0:0:0:0:
256,192,33365,1,8,0:0:0:0:
256,192,33443,1,0,0:0:0:0:
256,192,33599,1,4,0:0:0:0:
256,192,33912,1,0,0:0:0:0:
256,192,34068,1,8,0:0:0:0:
256,192,34224,1,0,0:0:0:0:
256,192,34302,1,0,0:0:0:0:
256,192,34381,1,8,0:0:0:0:
256,192,34459,1,0,0:0:0:0:
256,192,34537,1,0,0:0:0:0:
256,192,34693,1,8,0:0:0:0:
256,192,34849,1,0,0:0:0:0:
256,192,35006,1,8,0:0:0:0:
256,192,35084,1,8,0:0:0:0:
256,192,35162,1,0,0:0:0:0:
256,192,35318,1,0,0:0:0:0:
256,192,35474,1,8,0:0:0:0:
256,192,35552,1,8,0:0:0:0:
256,192,35631,1,0,0:0:0:0:
256,192,35787,1,0,0:0:0:0:
256,192,35865,1,0,0:0:0:0:
256,192,35943,1,8,0:0:0:0:
256,192,36021,1,8,0:0:0:0:
256,192,36099,1,0,0:0:0:0:
256,192,36177,1,0,0:0:0:0:
256,192,36256,1,12,0:0:0:0:
256,192,36412,1,8,0:0:0:0:
256,192,36490,1,0,0:0:0:0:
256,192,36568,1,8,0:0:0:0:
256,192,36646,1,0,0:0:0:0:
256,192,36724,1,8,0:0:0:0:
256,192,36802,1,0,0:0:0:0:
256,192,36881,1,8,0:0:0:0:
256,192,37037,1,4,0:0:0:0:
256,192,37271,1,4,0:0:0:0:
256,192,37506,1,4,0:0:0:0:
256,192,37662,1,8,0:0:0:0:
256,192,37740,1,0,0:0:0:0:
256,192,37818,1,8,0:0:0:0:
256,192,37974,1,0,0:0:0:0:
256,192,38131,1,0,0:0:0:0:
256,192,38209,1,0,0:0:0:0:
256,192,38287,1,8,0:0:0:0:
256,192,38443,1,0,0:0:0:0:
256,192,38599,1,12,0:0:0:0:
256,192,38912,1,0,0:0:0:0:
256,192,38990,1,0,0:0:0:0:
256,192,39068,1,8,0:0:0:0:
256,192,39224,1,0,0:0:0:0:
256,192,39302,1,0,0:0:0:0:
256,192,39381,1,8,0:0:0:0:
256,192,39537,1,0,0:0:0:0:
256,192,39615,1,0,0:0:0:0:
256,192,39693,1,8,0:0:0:0:
256,192,39849,1,0,0:0:0:0:
256,192,39927,1,0,0:0:0:0:
256,192,40006,1,8,0:0:0:0:
256,192,40084,1,8,0:0:0:0:
256,192,40162,1,8,0:0:0:0:
256,192,40240,1,8,0:0:0:0:
256,192,40318,1,0,0:0:0:0:
256,192,40396,1,0,0:0:0:0:
256,192,40474,1,0,0:0:0:0:
256,192,40552,1,0,0:0:0:0:
256,192,40631,1,8,0:0:0:0:
256,192,40709,1,8,0:0:0:0:
256,192,40787,1,0,0:0:0:0:
256,192,40865,1,0,0:0:0:0:
256,192,40943,1,8,0:0:0:0:
256,192,41256,1,4,0:0:0:0:
256,192,41568,1,8,0:0:0:0:
256,192,41724,1,0,0:0:0:0:
256,192,42037,1,0,0:0:0:0:
256,192,42193,1,8,0:0:0:0:
256,192,42349,1,8,0:0:0:0:
256,192,42506,1,0,0:0:0:0:
256,192,42818,1,0,0:0:0:0:
256,192,42974,1,8,0:0:0:0:
256,192,43287,1,8,0:0:0:0:
256,192,43443,1,0,0:0:0:0:
256,192,43599,1,0,0:0:0:0:
256,192,43756,1,8,0:0:0:0:
256,192,43912,1,0,0:0:0:0:
256,192,44068,1,8,0:0:0:0:
256,192,44224,1,8,0:0:0:0:
256,192,44537,1,0,0:0:0:0:
256,192,44693,1,8,0:0:0:0:
256,192,45006,1,8,0:0:0:0:
256,192,45162,1,0,0:0:0:0:
256,192,45240,1,8,0:0:0:0:
256,192,45474,1,8,0:0:0:0:
256,192,45631,1,0,0:0:0:0:
256,192,45709,1,8,0:0:0:0:
256,192,45943,1,8,0:0:0:0:
256,192,46099,1,0,0:0:0:0:
256,192,46256,1,12,0:0:0:0:
256,192,46568,1,0,0:0:0:0:
256,192,46724,1,8,0:0:0:0:
256,192,47037,1,8,0:0:0:0:
256,192,47193,1,0,0:0:0:0:
256,192,47349,1,0,0:0:0:0:
256,192,47506,1,8,0:0:0:0:
256,192,47584,1,0,0:0:0:0:
256,192,47662,1,0,0:0:0:0:
256,192,47740,1,0,0:0:0:0:
256,192,47818,1,8,0:0:0:0:
256,192,47974,1,8,0:0:0:0:
256,192,48287,1,0,0:0:0:0:
256,192,48443,1,8,0:0:0:0:
256,192,48599,1,8,0:0:0:0:
256,192,48756,1,0,0:0:0:0:
256,192,48912,1,8,0:0:0:0:
256,192,49068,1,0,0:0:0:0:
256,192,49224,1,0,0:0:0:0:
256,192,49381,1,8,0:0:0:0:
256,192,49459,1,8,0:0:0:0:
256,192,49537,1,0,0:0:0:0:
256,192,49693,1,8,0:0:0:0:
256,192,50006,1,0,0:0:0:0:
256,192,50943,1,8,0:0:0:0:
256,192,51256,1,4,0:0:0:0:
256,192,51490,1,0,0:0:0:0:
256,192,51724,1,8,0:0:0:0:
256,192,51959,1,8,0:0:0:0:
256,192,52193,1,0,0:0:0:0:
256,192,52506,1,8,0:0:0:0:
256,192,52740,1,0,0:0:0:0:
256,192,52974,1,8,0:0:0:0:
256,192,53209,1,8,0:0:0:0:
256,192,53443,1,0,0:0:0:0:
256,192,53756,1,0,0:0:0:0:
256,192,53990,1,8,0:0:0:0:
256,192,54224,1,0,0:0:0:0:
256,192,54302,1,0,0:0:0:0:
256,192,54459,1,8,0:0:0:0:
256,192,54537,1,8,0:0:0:0:
256,192,54693,1,8,0:0:0:0:
256,192,55006,1,0,0:0:0:0:
256,192,55162,1,0,0:0:0:0:
256,192,55240,1,8,0:0:0:0:
256,192,55396,1,8,0:0:0:0:
256,192,55474,1,0,0:0:0:0:
256,192,55631,1,8,0:0:0:0:
256,192,55709,1,0,0:0:0:0:
256,192,55865,1,0,0:0:0:0:
256,192,55943,1,8,0:0:0:0:
256,192,56099,1,0,0:0:0:0:
256,192,56256,1,0,0:0:0:0:
256,192,56490,1,8,0:0:0:0:
256,192,56568,1,0,0:0:0:0:
256,192,56646,1,0,0:0:0:0:
256,192,56724,1,8,0:0:0:0:
256,192,56959,1,0,0:0:0:0:
256,192,57193,1,8,0:0:0:0:
256,192,57506,1,0,0:0:0:0:
256,192,57740,1,0,0:0:0:0:
256,192,57974,1,8,0:0:0:0:
256,192,58052,1,8,0:0:0:0:
256,192,58209,1,8,0:0:0:0:
256,192,58287,1,8,0:0:0:0:
256,192,58443,1,0,0:0:0:0:
256,192,58756,1,12,0:0:0:0:
256,192,59224,1,12,0:0:0:0:
256,192,59693,1,12,0:0:0:0:
256,192,59849,12,0,60787,0:0:0:0:
256,192,60943,5,8,0:0:0:0:
256,192,61256,1,4,0:0:0:0:
256,192,71256,5,8,0:0:0:0:
256,192,71412,1,0,0:0:0:0:
256,192,71490,1,0,0:0:0:0:
256,192,71568,1,0,0:0:0:0:
256,192,71724,1,8,0:0:0:0:
256,192,72037,1,0,0:0:0:0:
256,192,72115,1,0,0:0:0:0:
256,192,72193,1,8,0:0:0:0:
256,192,72349,1,8,0:0:0:0:
256,192,72506,1,0,0:0:0:0:
256,192,72662,1,0,0:0:0:0:
256,192,72818,1,8,0:0:0:0:
256,192,72974,1,8,0:0:0:0:
256,192,73287,1,8,0:0:0:0:
256,192,73443,1,0,0:0:0:0:
256,192,73599,1,0,0:0:0:0:
256,192,73756,1,8,0:0:0:0:
256,192,73912,1,0,0:0:0:0:
256,192,73990,1,0,0:0:0:0:
256,192,74068,1,0,0:0:0:0:
256,192,74224,1,8,0:0:0:0:
256,192,74537,1,8,0:0:0:0:
256,192,74693,1,0,0:0:0:0:
256,192,74849,1,0,0:0:0:0:
256,192,75006,1,8,0:0:0:0:
256,192,75162,1,0,0:0:0:0:
256,192,75240,1,0,0:0:0:0:
256,192,75318,1,8,0:0:0:0:
256,192,75474,1,0,0:0:0:0:
256,192,75631,1,8,0:0:0:0:
256,192,75787,1,0,0:0:0:0:
256,192,75943,1,8,0:0:0:0:
256,192,76021,1,8,0:0:0:0:
256,192,76099,1,8,0:0:0:0:
256,192,76177,1,8,0:0:0:0:
256,192,76256,1,4,0:0:0:0:
256,192,76568,1,0,0:0:0:0:
256,192,76724,1,8,0:0:0:0:
256,192,77037,1,8,0:0:0:0:
256,192,77193,1,0,0:0:0:0:
256,192,77271,1,0,0:0:0:0:
256,192,77349,1,0,0:0:0:0:
256,192,77506,1,8,0:0:0:0:
256,192,77662,1,0,0:0:0:0:
256,192,77818,1,8,0:0:0:0:
256,192,77974,1,8,0:0:0:0:
256,192,78131,1,0,0:0:0:0:
256,192,78287,1,0,0:0:0:0:
256,192,78443,1,8,0:0:0:0:
256,192,78599,1,0,0:0:0:0:
256,192,78756,1,0,0:0:0:0:
256,192,79068,1,8,0:0:0:0:
256,192,79224,1,0,0:0:0:0:
256,192,79381,1,8,0:0:0:0:
256,192,79459,1,0,0:0:0:0:
256,192,79537,1,8,0:0:0:0:
256,192,79693,1,0,0:0:0:0:
256,192,79771,1,0,0:0:0:0:
256,192,79849,1,8,0:0:0:0:
256,192,79927,1,0,0:0:0:0:
256,192,80006,1,8,0:0:0:0:
256,192,80162,1,8,0:0:0:0:
256,192,80240,1,8,0:0:0:0:
256,192,80318,1,0,0:0:0:0:
256,192,80396,1,0,0:0:0:0:
256,192,80474,1,8,0:0:0:0:
256,192,80552,1,0,0:0:0:0:
256,192,80631,1,8,0:0:0:0:
256,192,80787,1,0,0:0:0:0:
256,192,80826,1,0,0:0:0:0:
256,192,80943,1,8,0:0:0:0:
256,192,80982,1,8,0:0:0:0:
256,192,81256,1,4,0:0:0:0:
256,192,81568,1,0,0:0:0:0:
256,192,81672,1,0,0:0:0:0:
256,192,81776,1,0,0:0:0:0:
256,192,81881,1,8,0:0:0:0:
256,192,82193,1,8,0:0:0:0:
256,192,82349,1,0,0:0:0:0:
256,192,82506,1,8,0:0:0:0:
256,192,82584,1,8,0:0:0:0:
256,192,82662,1,0,0:0:0:0:
256,192,82740,1,0,0:0:0:0:
256,192,82818,1,8,0:0:0:0:
256,192,82974,1,0,0:0:0:0:
256,192,83131,1,8,0:0:0:0:
256,192,83287,1,8,0:0:0:0:
256,192,83443,1,0,0:0:0:0:
256,192,83521,1,0,0:0:0:0:
256,192,83599,1,0,0:0:0:0:
256,192,83756,1,8,0:0:0:0:
256,192,83834,1,0,0:0:0:0:
256,192,83912,1,0,0:0:0:0:
256,192,84381,1,0,0:0:0:0:
256,192,84693,1,8,0:0:0:0:
256,192,84849,1,8,0:0:0:0:
256,192,85006,1,4,0:0:0:0:
256,192,85162,1,0,0:0:0:0:
256,192,85318,1,8,0:0:0:0:
256,192,85474,1,0,0:0:0:0:
256,192,85631,1,8,0:0:0:0:
256,192,85787,1,0,0:0:0:0:
256,192,85865,1,0,0:0:0:0:
256,192,85943,1,8,0:0:0:0:
256,192,86256,1,8,0:0:0:0:
256,192,86412,1,0,0:0:0:0:
256,192,86568,1,8,0:0:0:0:
256,192,86646,1,0,0:0:0:0:
256,192,86724,1,0,0:0:0:0:
256,192,86802,1,0,0:0:0:0:
256,192,86881,1,8,0:0:0:0:
256,192,87037,1,0,0:0:0:0:
256,192,87193,1,8,0:0:0:0:
256,192,87271,1,8,0:0:0:0:
256,192,87349,1,0,0:0:0:0:
256,192,87427,1,0,0:0:0:0:
256,192,87506,1,8,0:0:0:0:
256,192,87584,1,8,0:0:0:0:
256,192,87662,1,0,0:0:0:0:
256,192,87740,1,0,0:0:0:0:
256,192,87818,1,8,0:0:0:0:
256,192,87974,1,0,0:0:0:0:
256,192,88131,1,8,0:0:0:0:
256,192,88287,1,0,0:0:0:0:
256,192,88365,1,0,0:0:0:0:
256,192,88443,1,8,0:0:0:0:
256,192,88521,1,0,0:0:0:0:
256,192,88599,1,8,0:0:0:0:
256,192,88756,1,8,0:0:0:0:
256,192,88834,1,8,0:0:0:0:
256,192,88912,1,0,0:0:0:0:
256,192,88990,1,0,0:0:0:0:
256,192,89068,1,8,0:0:0:0:
256,192,89146,1,0,0:0:0:0:
256,192,89224,1,0,0:0:0:0:
256,192,89302,1,0,0:0:0:0:
256,192,89381,1,8,0:0:0:0:
256,192,89459,1,8,0:0:0:0:
256,192,89537,1,0,0:0:0:0:
256,192,89615,1,0,0:0:0:0:
256,192,89693,1,8,0:0:0:0:
256,192,89771,1,0,0:0:0:0:
256,192,89849,1,8,0:0:0:0:
256,192,89901,1,8,0:0:0:0:
256,192,89953,1,8,0:0:0:0:
256,192,90006,1,0,0:0:0:0:
256,192,90631,1,8,0:0:0:0:
256,192,90709,1,0,0:0:0:0:
256,192,90787,1,8,0:0:0:0:
256,192,90839,1,8,0:0:0:0:
256,192,90891,1,0,0:0:0:0:
256,192,90943,1,0,0:0:0:0:
256,192,91256,5,12,0:0:0:0:
256,192,91412,1,0,0:0:0:0:
256,192,91464,1,0,0:0:0:0:
256,192,91516,1,0,0:0:0:0:
256,192,91568,1,8,0:0:0:0:
256,192,91724,1,0,0:0:0:0:
256,192,91881,1,8,0:0:0:0:
256,192,91959,1,0,0:0:0:0:
256,192,92037,1,8,0:0:0:0:
256,192,92193,1,8,0:0:0:0:
256,192,92271,1,0,0:0:0:0:
256,192,92349,1,0,0:0:0:0:
256,192,92427,1,0,0:0:0:0:
256,192,92506,1,8,0:0:0:0:
256,192,92662,1,0,0:0:0:0:
256,192,92740,1,0,0:0:0:0:
256,192,92818,1,8,0:0:0:0:
256,192,92974,1,0,0:0:0:0:
256,192,93131,1,8,0:0:0:0:
256,192,93209,1,8,0:0:0:0:
256,192,93287,1,0,0:0:0:0:
256,192,93365,1,0,0:0:0:0:
256,192,93443,1,8,0:0:0:0:
256,192,93599,1,0,0:0:0:0:
256,192,93756,1,8,0:0:0:0:
256,192,93834,1,0,0:0:0:0:
256,192,93912,1,8,0:0:0:0:
256,192,93990,1,8,0:0:0:0:
256,192,94068,1,0,0:0:0:0:
256,192,94224,1,0,0:0:0:0:
256,192,94381,1,8,0:0:0:0:
256,192,94537,1,8,0:0:0:0:
256,192,94589,1,0,0:0:0:0:
256,192,94641,1,0,0:0:0:0:
256,192,94693,1,8,0:0:0:0:
256,192,94849,1,0,0:0:0:0:
256,192,95006,1,8,0:0:0:0:
256,192,95084,1,0,0:0:0:0:
256,192,95162,1,0,0:0:0:0:
256,192,95240,1,0,0:0:0:0:
256,192,95318,1,8,0:0:0:0:
256,192,95474,1,8,0:0:0:0:
256,192,95552,1,0,0:0:0:0:
256,192,95631,1,8,0:0:0:0:
256,192,95709,1,8,0:0:0:0:
256,192,95787,1,0,0:0:0:0:
256,192,95865,1,0,0:0:0:0:
256,192,95943,1,8,0:0:0:0:
256,192,96021,1,0,0:0:0:0:
256,192,96099,1,0,0:0:0:0:
256,192,96177,1,0,0:0:0:0:
256,192,96256,1,12,0:0:0:0:
256,192,96412,1,0,0:0:0:0:
256,192,96464,1,0,0:0:0:0:
256,192,96516,1,0,0:0:0:0:
256,192,96568,1,8,0:0:0:0:
256,192,96724,1,0,0:0:0:0:
256,192,96881,1,8,0:0:0:0:
256,192,96959,1,8,0:0:0:0:
256,192,97037,1,0,0:0:0:0:
256,192,97193,1,8,0:0:0:0:
256,192,97271,1,0,0:0:0:0:
256,192,97349,1,8,0:0:0:0:
256,192,97427,1,0,0:0:0:0:
256,192,97506,1,8,0:0:0:0:
256,192,97662,1,0,0:0:0:0:
256,192,97740,1,0,0:0:0:0:
256,192,97818,1,8,0:0:0:0:
256,192,97974,1,0,0:0:0:0:
256,192,98131,1,8,0:0:0:0:
256,192,98209,1,8,0:0:0:0:
256,192,98287,1,0,0:0:0:0:
256,192,98365,1,0,0:0:0:0:
256,192,98443,1,8,0:0:0:0:
256,192,98599,1,0,0:0:0:0:
256,192,98756,1,8,0:0:0:0:
256,192,98912,1,0,0:0:0:0:
256,192,99068,1,8,0:0:0:0:
256,192,99146,1,8,0:0:0:0:
256,192,99224,1,0,0:0:0:0:
256,192,99381,1,8,0:0:0:0:
256,192,99459,1,0,0:0:0:0:
256,192,99537,1,8,0:0:0:0:
256,192,99693,1,8,0:0:0:0:
256,192,99771,1,8,0:0:0:0:
256,192,99849,1,0,0:0:0:0:
256,192,99927,1,0,0:0:0:0:
256,192,100006,1,8,0:0:0:0:
256,192,100162,1,0,0:0:0:0:
256,192,100240,1,0,0:0:0:0:
256,192,100318,1,8,0:0:0:0:
256,192,100396,1,8,0:0:0:0:
256,192,100474,1,0,0:0:0:0:
256,192,100552,1,0,0:0:0:0:
256,192,100631,1,8,0:0:0:0:
256,192,100709,1,0,0:0:0:0:
256,192,100787,1,8,0:0:0:0:
256,192,100865,1,8,0:0:0:0:
256,192,100943,1,0,0:0:0:0:
256,192,101099,1,0,0:0:0:0:
256,192,101256,1,12,0:0:0:0:
256,192,101412,1,8,0:0:0:0:
256,192,101464,1,0,0:0:0:0:
256,192,101516,1,0,0:0:0:0:
256,192,101568,1,8,0:0:0:0:
256,192,101724,1,0,0:0:0:0:
256,192,101881,1,8,0:0:0:0:
256,192,101959,1,0,0:0:0:0:
256,192,102037,1,8,0:0:0:0:
256,192,102115,1,8,0:0:0:0:
256,192,102193,1,0,0:0:0:0:
256,192,102271,1,0,0:0:0:0:
256,192,102349,1,8,0:0:0:0:
256,192,102506,1,8,0:0:0:0:
256,192,102662,1,0,0:0:0:0:
256,192,102740,1,0,0:0:0:0:
256,192,102818,1,8,0:0:0:0:
256,192,102896,1,8,0:0:0:0:
256,192,102974,1,0,0:0:0:0:
256,192,103131,1,8,0:0:0:0:
256,192,103209,1,0,0:0:0:0:
256,192,103287,1,0,0:0:0:0:
256,192,103365,1,0,0:0:0:0:
256,192,103443,1,8,0:0:0:0:
256,192,103599,1,0,0:0:0:0:
256,192,103756,1,8,0:0:0:0:
256,192,103834,1,0,0:0:0:0:
256,192,103912,1,8,0:0:0:0:
256,192,103990,1,8,0:0:0:0:
256,192,104068,1,0,0:0:0:0:
256,192,104146,1,0,0:0:0:0:
256,192,104224,1,8,0:0:0:0:
256,192,104381,1,0,0:0:0:0:
256,192,104537,1,8,0:0:0:0:
256,192,104589,1,0,0:0:0:0:
256,192,104641,1,0,0:0:0:0:
256,192,104693,1,8,0:0:0:0:
256,192,104771,1,8,0:0:0:0:
256,192,104849,1,0,0:0:0:0:
256,192,105006,1,8,0:0:0:0:
256,192,105084,1,0,0:0:0:0:
256,192,105162,1,8,0:0:0:0:
256,192,105240,1,0,0:0:0:0:
256,192,105318,1,8,0:0:0:0:
256,192,105396,1,0,0:0:0:0:
256,192,105474,1,8,0:0:0:0:
256,192,105552,1,8,0:0:0:0:
256,192,105631,1,0,0:0:0:0:
256,192,105709,1,8,0:0:0:0:
256,192,105787,1,0,0:0:0:0:
256,192,105865,1,0,0:0:0:0:
256,192,105943,1,8,0:0:0:0:
256,192,106021,1,8,0:0:0:0:
256,192,106099,1,0,0:0:0:0:
256,192,106177,1,0,0:0:0:0:
256,192,106256,1,12,0:0:0:0:
256,192,106412,1,0,0:0:0:0:
256,192,106464,1,0,0:0:0:0:
256,192,106516,1,0,0:0:0:0:
256,192,106568,1,8,0:0:0:0:
256,192,106724,1,8,0:0:0:0:
256,192,106802,1,0,0:0:0:0:
256,192,106881,1,8,0:0:0:0:
256,192,107037,1,0,0:0:0:0:
256,192,107115,1,0,0:0:0:0:
256,192,107193,1,8,0:0:0:0:
256,192,107271,1,8,0:0:0:0:
256,192,107349,1,0,0:0:0:0:
256,192,107427,1,0,0:0:0:0:
256,192,107506,1,8,0:0:0:0:
256,192,107584,1,0,0:0:0:0:
256,192,107662,1,8,0:0:0:0:
256,192,107818,1,8,0:0:0:0:
256,192,107974,1,0,0:0:0:0:
256,192,108052,1,0,0:0:0:0:
256,192,108131,1,8,0:0:0:0:
256,192,108209,1,0,0:0:0:0:
256,192,108287,1,0,0:0:0:0:
256,192,108365,1,0,0:0:0:0:
256,192,108443,1,8,0:0:0:0:
256,192,108521,1,8,0:0:0:0:
256,192,108599,1,0,0:0:0:0:
256,192,108756,1,12,0:0:0:0:
256,192,108912,1,0,0:0:0:0:
256,192,108990,1,0,0:0:0:0:
256,192,109068,1,8,0:0:0:0:
256,192,109224,1,0,0:0:0:0:
256,192,109381,1,8,0:0:0:0:
256,192,109459,1,8,0:0:0:0:
256,192,109537,1,0,0:0:0:0:
256,192,109615,1,0,0:0:0:0:
256,192,109693,1,8,0:0:0:0:
256,192,109849,1,0,0:0:0:0:
256,192,109927,1,0,0:0:0:0:
256,192,110006,1,8,0:0:0:0:
256,192,110084,1,0,0:0:0:0:
256,192,110162,1,8,0:0:0:0:
256,192,110240,1,8,0:0:0:0:
256,192,110318,1,0,0:0:0:0:
256,192,110396,1,0,0:0:0:0:
256,192,110474,1,8,0:0:0:0:
256,192,110552,1,0,0:0:0:0:
256,192,110631,1,8,0:0:0:0:
256,192,110709,1,0,0:0:0:0:
256,192,110787,1,0,0:0:0:0:
256,192,110865,1,0,0:0:0:0:
256,192,110943,1,8,0:0:0:0:
256,192,111021,1,8,0:0:0:0:
256,192,111099,1,0,0:0:0:0:
256,192,111177,1,0,0:0:0:0:
256,192,111256,1,8,0:0:0:0:
256,192,111412,1,8,0:0:0:0:
256,192,111490,1,0,0:0:0:0:
256,192,111568,1,8,0:0:0:0:
256,192,111724,1,0,0:0:0:0:
256,192,111802,1,8,0:0:0:0:
256,192,111881,1,0,0:0:0:0:
256,192,111959,1,0,0:0:0:0:
256,192,112037,1,8,0:0:0:0:
256,192,112193,1,8,0:0:0:0:
256,192,112271,1,0,0:0:0:0:
256,192,112349,1,0,0:0:0:0:
256,192,112427,1,0,0:0:0:0:
256,192,112506,1,8,0:0:0:0:
256,192,112662,1,8,0:0:0:0:
256,192,112740,1,0,0:0:0:0:
256,192,112818,1,8,0:0:0:0:
256,192,112896,1,8,0:0:0:0:
256,192,112974,1,0,0:0:0:0:
256,192,113052,1,0,0:0:0:0:
256,192,113131,1,8,0:0:0:0:
256,192,113209,1,0,0:0:0:0:
256,192,113287,1,0,0:0:0:0:
256,192,113365,1,0,0:0:0:0:
256,192,113443,1,8,0:0:0:0:
256,192,113521,1,8,0:0:0:0:
256,192,113599,1,0,0:0:0:0:
256,192,113677,1,0,0:0:0:0:
256,192,113756,1,12,0:0:0:0:
256,192,113912,1,12,0:0:0:0:
256,192,114068,1,0,0:0:0:0:
256,192,114146,1,0,0:0:0:0:
256,192,114224,1,0,0:0:0:0:
256,192,114302,1,0,0:0:0:0:
256,192,114381,1,12,0:0:0:0:
256,192,114615,1,4,0:0:0:0:
256,192,114849,1,12,0:0:0:0:
256,192,115162,1,8,0:0:0:0:
256,192,115240,1,0,0:0:0:0:
256,192,115318,1,8,0:0:0:0:
256,192,115396,1,8,0:0:0:0:
256,192,115474,1,0,0:0:0:0:
256,192,115552,1,0,0:0:0:0:
256,192,115631,1,8,0:0:0:0:
256,192,115787,1,0,0:0:0:0:
256,192,115839,1,0,0:0:0:0:
256,192,115891,1,8,0:0:0:0:
256,192,115943,1,8,0:0:0:0:
