osu file format v14

[General]
AudioFilename: audio.mp3
AudioLeadIn: 0
PreviewTime: 91171
Countdown: 0
SampleSet: Normal
StackLeniency: 0.7
Mode: 1
LetterboxInBreaks: 0
WidescreenStoryboard: 1

[Editor]
DistanceSpacing: 1.1
BeatDivisor: 4
GridSize: 32
TimelineZoom: 2.4

[Metadata]
Title:I lost my flp
TitleUnicode:I lost my flp
Artist:jioyi attacked by mirror
ArtistUnicode:jioyi attacked by mirror
Creator:Capu
Version:Futsuu
Source:Deemo
Tags:electronic instrumental funkot stingy ikin5050 Hivie video rhythm game rayark
BeatmapID:3539733
BeatmapSetID:1539520

[Difficulty]
HPDrainRate:7
CircleSize:2
OverallDifficulty:4
ApproachRate:10
SliderMultiplier:1.4
SliderTickRate:1

[Events]
//Background and Video events
0,0,"Happy Halloween.jpg",0,70
//Break Periods
2,61456,70806
//Storyboard Layer 0 (Background)
//Storyboard Layer 1 (Fail)
//Storyboard Layer 2 (Pass)
//Storyboard Layer 3 (Foreground)
//Storyboard Layer 4 (Overlay)
//Storyboard Sound Samples

[TimingPoints]
1256,312.5,4,1,0,75,1,0
91256,-100,4,1,0,75,0,1
115943,-100,4,1,0,75,0,0

[HitObjects]
256,192,1256,5,0,0:0:0:0:
256,192,1568,1,0,0:0:0:0:
256,192,1881,1,8,0:0:0:0:
256,192,2193,1,0,0:0:0:0:
256,192,2506,1,8,0:0:0:0:
256,192,2818,1,8,0:0:0:0:
256,192,3131,1,0,0:0:0:0:
256,192,3756,1,8,0:0:0:0:
256,192,4068,1,8,0:0:0:0:
256,192,4381,1,0,0:0:0:0:
256,192,4693,1,8,0:0:0:0:
256,192,4849,1,0,0:0:0:0:
256,192,5006,1,8,0:0:0:0:
256,192,5318,1,8,0:0:0:0:
256,192,5631,1,0,0:0:0:0:
256,192,6256,1,4,0:0:0:0:
256,192,6568,1,0,0:0:0:0:
256,192,6881,1,8,0:0:0:0:
256,192,7193,1,0,0:0:0:0:
256,192,7506,1,8,0:0:0:0:
256,192,8131,1,0,0:0:0:0:
256,192,8287,1,8,0:0:0:0:
256,192,8443,1,0,0:0:0:0:
256,192,8756,1,8,0:0:0:0:
256,192,9068,1,0,0:0:0:0:
256,192,9224,1,0,0:0:0:0:
256,192,9381,1,8,0:0:0:0:
256,192,9693,1,8,0:0:0:0:
256,192,10006,1,0,0:0:0:0:
256,192,11256,1,12,0:0:0:0:
256,192,11568,1,0,0:0:0:0:
256,192,11881,1,8,0:0:0:0:
256,192,12193,1,8,0:0:0:0:
256,192,12349,1,8,0:0:0:0:
256,192,12506,1,0,0:0:0:0:
256,192,12818,1,8,0:0:0:0:
256,192,13443,1,8,0:0:0:0:
256,192,13756,1,0,0:0:0:0:
256,192,14068,1,8,0:0:0:0:
256,192,14381,1,0,0:0:0:0:
256,192,14537,1,0,0:0:0:0:
256,192,14693,1,8,0:0:0:0:
256,192,15006,1,0,0:0:0:0:
256,192,15318,1,0,0:0:0:0:
256,192,15631,1,8,0:0:0:0:
256,192,15943,1,8,0:0:0:0:
256,192,16099,1,0,0:0:0:0:
256,192,16256,1,8,0:0:0:0:
256,192,16568,1,0,0:0:0:0:
256,192,17193,1,0,0:0:0:0:
256,192,17506,1,8,0:0:0:0:
256,192,17818,1,0,0:0:0:0:
256,192,18443,1,0,0:0:0:0:
256,192,18756,1,8,0:0:0:0:
256,192,19068,1,0,0:0:0:0:
256,192,19381,1,8,0:0:0:0:
256,192,19537,1,8,0:0:0:0:
256,192,19693,1,0,0:0:0:0:
256,192,20006,1,8,0:0:0:0:
256,192,20162,1,0,0:0:0:0:
256,192,20318,1,8,0:0:0:0:
256,192,20631,1,0,0:0:0:0:
256,192,21256,1,8,0:0:0:0:
256,192,21568,1,0,0:0:0:0:
256,192,21881,1,8,0:0:0:0:
256,192,22037,1,8,0:0:0:0:
256,192,22193,1,0,0:0:0:0:
256,192,22506,1,8,0:0:0:0:
256,192,22818,1,0,0:0:0:0:
256,192,22974,1,0,0:0:0:0:
256,192,23131,1,8,0:0:0:0:
256,192,23756,1,8,0:0:0:0:
256,192,24068,1,0,0:0:0:0:
256,192,24381,1,8,0:0:0:0:
256,192,24537,1,0,0:0:0:0:
256,192,24693,1,8,0:0:0:0:
256,192,25006,1,8,0:0:0:0:
256,192,25318,1,0,0:0:0:0:
256,192,25474,1,8,0:0:0:0:
256,192,25631,1,0,0:0:0:0:
256,192,26256,1,12,0:0:0:0:
256,192,26568,1,0,0:0:0:0:
256,192,26724,1,8,0:0:0:0:
256,192,26881,1,8,0:0:0:0:
256,192,27193,1,0,0:0:0:0:
256,192,27506,1,8,0:0:0:0:
256,192,27662,1,8,0:0:0:0:
256,192,27818,1,8,0:0:0:0:
256,192,28131,1,0,0:0:0:0:
256,192,28443,1,8,0:0:0:0:
256,192,28756,1,0,0:0:0:0:
256,192,29068,1,8,0:0:0:0:
256,192,29381,1,0,0:0:0:0:
256,192,29537,1,0,0:0:0:0:
256,192,29693,1,8,0:0:0:0:
256,192,30006,1,8,0:0:0:0:
256,192,30162,1,0,0:0:0:0:
256,192,30318,1,8,0:0:0:0:
256,192,30474,1,0,0:0:0:0:
256,192,30631,1,8,0:0:0:0:
256,192,31256,1,12,0:0:0:0:
256,192,31724,1,0,0:0:0:0:
256,192,32037,1,0,0:0:0:0:
256,192,32193,1,0,0:0:0:0:
256,192,32506,1,8,0:0:0:0:
256,192,32740,1,8,0:0:0:0:
256,192,32974,1,8,0:0:0:0:
256,192,33443,1,0,0:0:0:0:
256,192,33599,1,4,0:0:0:0:
256,192,33912,1,0,0:0:0:0:
256,192,34068,1,8,0:0:0:0:
256,192,34537,1,0,0:0:0:0:
256,192,34693,1,0,0:0:0:0:
256,192,35006,1,0,0:0:0:0:
256,192,35318,1,8,0:0:0:0:
256,192,35474,1,0,0:0:0:0:
256,192,35631,1,8,0:0:0:0:
256,192,35943,1,8,0:0:0:0:
256,192,36099,1,8,0:0:0:0:
256,192,36256,1,4,0:0:0:0:
256,192,37037,1,8,0:0:0:0:
256,192,37271,1,8,0:0:0:0:
256,192,37506,1,4,0:0:0:0:
256,192,38599,1,12,0:0:0:0:
256,192,38912,1,0,0:0:0:0:
256,192,39068,1,8,0:0:0:0:
256,192,39224,1,0,0:0:0:0:
256,192,39381,1,8,0:0:0:0:
256,192,39693,1,8,0:0:0:0:
256,192,39849,1,0,0:0:0:0:
256,192,40006,1,8,0:0:0:0:
256,192,40318,1,0,0:0:0:0:
256,192,40631,1,8,0:0:0:0:
256,192,41256,1,4,0:0:0:0:
256,192,41568,1,0,0:0:0:0:
256,192,41724,1,8,0:0:0:0:
256,192,42037,1,8,0:0:0:0:
256,192,42193,1,0,0:0:0:0:
256,192,42506,1,8,0:0:0:0:
256,192,42818,1,8,0:0:0:0:
256,192,42974,1,8,0:0:0:0:
256,192,43287,1,0,0:0:0:0:
256,192,43443,1,8,0:0:0:0:
256,192,43756,1,0,0:0:0:0:
256,192,43912,1,0,0:0:0:0:
256,192,44068,1,0,0:0:0:0:
256,192,44224,1,8,0:0:0:0:
256,192,44537,1,0,0:0:0:0:
256,192,44693,1,8,0:0:0:0:
256,192,45006,1,0,0:0:0:0:
256,192,46256,1,4,0:0:0:0:
256,192,46568,1,8,0:0:0:0:
256,192,46724,1,8,0:0:0:0:
256,192,47037,1,8,0:0:0:0:
256,192,47193,1,0,0:0:0:0:
256,192,47506,1,8,0:0:0:0:
256,192,47662,1,0,0:0:0:0:
256,192,47818,1,0,0:0:0:0:
256,192,47974,1,8,0:0:0:0:
256,192,48287,1,8,0:0:0:0:
256,192,48443,1,0,0:0:0:0:
256,192,48756,1,8,0:0:0:0:
256,192,49068,1,0,0:0:0:0:
256,192,49224,1,8,0:0:0:0:
256,192,49537,1,8,0:0:0:0:
256,192,49693,1,0,0:0:0:0:
256,192,50006,1,0,0:0:0:0:
256,192,51256,1,8,0:0:0:0:
256,192,51490,1,0,0:0:0:0:
256,192,51724,1,8,0:0:0:0:
256,192,51959,1,8,0:0:0:0:
256,192,52193,1,0,0:0:0:0:
256,192,52506,1,8,0:0:0:0:
256,192,52740,1,0,0:0:0:0:
256,192,52974,1,8,0:0:0:0:
256,192,53209,1,8,0:0:0:0:
256,192,53443,1,0,0:0:0:0:
256,192,53756,1,8,0:0:0:0:
256,192,53990,1,8,0:0:0:0:
256,192,54224,1,0,0:0:0:0:
256,192,54459,1,8,0:0:0:0:
256,192,54693,1,0,0:0:0:0:
256,192,55006,1,8,0:0:0:0:
256,192,55240,1,8,0:0:0:0:
256,192,55474,1,0,0:0:0:0:
256,192,55709,1,8,0:0:0:0:
256,192,55943,1,0,0:0:0:0:
256,192,56724,1,8,0:0:0:0:
256,192,56959,1,0,0:0:0:0:
256,192,57193,1,8,0:0:0:0:
256,192,57506,1,0,0:0:0:0:
256,192,57740,1,0,0:0:0:0:
256,192,57974,1,8,0:0:0:0:
256,192,58209,1,0,0:0:0:0:
256,192,58443,1,8,0:0:0:0:
256,192,58756,1,4,0:0:0:0:
256,192,59224,1,4,0:0:0:0:
256,192,59693,1,12,0:0:0:0:
256,192,60943,1,8,0:0:0:0:
256,192,61256,1,4,0:0:0:0:
256,192,71256,5,0,0:0:0:0:
256,192,71568,1,0,0:0:0:0:
256,192,71724,1,8,0:0:0:0:
256,192,72037,1,8,0:0:0:0:
256,192,72193,1,0,0:0:0:0:
256,192,72506,1,8,0:0:0:0:
256,192,72818,1,8,0:0:0:0:
256,192,73131,1,0,0:0:0:0:
256,192,73443,1,0,0:0:0:0:
256,192,73756,1,8,0:0:0:0:
256,192,74068,1,0,0:0:0:0:
256,192,74224,1,8,0:0:0:0:
256,192,74537,1,8,0:0:0:0:
256,192,74693,1,0,0:0:0:0:
256,192,75006,1,8,0:0:0:0:
256,192,75318,1,8,0:0:0:0:
256,192,75631,1,0,0:0:0:0:
256,192,76256,1,12,0:0:0:0:
256,192,76568,1,0,0:0:0:0:
256,192,76724,1,0,0:0:0:0:
256,192,77037,1,8,0:0:0:0:
256,192,77193,1,0,0:0:0:0:
256,192,77506,1,8,0:0:0:0:
256,192,77818,1,8,0:0:0:0:
256,192,78131,1,0,0:0:0:0:
256,192,78443,1,8,0:0:0:0:
256,192,78756,1,0,0:0:0:0:
256,192,79068,1,8,0:0:0:0:
256,192,79381,1,8,0:0:0:0:
256,192,79537,1,8,0:0:0:0:
256,192,79693,1,0,0:0:0:0:
256,192,80006,1,8,0:0:0:0:
256,192,80318,1,0,0:0:0:0:
256,192,80474,1,0,0:0:0:0:
256,192,80631,1,8,0:0:0:0:
256,192,80787,1,0,0:0:0:0:
256,192,80943,1,8,0:0:0:0:
256,192,81256,1,4,0:0:0:0:
256,192,81881,1,4,0:0:0:0:
256,192,82506,1,4,0:0:0:0:
256,192,83131,1,4,0:0:0:0:
256,192,83756,1,4,0:0:0:0:
256,192,85006,1,4,0:0:0:0:
256,192,86256,1,0,0:0:0:0:
256,192,86568,1,8,0:0:0:0:
256,192,86881,1,0,0:0:0:0:
256,192,87037,1,0,0:0:0:0:
256,192,87193,1,8,0:0:0:0:
256,192,87506,1,0,0:0:0:0:
256,192,87818,1,8,0:0:0:0:
256,192,88131,1,0,0:0:0:0:
256,192,88287,1,0,0:0:0:0:
256,192,88443,1,8,0:0:0:0:
256,192,88756,1,8,0:0:0:0:
256,192,88912,1,0,0:0:0:0:
256,192,89068,1,8,0:0:0:0:
256,192,89224,1,0,0:0:0:0:
256,192,89381,1,8,0:0:0:0:
256,192,89693,1,8,0:0:0:0:
256,192,89849,1,8,0:0:0:0:
256,192,90006,1,0,0:0:0:0:
256,192,91256,1,12,0:0:0:0:
256,192,91568,1,0,0:0:0:0:
256,192,91724,1,8,0:0:0:0:
256,192,92037,1,8,0:0:0:0:
256,192,92193,1,0,0:0:0:0:
256,192,92349,1,0,0:0:0:0:
256,192,92506,1,8,0:0:0:0:
256,192,92818,1,0,0:0:0:0:
256,192,93131,1,8,0:0:0:0:
256,192,93287,1,8,0:0:0:0:
256,192,93443,1,0,0:0:0:0:
256,192,93756,1,8,0:0:0:0:
256,192,94068,1,8,0:0:0:0:
256,192,94224,1,8,0:0:0:0:
256,192,94537,1,0,0:0:0:0:
256,192,94693,1,0,0:0:0:0:
256,192,95006,1,8,0:0:0:0:
256,192,95318,1,8,0:0:0:0:
256,192,95474,1,0,0:0:0:0:
256,192,95631,1,8,0:0:0:0:
256,192,96256,1,0,0:0:0:0:
256,192,96568,1,8,0:0:0:0:
256,192,96724,1,0,0:0:0:0:
256,192,97037,1,0,0:0:0:0:
256,192,97193,1,8,0:0:0:0:
256,192,97349,1,0,0:0:0:0:
256,192,97506,1,8,0:0:0:0:
256,192,97818,1,8,0:0:0:0:
256,192,98131,1,0,0:0:0:0:
256,192,98287,1,0,0:0:0:0:
256,192,98443,1,8,0:0:0:0:
256,192,98756,1,8,0:0:0:0:
256,192,99068,1,0,0:0:0:0:
256,192,99381,1,8,0:0:0:0:
256,192,99537,1,8,0:0:0:0:
256,192,99693,1,0,0:0:0:0:
256,192,100006,1,8,0:0:0:0:
256,192,100162,1,0,0:0:0:0:
256,192,100318,1,0,0:0:0:0:
256,192,100474,1,0,0:0:0:0:
256,192,100631,1,8,0:0:0:0:
256,192,101256,1,8,0:0:0:0:
256,192,101412,1,8,0:0:0:0:
256,192,101568,1,0,0:0:0:0:
256,192,101724,1,8,0:0:0:0:
256,192,102037,1,8,0:0:0:0:
256,192,102193,1,0,0:0:0:0:
256,192,102506,1,8,0:0:0:0:
256,192,102662,1,0,0:0:0:0:
256,192,102974,1,8,0:0:0:0:
256,192,103287,1,0,0:0:0:0:
256,192,103443,1,8,0:0:0:0:
256,192,103756,1,8,0:0:0:0:
256,192,103912,1,0,0:0:0:0:
256,192,104068,1,0,0:0:0:0:
256,192,104224,1,8,0:0:0:0:
256,192,104537,1,8,0:0:0:0:
256,192,104693,1,0,0:0:0:0:
256,192,105006,1,8,0:0:0:0:
256,192,105162,1,8,0:0:0:0:
256,192,105318,1,0,0:0:0:0:
256,192,105474,1,0,0:0:0:0:
256,192,105631,1,8,0:0:0:0:
256,192,106256,1,0,0:0:0:0:
256,192,106412,1,8,0:0:0:0:
256,192,106568,1,8,0:0:0:0:
256,192,106724,1,0,0:0:0:0:
256,192,107037,1,8,0:0:0:0:
256,192,107193,1,0,0:0:0:0:
256,192,107506,1,8,0:0:0:0:
256,192,107662,1,0,0:0:0:0:
256,192,107818,1,0,0:0:0:0:
256,192,107974,1,8,0:0:0:0:
256,192,108287,1,0,0:0:0:0:
256,192,108443,1,8,0:0:0:0:
256,192,108756,1,12,0:0:0:0:
256,192,109068,1,8,0:0:0:0:
256,192,109224,1,0,0:0:0:0:
256,192,109381,1,8,0:0:0:0:
256,192,109693,1,0,0:0:0:0:
256,192,110006,1,8,0:0:0:0:
256,192,110162,1,8,0:0:0:0:
256,192,110318,1,0,0:0:0:0:
256,192,110474,1,0,0:0:0:0:
256,192,110631,1,8,0:0:0:0:
256,192,111256,1,8,0:0:0:0:
256,192,111568,1,0,0:0:0:0:
256,192,111724,1,0,0:0:0:0:
256,192,111881,1,8,0:0:0:0:
256,192,112037,1,8,0:0:0:0:
256,192,112193,1,0,0:0:0:0:
256,192,112506,1,8,0:0:0:0:
256,192,112662,1,0,0:0:0:0:
256,192,112818,1,8,0:0:0:0:
256,192,112974,1,0,0:0:0:0:
256,192,113131,1,8,0:0:0:0:
256,192,113443,1,0,0:0:0:0:
256,192,113599,1,0,0:0:0:0:
256,192,113756,1,12,0:0:0:0:
256,192,113912,1,12,0:0:0:0:
256,192,114381,1,4,0:0:0:0:
256,192,114615,1,4,0:0:0:0:
256,192,114849,1,12,0:0:0:0:
256,192,115162,1,0,0:0:0:0:
256,192,115318,1,8,0:0:0:0:
256,192,115474,1,8,0:0:0:0:
256,192,115631,1,0,0:0:0:0:
256,192,115943,1,8,0:0:0:0:
