osu file format v14

[General]
AudioFilename: audio.mp3
AudioLeadIn: 0
PreviewTime: 48005
Countdown: 1
SampleSet: Normal
StackLeniency: 0.7
Mode: 0
LetterboxInBreaks: 0
WidescreenStoryboard: 0

[Editor]
DistanceSpacing: 1.2
BeatDivisor: 4
GridSize: 32
TimelineZoom: 1

[Metadata]
Title:how to make hardcore (Ceng tongxue geng zhengque de fangfa Remix)
TitleUnicode:how to make hardcore (曾同學 更正確的方法 Remix)
Artist:jioyi
ArtistUnicode:jioyi
Creator:z1085684963
Version:remix
Source:
Tags:
BeatmapID:1022711
BeatmapSetID:478892

[Difficulty]
HPDrainRate:7
CircleSize:4
OverallDifficulty:8
ApproachRate:9
SliderMultiplier:1.6
SliderTickRate:1

[Events]
//Background and Video events
0,0,"dj_tools-wallpaper-1366x768.jpg",0,0
//Break Periods
//Storyboard Layer 0 (Background)
//Storyboard Layer 1 (Fail)
//Storyboard Layer 2 (Pass)
//Storyboard Layer 3 (Foreground)
//Storyboard Sound Samples

[TimingPoints]
5,342.857142857143,4,1,0,100,1,0
21605,-50,4,1,0,100,0,0
21947,-200,4,1,0,100,0,0
23319,-100,4,1,0,100,0,0
25033,-50,4,1,0,100,0,0
25376,-200,4,1,0,100,0,0
25719,-50,4,1,0,100,0,0
26062,-133.333333333333,4,1,0,100,0,0
37033,-100,4,1,0,100,0,0
41490,-80,4,1,0,100,0,0
42176,-100,4,1,0,100,0,0
46633,-66.6666666666667,4,1,0,100,0,0
47662,-200,4,1,0,100,0,0
48005,-100,4,1,0,100,0,0

[HitObjects]
0,333,10633,5,0,0:0:0:0:
0,333,10976,2,0,L|89:329,1,80
170,295,11319,2,0,B|191:330|191:330|183:407,1,80
97,233,11662,1,0,0:0:0:0:
97,233,11833,2,0,L|94:125,1,80
92,56,12176,1,0,0:0:0:0:
92,56,12262,1,0,0:0:0:0:
92,56,12347,6,0,L|184:52,1,80
334,6,12690,2,0,B|297:-3|297:-3|259:12,1,80
250,106,13033,1,0,0:0:0:0:
250,106,13205,2,0,L|253:214,1,80
256,283,13548,1,0,0:0:0:0:
256,283,13719,5,0,0:0:0:0:
256,283,14062,2,0,B|216:294|216:294|178:286,1,80
335,337,14405,2,0,B|375:348|375:348|412:340,1,80
496,294,14747,2,0,L|491:190,1,80
486,117,15090,5,0,0:0:0:0:
389,123,15262,1,0,0:0:0:0:
293,130,15433,1,0,0:0:0:0:
324,232,15605,1,0,0:0:0:0:
327,225,15690,1,0,0:0:0:0:
330,218,15776,1,0,0:0:0:0:
234,211,15947,1,0,0:0:0:0:
137,205,16119,2,0,B|119:240|119:240|122:313,1,80
34,323,16462,6,0,L|27:203,1,120
27,333,16805,2,0,L|79:336,1,40
144,355,16976,2,0,L|183:350,1,40
264,347,17147,2,0,B|246:312|246:312|249:239,1,80
375,205,17490,2,0,B|393:240|393:240|390:313,1,80
478,323,17833,6,0,L|484:203,1,120
485,333,18176,2,0,L|433:336,1,40
368,355,18347,2,0,L|328:352,1,40
248,347,18519,2,0,B|266:312|266:312|263:239,1,80
116,206,18862,2,0,L|196:203,1,80
23,233,19205,6,0,L|29:113,1,120
19,0,19547,2,0,L|22:39,1,40
156,102,19719,2,0,L|159:62,1,40
311,33,19890,1,0,0:0:0:0:
304,27,19976,1,0,0:0:0:0:
297,21,20062,2,0,L|406:28,1,80
349,118,20405,1,0,0:0:0:0:
386,328,20576,5,0,0:0:0:0:
448,255,20747,1,0,0:0:0:0:
64,255,20919,1,0,0:0:0:0:
126,328,21090,1,0,0:0:0:0:
163,118,21262,1,0,0:0:0:0:
163,118,21605,6,0,B|74:55|140:-21|246:7|145:144,1,240
101,190,21947,6,0,B|227:249|204:138|336:182,1,240
329,180,23319,1,0,0:0:0:0:
332,211,23405,1,0,0:0:0:0:
335,242,23490,2,0,L|339:297,1,40
162,350,23662,1,0,0:0:0:0:
165,319,23748,1,0,0:0:0:0:
168,288,23833,2,0,L|172:233,1,40
11,107,24005,5,0,0:0:0:0:
105,93,24347,1,0,0:0:0:0:
46,19,24690,1,0,0:0:0:0:
46,19,24776,1,0,0:0:0:0:
46,19,24862,1,0,0:0:0:0:
46,19,25033,6,0,P|92:7|138:9,1,80
215,40,25205,1,0,0:0:0:0:
325,195,25290,1,0,0:0:0:0:
507,134,25376,2,0,L|509:63,1,60
412,24,25719,6,0,B|419:117|419:117|416:145|416:145|424:170|424:170|434:292,1,240
363,302,26062,6,0,L|303:305,1,60.0000022888184
435,341,26405,2,0,P|465:336|488:317,1,60.0000022888184
355,317,26747,2,0,L|256:323,1,90.0000034332277
180,326,27090,2,0,L|176:355,1,30.0000011444092
221,251,27262,2,0,L|224:221,1,30.0000011444092
256,143,27433,5,0,0:0:0:0:
305,74,27605,1,0,0:0:0:0:
388,59,27776,2,0,B|421:57|446:69|446:69|409:78,1,90.0000034332277
256,143,28119,1,0,0:0:0:0:
207,74,28291,1,0,0:0:0:0:
124,59,28462,2,0,B|91:57|66:69,1,60.0000022888184
34,188,28805,6,0,B|21:217|21:217|31:260,1,60.0000022888184
186,260,29147,2,0,B|199:231|199:231|192:203,1,60.0000022888184
109,226,29490,2,0,L|101:315,1,90.0000034332277
29,360,29833,6,0,L|0:357,1,30.0000011444092
183,382,30005,2,0,L|153:379,1,30.0000011444092
297,275,30176,5,0,0:0:0:0:
324,199,30290,1,0,0:0:0:0:
399,171,30405,1,0,0:0:0:0:
388,149,30519,1,0,0:0:0:0:
312,122,30633,1,0,0:0:0:0:
284,47,30748,1,0,0:0:0:0:
215,5,30862,1,0,0:0:0:0:
188,81,30976,1,0,0:0:0:0:
113,109,31091,1,0,0:0:0:0:
123,135,31205,1,0,0:0:0:0:
199,162,31319,1,0,0:0:0:0:
227,237,31434,1,0,0:0:0:0:
297,275,31547,6,0,L|364:271,1,60.0000022888184
488,222,31890,2,0,P|458:220|431:232,1,60.0000022888184
284,299,32233,2,0,L|374:294,1,90.0000034332277
205,330,32576,2,0,L|161:324,1,30.0000011444092
34,193,32747,2,0,L|78:187,1,30.0000011444092
97,110,32919,5,0,0:0:0:0:
256,160,33090,1,0,0:0:0:0:
415,110,33262,2,0,P|453:121|448:68,1,90.0000034332277
403,23,33605,1,0,0:0:0:0:
256,243,33776,1,0,0:0:0:0:
109,23,33947,2,0,B|79:18|79:18|38:37,1,60.0000022888184
19,108,34290,6,0,L|23:179,1,60.0000022888184
160,318,34633,2,0,L|157:259,1,60.0000022888184
105,152,34976,2,0,B|102:198|102:198|77:234,1,90.0000034332277
22,298,35319,2,0,L|-29:301,1,30.0000011444092
325,278,35490,2,0,L|296:280,1,30.0000011444092
226,370,35662,5,0,0:0:0:0:
286,14,35833,1,0,0:0:0:0:
336,123,36005,1,0,0:0:0:0:
176,261,36176,1,0,0:0:0:0:
256,192,36347,1,0,0:0:0:0:
176,261,36690,2,0,L|125:268,1,30.0000011444092
336,123,36862,2,0,L|387:116,1,30.0000011444092
256,192,37033,6,0,L|250:112,1,80
44,95,37376,2,0,L|38:174,1,80
214,40,37719,2,0,B|157:23|157:23|97:35,1,120
85,24,38062,1,0,0:0:0:0:
55,253,38233,1,0,0:0:0:0:
70,247,38319,1,0,0:0:0:0:
84,239,38405,6,0,L|89:318,1,80
422,318,38747,2,0,B|428:239|428:239|418:271|396:280,1,120
351,216,39090,2,0,B|311:227|311:227|339:268,1,80
161,356,39433,2,0,B|201:345|201:345|179:313,1,80
256,192,39776,6,0,L|261:112,1,80
424,43,40119,2,0,P|434:81|419:118,1,80
315,26,40462,2,0,B|268:29|268:29|254:28|254:28|241:32|241:32|181:37,1,120
157,24,40805,1,0,0:0:0:0:
47,35,40890,1,0,0:0:0:0:
58,145,40976,1,0,0:0:0:0:
168,134,41062,1,0,0:0:0:0:
57,125,41147,6,0,P|36:183|33:218,1,53.3333333333333
47,259,41376,1,0,0:0:0:0:
103,335,41490,2,0,P|163:324|195:309,1,66.6666666666667
256,263,41719,1,0,0:0:0:0:
409,335,41833,2,0,P|348:324|316:309,1,66.6666666666667
256,263,42062,1,0,0:0:0:0:
465,259,42176,1,0,0:0:0:0:
474,174,42290,2,0,P|466:149|455:125,1,53.3333333333333
392,64,42519,6,0,L|304:69,1,80
132,79,42862,2,0,L|44:84,1,80
208,15,43205,2,0,B|231:71|231:71|213:137,1,120
210,143,43547,1,0,0:0:0:0:
53,259,43719,1,0,0:0:0:0:
77,253,43805,1,0,0:0:0:0:
96,238,43890,6,0,L|89:326,1,80
416,339,44233,2,0,L|422:259,1,80
418,244,44490,1,0,0:0:0:0:
344,276,44576,2,0,B|313:287|298:273|298:273|306:261|328:264,1,80
168,301,44919,2,0,B|199:290|214:304|214:304|206:316|185:313,1,80
67,148,45262,5,0,0:0:0:0:
190,73,45433,2,0,P|151:67|115:84,1,80
256,120,45776,1,0,0:0:0:0:
445,92,45947,1,0,0:0:0:0:
321,166,46118,2,0,P|359:171|395:154,1,80
256,120,46461,1,0,0:0:0:0:
259,80,46547,1,0,0:0:0:0:
263,39,46633,6,0,B|255:-2|255:-2|241:53,1,60.0000022888184
103,185,46805,2,0,B|62:193|62:193|117:207,1,60.0000022888184
249,345,46976,2,0,B|257:386|257:386|271:331,1,60.0000022888184
409,199,47148,2,0,B|450:191|450:191|395:177,1,60.0000022888184
430,294,47319,1,0,0:0:0:0:
82,294,47490,1,0,0:0:0:0:
82,294,47576,1,0,0:0:0:0:
82,294,47662,6,0,P|124:287|148:288,1,60
222,339,48005,6,0,B|219:292|219:292|220:278|220:278|216:265|216:265|212:219,1,120
221,197,48347,1,0,0:0:0:0:
26,230,48519,1,0,0:0:0:0:
287,63,48690,2,0,L|280:154,1,80
152,155,49033,2,0,L|136:52,1,80
210,10,49290,1,0,0:0:0:0:
210,10,49376,5,0,0:0:0:0:
512,384,49547,1,0,0:0:0:0:
26,230,49719,1,0,0:0:0:0:
512,0,49890,1,0,0:0:0:0:
419,316,50062,2,0,P|362:362|279:328,1,160
217,201,50576,1,0,0:0:0:0:
346,283,50747,6,0,L|508:292,1,160
352,72,51262,1,0,0:0:0:0:
285,336,51433,2,0,B|249:353|249:353|206:346,1,80
217,201,51776,2,0,B|258:201|258:201|291:224,1,80
346,283,52033,1,0,0:0:0:0:
346,283,52119,5,0,0:0:0:0:
0,315,52290,1,0,0:0:0:0:
145,0,52462,1,0,0:0:0:0:
190,384,52633,1,0,0:0:0:0:
499,255,52805,2,0,P|505:167|497:64,1,160
428,31,53319,1,0,0:0:0:0:
335,54,53490,6,0,L|325:207,1,120
325,197,53833,1,0,0:0:0:0:
499,255,54005,1,0,0:0:0:0:
247,350,54176,2,0,L|266:273,1,80
372,280,54519,2,0,L|382:359,1,80
382,359,54776,1,0,0:0:0:0:
382,359,54862,5,0,0:0:0:0:
147,229,55033,1,0,0:0:0:0:
499,255,55205,1,0,0:0:0:0:
0,384,55376,1,0,0:0:0:0:
48,141,55547,2,0,P|87:91|176:98,1,160
307,42,56062,1,0,0:0:0:0:
115,0,56233,6,0,L|127:172,1,160
441,268,56747,1,0,0:0:0:0:
71,268,56919,2,0,P|122:275|166:269,1,80
441,268,57262,2,0,P|390:275|346:269,1,80
249,304,57519,1,0,0:0:0:0:
256,321,57605,5,0,0:0:0:0:
256,321,57947,1,0,0:0:0:0:
256,321,58290,1,0,0:0:0:0:
393,364,58462,1,0,0:0:0:0:
119,364,58633,1,0,0:0:0:0:
256,321,58805,1,0,0:0:0:0:
222,45,58976,6,0,B|219:92|219:92|220:106|220:106|216:119|216:119|212:165,1,120
221,187,59318,1,0,0:0:0:0:
26,154,59490,1,0,0:0:0:0:
287,321,59661,2,0,L|280:230,1,80
152,229,60004,2,0,L|136:332,1,80
210,374,60261,1,0,0:0:0:0:
210,374,60347,5,0,0:0:0:0:
512,0,60518,1,0,0:0:0:0:
26,154,60690,1,0,0:0:0:0:
512,384,60861,1,0,0:0:0:0:
419,68,61033,2,0,P|362:22|279:56,1,160
231,191,61547,1,0,0:0:0:0:
346,101,61718,6,0,L|508:92,1,160
352,312,62233,1,0,0:0:0:0:
285,48,62404,2,0,B|249:31|249:31|206:38,1,80
231,191,62747,2,0,B|272:191|272:191|305:168,1,80
346,101,63004,1,0,0:0:0:0:
346,101,63090,5,0,0:0:0:0:
0,0,63261,1,0,0:0:0:0:
0,384,63433,1,0,0:0:0:0:
407,40,63604,1,0,0:0:0:0:
499,129,63776,2,0,P|505:217|497:320,1,160
428,353,64290,1,0,0:0:0:0:
335,330,64461,6,0,L|325:177,1,120
325,187,64804,1,0,0:0:0:0:
499,129,64976,1,0,0:0:0:0:
247,33,65147,2,0,L|266:111,1,80
372,104,65490,2,0,L|382:24,1,80
382,24,65747,1,0,0:0:0:0:
382,24,65833,5,0,0:0:0:0:
147,155,66004,1,0,0:0:0:0:
499,129,66176,1,0,0:0:0:0:
0,0,66347,1,0,0:0:0:0:
48,243,66518,2,0,P|87:293|176:286,1,160
307,342,67033,1,0,0:0:0:0:
115,384,67204,6,0,L|127:212,1,160
441,116,67718,1,0,0:0:0:0:
71,116,67890,2,0,P|122:109|166:115,1,80
441,116,68233,2,0,P|390:109|346:115,1,80
249,80,68490,1,0,0:0:0:0:
256,63,68576,5,0,0:0:0:0:
256,175,68919,1,0,0:0:0:0:
256,63,69261,1,0,0:0:0:0:
