osu file format v14

[General]
AudioFilename: audio.mp3
AudioLeadIn: 0
PreviewTime: 33272
Countdown: 1
SampleSet: Soft
StackLeniency: 0.7
Mode: 0
LetterboxInBreaks: 0
WidescreenStoryboard: 1

[Editor]
DistanceSpacing: 1.7
BeatDivisor: 4
GridSize: 4
TimelineZoom: 1.6

[Metadata]
Title:cyanine
TitleUnicode:cyanine
Artist:jioyi
ArtistUnicode:jioyi
Creator:jyu
Version:Ultra
Source:Lanota 1.1
Tags:alpacacokelat
BeatmapID:1185651
BeatmapSetID:560687

[Difficulty]
HPDrainRate:5
CircleSize:3.8
OverallDifficulty:5
ApproachRate:7
SliderMultiplier:1
SliderTickRate:1

[Events]
//Background and Video events
0,0,"maxresdefault.jpg",0,0
//Break Periods
2,57703,67152
2,134186,135723
2,136823,138361
//Storyboard Layer 0 (Background)
//Storyboard Layer 1 (Fail)
//Storyboard Layer 2 (Pass)
//Storyboard Layer 3 (Foreground)
//Storyboard Sound Samples

[TimingPoints]
1460,329.67032967033,3,2,0,100,1,0
1460,-133.333333333333,3,2,0,100,0,0
17943,329.67032967033,3,2,0,100,1,0
17943,-100,3,2,0,100,0,0
49591,-100,3,2,0,100,0,1
57503,329.67032967033,4,2,0,100,1,0
68052,-100,4,2,0,100,0,1
69041,-133.333333333333,4,2,0,100,0,1
70689,-100,4,2,0,100,0,1
71678,-133.333333333333,4,2,0,100,0,1
73327,-100,4,2,0,100,0,1
74316,-133.333333333333,4,2,0,100,0,1
75964,-100,4,2,0,100,0,1
78601,-100,4,2,0,100,0,0
113546,-80,4,2,0,100,0,1
115524,-100,4,2,0,100,0,1
116184,-80,4,2,0,100,0,1
118162,-100,4,2,0,100,0,1
118821,-80,4,2,0,100,0,1
120799,-100,4,2,0,100,0,0
124096,-80,4,2,0,100,0,1
126074,-100,4,2,0,100,0,1
126733,-80,4,2,0,100,0,1
128711,-100,4,2,0,100,0,1
129371,-80,4,2,0,100,0,1
133986,-100,4,2,0,100,0,0
144535,-100,4,2,0,100,0,1
165305,-100,4,2,0,100,0,0
165634,-100,4,2,0,100,0,1
189371,-100,4,2,0,100,0,0

[HitObjects]
112,84,1460,5,0,0:0:0:0:
112,84,2119,2,0,P|120:124|120:168,1,75
240,272,3108,2,0,P|232:232|232:188,1,75.0000028610231
320,60,4097,2,0,P|328:100|328:144,1,75.0000028610231
312,216,4756,1,0,0:0:0:0:
256,276,5086,6,0,L|264:320,1,37.5000014305115
220,320,5416,2,0,L|204:236,1,75.0000028610231
176,84,6405,1,0,0:0:0:0:
396,196,7394,5,0,0:0:0:0:
452,136,7723,2,0,P|460:100|456:56,1,75.0000028610231
396,196,8383,1,0,0:0:0:0:
324,236,8712,2,0,P|316:272|320:316,1,75.0000028610231
252,192,9372,5,0,0:0:0:0:
252,192,10031,2,0,P|240:152|240:112,1,75.0000028610231
84,64,11020,2,0,P|88:96|88:116,2,37.5000014305115
248,36,12009,1,0,0:0:0:0:
312,88,12339,2,0,P|375:129|457:105,1,150.000005722046
394,48,13328,2,0,P|382:80|390:276,1,225.000008583069
148,335,15306,5,0,0:0:0:0:
78,185,15965,1,0,0:0:0:0:
137,127,16295,2,0,B|141:88|141:88|133:50,2,75.0000028610231
327,315,17943,6,0,L|428:310,2,100
264,224,18932,2,0,L|365:219,2,100
171,165,19921,5,2,0:0:0:0:
82,229,20250,2,0,P|67:266|73:330,1,100
181,314,20910,1,0,0:0:0:0:
288,335,21239,1,0,0:0:0:0:
375,268,21569,1,0,0:0:0:0:
407,162,21899,6,0,B|365:141|365:141|349:80|349:80|263:116,1,200,2|0,0:0|0:0,0:0:0:0:
171,170,22888,2,0,B|115:241|115:241|170:272|170:272|180:318,1,200,2|0,0:0|0:0,0:0:0:0:
289,308,23877,6,0,B|317:265|317:265|372:245,2,100,2|0|0,0:0|0:0|0:0,0:0:0:0:
183,340,24866,1,2,0:0:0:0:
94,275,25195,1,0,0:0:0:0:
133,172,25525,2,0,L|128:111,1,50,2|2,0:0|0:0,0:0:0:0:
142,68,25855,6,0,B|173:80|173:80|243:80,2,100
287,148,26844,2,0,B|256:160|256:160|186:160,2,100
364,70,27833,6,0,B|404:110|404:110|367:192|367:192|410:242,1,200,2|0,0:0|0:0,0:0:0:0:
308,291,28822,2,0,B|277:246|277:246|189:261|189:261|160:212,1,200,2|0,0:0|0:0,0:0:0:0:
136,105,29811,6,0,L|162:77,3,25,2|0|0|0,0:0|0:0|0:0|0:0,0:0:0:0:
177,75,30140,2,0,L|212:60,3,25,2|0|0|0,0:0|0:0|0:0|0:0,0:0:0:0:
227,63,30470,2,0,L|255:65,3,25,2|0|0|0,0:0|0:0|0:0|0:0,0:0:0:0:
279,68,30800,2,0,B|327:81|327:81|387:67,1,100,2|0,0:0|0:0,0:0:0:0:
482,40,31459,1,0,0:0:0:0:
457,147,31789,6,0,L|446:264,1,100,2|0,0:0|0:0,0:0:0:0:
355,307,32448,1,0,0:0:0:0:
338,198,32778,5,2,0:0:0:0:
174,198,32943,1,2,0:0:0:0:
256,340,33437,5,0,0:0:0:0:
256,340,33767,2,0,L|256:238,1,100
253,129,34426,1,0,0:0:0:0:
336,56,34756,2,0,P|364:106|364:154,1,100
253,129,35415,1,0,0:0:0:0:
287,235,35745,1,0,0:0:0:0:
171,211,36074,2,0,P|143:161|143:113,2,100
237,298,37063,1,0,0:0:0:0:
337,253,37393,6,0,P|361:229|369:206,1,50
359,159,37723,2,0,L|255:153,1,100
203,58,38382,1,0,0:0:0:0:
203,58,38712,2,0,L|302:63,1,100
396,122,39371,1,0,0:0:0:0:
396,122,39701,2,0,L|382:245,2,100
318,44,40690,1,0,0:0:0:0:
153,43,41019,1,0,0:0:0:0:
236,115,41349,5,0,0:0:0:0:
236,115,41514,1,0,0:0:0:0:
236,115,41679,2,0,L|235:221,1,100
320,284,42338,1,0,0:0:0:0:
320,284,42668,2,0,L|318:173,2,100
425,314,43657,5,0,0:0:0:0:
440,205,43986,1,0,0:0:0:0:
320,284,44316,1,0,0:0:0:0:
340,175,44646,1,0,0:0:0:0:
274,86,44975,6,0,L|233:79,3,25
221,78,45305,2,0,L|196:79,3,25
168,80,45635,2,0,P|138:120|135:179,1,100
132,168,46294,1,0,0:0:0:0:
192,274,46624,2,0,P|222:234|225:175,1,100
228,186,47283,1,0,0:0:0:0:
269,84,47613,6,0,L|377:90,1,100
368,89,48272,1,0,0:0:0:0:
401,193,48602,2,0,L|405:225,3,25
392,243,48932,2,0,L|395:275,3,25
384,293,49261,1,0,0:0:0:0:
274,307,49591,6,0,L|253:345,2,33.3333333333333
215,256,49921,2,0,L|180:281,2,33.3333333333333
291,229,50250,1,0,0:0:0:0:
334,127,50580,6,0,L|355:89,2,33.3333333333333
393,178,50910,2,0,L|428:153,2,33.3333333333333
317,205,51239,1,0,0:0:0:0:
218,155,51569,6,0,L|194:110,2,33.3333333333333
158,207,51899,2,0,L|134:162,2,33.3333333333333
107,265,52228,1,0,0:0:0:0:
209,305,52558,6,0,L|233:350,2,33.3333333333333
269,253,52888,2,0,L|293:298,2,33.3333333333333
320,195,53217,1,0,0:0:0:0:
288,60,53547,6,0,L|244:56,2,33.3333333333333
340,128,53877,2,0,L|373:131,2,33.3333333333333
272,180,54206,1,0,0:0:0:0:
208,268,54536,6,0,L|152:268,2,33.3333333333333
300,268,54866,6,0,L|333:268,2,33.3333333333333
252,200,55195,1,0,0:0:0:0:
172,124,55525,6,0,L|100:88,1,66.6666666666667
180,80,55855,2,0,L|239:109,1,66.6666666666667
300,80,56184,2,0,L|240:50,1,66.6666666666667
176,24,56514,1,0,0:0:0:0:
256,192,56596,12,0,57503,0:0:0:0:
209,132,68052,6,0,P|181:185|195:239,1,100
325,222,68546,2,0,P|329:173|303:132,1,100
256,40,69041,2,0,B|256:343,1,300.000011444092
356,292,70689,6,0,L|332:184,1,100
253,113,71184,2,0,L|156:92,1,100
184,200,71678,2,0,B|308:276|304:8|424:92,1,300.000011444092
448,164,73327,6,0,P|448:208|432:268,1,100
352,320,73821,2,0,P|296:312|240:320,1,100
164,288,74316,2,0,P|108:264|80:109,1,225.000008583069
75,116,75964,6,0,L|231:124,2,150
75,116,77283,1,0,0:0:0:0:
75,116,77612,1,0,0:0:0:0:
75,116,77942,1,0,0:0:0:0:
75,116,78272,1,0,0:0:0:0:
90,131,78601,6,0,L|69:195,2,50
147,81,79096,2,0,P|183:103|239:97,1,100
313,93,79590,1,0,0:0:0:0:
369,142,79755,2,0,B|386:183|386:183|376:242,1,100
350,308,80250,1,0,0:0:0:0:
286,348,80415,2,0,L|213:353,1,50
221,277,80744,2,0,L|148:282,1,50
110,234,81074,5,0,0:0:0:0:
110,234,81239,2,0,P|107:189|146:125,1,100
186,91,81733,2,0,L|288:56,1,100
352,82,82228,1,0,0:0:0:0:
312,146,82393,2,0,L|217:178,1,100
170,237,82887,1,0,0:0:0:0:
182,310,83052,2,0,P|123:297|96:260,1,100
77,196,83546,1,0,0:0:0:0:
91,122,83711,1,0,0:0:0:0:
144,68,83876,6,0,L|204:58,1,50
264,84,84206,1,0,0:0:0:0:
332,52,84371,2,0,P|358:115|361:161,1,100
263,260,84865,1,0,0:0:0:0:
263,260,85030,2,0,P|237:197|234:151,1,100
200,98,85524,2,0,L|136:127,1,50
292,59,86019,2,0,L|337:38,1,50
409,60,86349,1,0,0:0:0:0:
455,118,86513,6,0,L|469:177,2,50
391,158,87008,2,0,L|393:275,1,100
343,315,87503,1,0,0:0:0:0:
276,280,87667,1,0,0:0:0:0:
205,305,87832,1,0,0:0:0:0:
51,47,88492,6,0,L|46:88,3,25
57,107,88821,2,0,L|65:135,3,25
81,164,89151,6,0,P|118:173|178:151,1,100
234,107,89645,1,0,0:0:0:0:
295,64,89810,2,0,P|343:55|389:74,1,100
417,222,90470,6,0,L|440:288,1,50
383,325,90799,1,0,0:0:0:0:
383,325,91129,2,0,B|331:310|331:310|267:328,2,100
464,199,92118,6,0,L|447:151,1,50
401,91,92448,2,0,P|368:109|291:100,1,100
173,177,93107,1,0,0:0:0:0:
173,177,93272,1,0,0:0:0:0:
173,177,93437,2,0,P|206:195|263:189,1,75
279,190,93766,2,0,P|298:239|298:294,2,100
183,73,94755,5,0,0:0:0:0:
130,126,94920,1,0,0:0:0:0:
92,190,95085,2,0,P|70:247|68:296,1,100
215,309,95744,5,0,0:0:0:0:
268,256,95909,1,0,0:0:0:0:
307,192,96074,2,0,P|353:201|401:189,1,75
417,189,96404,2,0,L|411:88,2,100
342,319,97393,5,0,0:0:0:0:
277,281,97557,1,0,0:0:0:0:
211,318,97722,2,0,P|169:324|110:300,1,100
74,159,98382,2,0,L|67:100,1,50
139,86,98711,2,0,L|144:135,1,50
219,143,99041,2,0,L|212:84,1,50
284,70,99371,2,0,L|289:119,1,50
348,168,99700,6,0,P|360:208|364:236,1,50
361,216,99948,1,0,0:0:0:0:
361,216,100030,1,0,0:0:0:0:
328,284,100195,2,0,L|340:316,2,25
256,304,100524,2,0,L|268:336,2,25
192,264,100854,6,0,P|180:232|176:196,1,50
180,140,101184,2,0,P|196:104|216:80,1,50
272,72,101513,2,0,P|296:77|319:87,1,50
374,139,101843,2,0,P|387:160|397:183,1,50
416,256,102173,1,0,0:0:0:0:
336,256,102338,6,0,L|280:276,1,50
288,272,102585,1,0,0:0:0:0:
288,272,102667,1,0,0:0:0:0:
216,288,102832,2,0,L|180:296,2,25
188,216,103162,2,0,L|152:224,2,25
216,144,103492,5,0,0:0:0:0:
272,96,103656,1,0,0:0:0:0:
340,64,103821,2,0,P|348:100|340:132,1,50
216,144,104151,2,0,P|200:110|200:77,1,50
324,188,104481,2,0,P|289:200|256:197,1,50
204,220,104810,1,0,0:0:0:0:
144,264,104975,6,0,L|116:332,1,50
232,300,105305,2,0,L|204:368,1,50
344,260,105634,2,0,L|316:328,1,50
436,300,105964,2,0,L|408:368,1,50
440,212,106294,6,0,L|412:144,1,50
372,104,106623,1,0,0:0:0:0:
296,76,106788,1,0,0:0:0:0:
248,140,106953,6,0,L|267:186,1,50
248,264,107283,1,0,0:0:0:0:
184,316,107448,1,0,0:0:0:0:
112,284,107612,6,0,L|100:252,7,25
120,224,108272,2,0,L|108:192,7,25
144,176,108931,2,0,L|136:160,11,16.6666666666667
152,140,109590,2,0,L|148:128,15,12.5
256,192,110250,12,0,112887,0:0:0:0:
280,72,113546,6,0,B|336:96|336:96|368:164,1,125
312,232,114041,2,0,B|255:254|255:254|184:229,1,125
140,156,114535,2,0,B|167:98|167:98|223:74,1,125
316,56,115030,1,0,0:0:0:0:
316,56,115195,1,0,0:0:0:0:
316,56,115524,6,0,P|344:100|348:152,1,100
228,292,116184,2,0,P|256:248|260:172,1,125
216,52,116678,2,0,P|188:96|184:172,1,125
336,204,117173,2,0,P|364:160|368:84,1,125
182,167,117832,1,0,0:0:0:0:
182,167,118162,6,0,B|168:208|168:208|176:232|176:232|160:272,1,100
268,284,118821,2,0,L|308:140,1,125
396,176,119316,2,0,L|436:32,1,125
236,24,119810,2,0,L|202:144,1,125
176,236,120305,1,0,0:0:0:0:
176,236,120470,1,0,0:0:0:0:
176,236,120799,6,0,P|220:256|276:260,1,100
380,156,121294,2,0,P|330:160|284:180,1,100
208,152,121788,2,0,P|152:148|108:124,1,100
228,52,122283,2,0,P|284:56|328:80,1,100
372,132,122777,1,0,0:0:0:0:
376,140,123107,1,0,0:0:0:0:
379,150,123437,6,0,L|427:258,1,100
337,322,124096,2,0,B|316:278|316:278|235:267,1,125
157,199,124590,2,0,B|232:188|232:188|253:144,1,125
320,78,125085,2,0,P|365:74|436:124,1,125
457,204,125579,1,0,0:0:0:0:
416,288,125744,1,0,0:0:0:0:
416,288,126074,6,0,L|303:296,1,100
203,302,126651,1,0,0:0:0:0:
203,302,126733,2,0,P|221:256|214:170,1,125
127,153,127228,2,0,P|191:156|272:121,1,125
290,52,127722,2,0,P|284:104|310:180,1,125
423,319,128382,1,0,0:0:0:0:
423,319,128711,6,0,L|353:233,1,100
284,163,129206,1,0,0:0:0:0:
284,163,129371,2,0,P|244:185|160:134,1,125
105,94,129865,1,0,0:0:0:0:
105,94,130030,2,0,B|70:128|70:128|57:170,2,93.75
120,85,130607,1,0,0:0:0:0:
142,73,130689,2,0,L|213:68,1,62.5
290,107,131019,1,0,0:0:0:0:
374,66,131184,1,0,0:0:0:0:
466,82,131349,6,0,L|496:163,1,62.5
452,325,131843,2,0,L|405:200,1,125
320,172,132338,1,0,0:0:0:0:
230,199,132503,2,0,B|195:212|195:212|105:180,2,125
289,126,133327,6,0,L|296:91,3,31.25
249,86,133656,2,0,L|256:51,3,31.25
223,35,133986,1,0,0:0:0:0:
256,192,136623,5,0,0:0:0:0:
256,192,139261,5,0,0:0:0:0:
256,192,140579,5,0,0:0:0:0:
256,192,141898,5,0,0:0:0:0:
256,180,142557,1,0,0:0:0:0:
256,168,143217,2,0,P|256:144|84:176,1,300
120,292,144535,6,0,B|168:308|168:308|224:288,1,100
292,256,145030,1,0,0:0:0:0:
292,256,145112,1,0,0:0:0:0:
292,256,145195,1,0,0:0:0:0:
364,208,145360,2,0,P|336:184|312:176,2,50
436,164,145854,6,0,P|400:128|344:100,1,100
272,84,146349,1,0,0:0:0:0:
272,84,146431,1,0,0:0:0:0:
272,84,146513,1,0,0:0:0:0:
188,96,146678,2,0,P|152:108|120:108,1,50
56,104,147008,1,0,0:0:0:0:
68,188,147173,6,0,P|68:232|84:300,1,100
156,324,147667,2,0,L|200:344,3,25
224,340,147997,2,0,L|296:336,1,50
352,304,148327,1,0,0:0:0:0:
420,252,148492,6,0,P|416:196|408:144,1,100
364,80,148986,2,0,L|352:56,3,25
320,32,149316,2,0,P|280:40|256:40,1,50
188,48,149645,1,0,0:0:0:0:
112,84,149810,6,0,B|100:112|100:112|100:196,1,100
140,256,150305,1,0,0:0:0:0:
148,264,150387,1,0,0:0:0:0:
156,272,150470,1,0,0:0:0:0:
236,304,150634,2,0,P|280:308|304:300,1,50
340,240,150964,1,0,0:0:0:0:
400,180,151129,6,0,P|344:156|304:164,1,100
224,172,151623,1,0,0:0:0:0:
140,160,151788,2,0,L|96:152,2,25
156,244,152118,2,0,P|156:276|148:308,1,50
252,292,152448,6,0,P|247:267|248:242,1,50
268,160,152777,2,0,P|296:144|368:156,1,100
404,224,153272,2,0,P|404:248|399:273,1,50
324,308,153601,1,0,0:0:0:0:
240,328,153766,5,0,0:0:0:0:
160,304,153931,2,0,L|92:304,1,50
48,244,154261,1,0,0:0:0:0:
100,176,154426,2,0,L|150:176,1,50
184,96,154755,2,0,L|234:96,1,50
248,96,155003,1,0,0:0:0:0:
260,96,155085,6,0,P|288:144|288:200,1,100
236,252,155579,1,0,0:0:0:0:
236,252,155662,1,0,0:0:0:0:
236,252,155744,1,0,0:0:0:0:
160,288,155909,2,0,P|112:288|96:280,1,50
60,220,156239,1,0,0:0:0:0:
68,136,156404,6,0,L|116:40,1,100
196,36,156898,1,0,0:0:0:0:
196,36,156981,1,0,0:0:0:0:
196,36,157063,1,0,0:0:0:0:
280,48,157228,2,0,P|304:56|340:52,2,50
220,112,157722,6,0,P|212:144|212:220,1,100
252,284,158217,2,0,L|276:316,3,25
308,320,158546,2,0,L|376:324,1,50
412,256,158876,1,0,0:0:0:0:
368,184,159041,6,0,L|318:181,1,50
256,124,159371,1,0,0:0:0:0:
180,156,159535,1,0,0:0:0:0:
180,156,159618,1,0,0:0:0:0:
180,156,159700,1,0,0:0:0:0:
96,176,159865,2,0,P|112:204|144:224,2,50
96,92,160360,6,0,B|136:64|136:64|208:60,1,100
272,64,160854,1,0,0:0:0:0:
272,64,160937,1,0,0:0:0:0:
272,64,161019,1,0,0:0:0:0:
356,64,161184,2,0,P|404:64|424:56,2,50
308,136,161678,6,0,P|280:200|248:220,1,100
176,248,162173,1,0,0:0:0:0:
176,248,162255,1,0,0:0:0:0:
176,248,162338,1,0,0:0:0:0:
92,232,162503,2,0,L|76:288,2,50
96,220,162915,1,0,0:0:0:0:
100,208,162997,6,0,P|132:148|172:136,1,100
244,152,163492,1,0,0:0:0:0:
328,140,163656,2,0,P|360:120|388:48,1,100
312,24,164151,1,0,0:0:0:0:
256,192,164316,12,0,165305,0:0:0:0:
184,52,165634,5,0,0:0:0:0:
124,112,165799,2,0,P|112:136|104:168,1,50
104,244,166129,2,0,L|108:280,3,25
116,312,166459,2,0,L|184:300,1,50
236,256,166788,1,0,0:0:0:0:
312,292,166953,6,0,P|356:300|372:296,2,50
304,208,167448,1,0,0:0:0:0:
304,208,167530,1,0,0:0:0:0:
304,208,167612,1,0,0:0:0:0:
248,144,167777,2,0,P|204:136|188:140,2,50
332,132,168272,6,0,P|368:112|372:44,1,100
296,40,168766,2,0,L|260:36,6,25
378,57,169426,1,0,0:0:0:0:
432,132,169590,6,0,L|460:200,1,50
400,244,169920,1,0,0:0:0:0:
320,212,170085,2,0,L|300:165,1,50
224,128,170415,1,0,0:0:0:0:
144,148,170579,2,0,P|104:160|76:160,1,50
116,244,170909,6,0,P|139:235|164:231,1,50
248,256,171239,1,0,0:0:0:0:
332,236,171404,2,0,L|364:216,3,25
384,192,171733,2,0,P|392:148|388:120,2,50
312,148,172228,6,0,P|304:104|308:76,1,50
248,36,172557,1,0,0:0:0:0:
168,68,172722,1,0,0:0:0:0:
168,68,172805,1,0,0:0:0:0:
168,68,172887,1,0,0:0:0:0:
96,112,173052,2,0,P|88:144|92:168,1,50
128,236,173382,1,0,0:0:0:0:
204,276,173546,6,0,L|272:272,1,50
280,192,173876,2,0,L|230:194,1,50
172,132,174206,2,0,L|164:104,2,25
252,108,174535,1,0,0:0:0:0:
336,116,174700,1,0,0:0:0:0:
392,180,174865,6,0,P|408:224|404:288,1,100
236,276,175360,2,0,P|234:226|250:179,1,100
292,104,175854,2,0,L|308:80,3,25
268,104,176184,6,0,L|200:96,1,50
140,68,176513,1,0,0:0:0:0:
88,132,176678,1,0,0:0:0:0:
88,132,176761,1,0,0:0:0:0:
88,132,176843,2,0,P|80:168|84:196,1,50
140,244,177173,2,0,L|184:288,1,50
304,280,177503,6,0,L|339:244,1,50
376,168,177832,1,0,0:0:0:0:
336,92,177997,1,0,0:0:0:0:
336,92,178079,1,0,0:0:0:0:
336,92,178162,2,0,L|280:88,1,50
200,76,178492,2,0,P|168:92|136:92,1,50
84,140,178821,6,0,P|72:172|92:252,1,100
128,308,179316,2,0,L|112:332,6,25
196,260,179975,1,0,0:0:0:0:
268,212,180140,2,0,P|304:208|332:220,1,50
384,160,180470,1,0,0:0:0:0:
348,84,180634,2,0,L|296:68,1,50
216,92,180964,1,0,0:0:0:0:
132,72,181129,1,0,0:0:0:0:
76,136,181294,5,0,0:0:0:0:
76,136,181376,1,0,0:0:0:0:
76,136,181459,1,0,0:0:0:0:
100,216,181623,1,0,0:0:0:0:
180,248,181788,2,0,L|232:216,1,50
292,172,182118,2,0,L|344:140,1,50
448,72,182448,2,0,L|405:98,1,50
408,104,182695,5,0,0:0:0:0:
412,108,182777,1,0,0:0:0:0:
332,76,182942,1,0,0:0:0:0:
268,24,183107,2,0,L|232:60,1,50
168,116,183437,2,0,L|132:152,1,50
40,248,183766,2,0,L|76:212,1,50
156,276,184096,5,0,0:0:0:0:
252,308,184261,1,0,0:0:0:0:
348,276,184426,1,0,0:0:0:0:
252,220,184590,1,0,0:0:0:0:
164,172,184755,2,0,L|152:112,1,50
252,88,185085,2,0,L|252:140,1,50
348,172,185415,6,0,L|356:124,3,25
328,104,185744,2,0,L|336:56,3,25
284,60,186074,2,0,L|292:12,3,25
240,44,186404,6,0,B|204:56|204:56|180:52|180:52|160:84|140:84,1,100
256,192,186816,12,0,189371,0:0:0:0:
