osu file format v14

[General]
AudioFilename: audio.mp3
AudioLeadIn: 0
PreviewTime: 33272
Countdown: 1
SampleSet: Soft
StackLeniency: 0.7
Mode: 0
LetterboxInBreaks: 0
WidescreenStoryboard: 1

[Editor]
DistanceSpacing: 1.3
BeatDivisor: 4
GridSize: 4
TimelineZoom: 3.199999

[Metadata]
Title:cyanine
TitleUnicode:cyanine
Artist:jioyi
ArtistUnicode:jioyi
Creator:jyu
Version:Master
Source:Lanota 1.1
Tags:alpacacokelat
BeatmapID:1185650
BeatmapSetID:560687

[Difficulty]
HPDrainRate:7
CircleSize:4.2
OverallDifficulty:7
ApproachRate:8.7
SliderMultiplier:1.5
SliderTickRate:1

[Events]
//Background and Video events
0,0,"maxresdefault.jpg",0,0
//Break Periods
2,57704,67408
2,134186,135815
2,136824,138617
//Storyboard Layer 0 (Background)
//Storyboard Layer 1 (Fail)
//Storyboard Layer 2 (Pass)
//Storyboard Layer 3 (Foreground)
//Storyboard Sound Samples

[TimingPoints]
1460,329.67032967033,3,2,0,100,1,0
1460,-200,3,2,0,100,0,0
17943,329.67032967033,3,2,0,100,1,0
17943,-133.333333333333,3,2,0,100,0,0
40690,-100,3,2,0,100,0,0
41349,-133.333333333333,3,2,0,100,0,0
49261,-200,3,2,0,100,0,0
49591,-100,3,2,0,100,0,1
57504,329.67032967033,4,2,0,100,1,0
68053,-100,4,2,0,100,0,1
69042,-133.333333333333,4,2,0,100,0,1
70690,-100,4,2,0,100,0,1
71679,-133.333333333333,4,2,0,100,0,1
73328,-100,4,2,0,100,0,1
74317,-133.333333333333,4,2,0,100,0,1
75306,-200,4,2,0,100,0,1
75965,-133.333333333333,4,2,0,100,0,1
78602,-133.333333333333,4,2,0,100,0,0
98383,-200,4,2,0,100,0,0
98712,-133.333333333333,4,2,0,100,0,0
99042,-100,4,2,0,100,0,0
99372,-80,4,2,0,100,0,0
99701,-133.333333333333,4,2,0,100,0,0
109591,-100,4,2,0,100,0,0
112888,-200,4,2,0,100,0,0
113547,-100,4,2,0,100,0,1
118163,-200,4,2,0,100,0,1
118781,-100,4,2,0,100,0,1
120800,-133.333333333333,4,2,0,100,0,0
123438,-200,4,2,0,100,0,0
124097,-100,4,2,0,100,0,1
128383,-200,4,2,0,100,0,1
128712,-100,4,2,0,100,0,1
133987,-100,4,2,0,100,0,0
144536,-83.3333333333333,4,2,0,100,0,1
162998,-111.111111111111,4,2,0,100,0,1
165306,-100,4,2,0,100,0,0
165635,-83.3333333333333,4,2,0,100,0,1
189372,-100,4,2,0,100,0,0

[HitObjects]
256,192,1460,5,0,0:0:0:0:
256,192,2119,1,0,0:0:0:0:
256,192,2449,2,0,P|192:232|116:244,1,150
160,80,3438,2,0,P|224:40|300:28,1,150
476,132,4427,2,0,P|412:172|364:180,1,112.5
220,100,5086,2,0,L|176:100,1,37.5
64,160,5416,6,0,L|71:237,2,75
256,36,6405,1,0,0:0:0:0:
256,36,7394,1,0,0:0:0:0:
300,112,7723,2,0,P|312:140|352:176,1,75
256,36,8383,1,0,0:0:0:0:
220,228,8712,2,0,P|208:256|168:292,1,75
104,160,9372,6,0,P|116:116|152:52,1,112.5
232,32,10031,1,0,0:0:0:0:
344,168,10361,2,0,P|332:212|296:276,1,112.5
216,296,11020,1,0,0:0:0:0:
148,208,11185,1,0,0:0:0:0:
112,356,11350,1,0,0:0:0:0:
112,356,12009,5,0,0:0:0:0:
68,176,12339,2,0,P|76:160|156:120,1,112.5
236,112,12998,2,0,P|268:104|284:92,1,37.5
288,12,13328,2,0,L|340:244,1,225
349,255,15306,5,0,0:0:0:0:
284,304,15965,1,0,0:0:0:0:
208,296,16130,2,0,L|192:304,2,18.75
208,296,16624,1,0,0:0:0:0:
208,296,16954,1,0,0:0:0:0:
204,280,17943,6,0,B|224:264|224:264|276:264,1,56.2500021457673
344,152,18272,2,0,B|313:152|313:152|293:168,1,56.2500021457673
164,108,18602,2,0,B|184:92|184:92|214:92,1,56.2500021457673
412,80,18932,6,0,L|456:40,1,56.2500021457673
300,72,19261,2,0,L|344:32,1,56.2500021457673,2|0,0:0|0:0,0:0:0:0:
184,64,19591,2,0,L|228:24,1,56.2500021457673,2|0,0:0|0:0,0:0:0:0:
84,144,19921,6,0,B|68:172|68:172|76:216,1,56.2500021457673
188,316,20250,2,0,B|204:288|204:288|196:244,1,56.2500021457673
308,144,20580,2,0,B|292:172|292:172|300:216,1,56.2500021457673
400,300,20910,6,0,L|420:232,1,56.2500021457673
420,68,21239,2,0,L|404:121,1,56.2500021457673,2|0,0:0|0:0,0:0:0:0:
280,249,21569,2,0,L|300:181,1,56.2500021457673,2|0,0:0|0:0,0:0:0:0:
200,76,21899,6,0,B|172:96|172:96|168:128,1,56.2500021457673
342,117,22228,2,0,B|340:96|340:96|312:76,1,56.2500021457673
168,68,22558,2,0,B|140:88|140:88|136:120,1,56.2500021457673
384,108,22888,6,0,B|381:86|381:86|353:66,1,56.2500021457673
140,192,23217,1,2,0:0:0:0:
376,228,23382,1,2,0:0:0:0:
236,336,23547,1,0,0:0:0:0:
276,100,23712,1,2,0:0:0:0:
444,156,23877,6,0,B|464:136|464:136|472:96,1,56.2500021457673,2|0,0:0|0:0,0:0:0:0:
330,256,24206,2,0,B|357:248|357:248|384:218,1,56.2500021457673,0|2,0:0|0:0,0:0:0:0:
192,228,24536,2,0,B|211:247|211:247|251:256,1,56.2500021457673
208,96,24866,6,0,B|188:115|188:115|180:155,1,56.2500021457673,2|0,0:0|0:0,0:0:0:0:
320,48,25195,2,0,B|292:40|292:40|254:53,1,56.2500021457673
396,232,25525,1,2,0:0:0:0:
436,44,25690,1,2,0:0:0:0:
336,292,25855,6,0,B|308:296|308:296|280:280,1,56.2500021457673
168,112,26184,2,0,B|192:98|192:98|220:102,1,56.2500021457673
216,280,26514,2,0,B|191:293|191:293|163:289,1,56.2500021457673
364,136,26844,6,0,L|440:116,1,56.2500021457673
288,64,27173,2,0,L|233:78,1,56.2500021457673,2|0,0:0|0:0,0:0:0:0:
76,40,27503,2,0,L|131:26,1,56.2500021457673,2|0,0:0|0:0,0:0:0:0:
204,228,27833,6,0,B|200:264|200:264|172:292,1,56.2500021457673
332,148,28162,2,0,B|368:152|368:152|396:180,1,56.2500021457673
184,96,28492,2,0,B|154:74|154:74|144:36,1,56.2500021457673
312,252,28822,6,0,L|356:296,1,56.2500021457673
272,84,29151,2,0,L|232:44,1,56.2500021457673,2|0,0:0|0:0,0:0:0:0:
144,164,29481,2,0,L|104:124,1,56.2500021457673,2|0,0:0|0:0,0:0:0:0:
116,280,29811,6,0,L|148:312,3,28.1250010728836,2|0|0|0,0:0|0:0|0:0|0:0,0:0:0:0:
220,256,30140,2,0,L|260:268,3,28.1250010728836,2|0|0|0,0:0|0:0|0:0|0:0,0:0:0:0:
280,168,30470,2,0,L|312:160,3,28.1250010728836,2|0|0|0,0:0|0:0|0:0|0:0,0:0:0:0:
200,68,30800,6,0,P|168:72|144:88,1,56.2500021457673,2|0,0:0|0:0,0:0:0:0:
312,68,31129,2,0,P|344:72|368:88,1,56.2500021457673
192,192,31459,1,2,0:0:0:0:
312,192,31624,1,0,0:0:0:0:
144,252,31789,6,0,P|108:220|92:156,1,112.500004291535,2|0,0:0|0:0,0:0:0:0:
420,159,32283,2,0,P|407:213|368:252,1,112.500004291535,2|0,0:0|0:0,0:0:0:0:
84,88,32778,5,6,0:0:0:0:
424,88,32943,1,6,0:0:0:0:
424,88,33437,5,0,0:0:0:0:
424,88,33767,2,0,P|352:88|296:64,1,112.500004291535,2|0,0:0|0:0,0:0:0:0:
200,48,34261,1,2,0:0:0:0:
128,116,34426,1,0,0:0:0:0:
64,40,34591,1,2,0:0:0:0:
72,196,34756,2,0,P|80:240|92:256,1,56.2500021457673,2|0,0:0|0:0,0:0:0:0:
152,304,35085,2,0,P|188:280|264:268,1,112.500004291535
448,328,35745,6,0,L|452:264,1,56.2500021457673
376,168,36074,2,0,L|372:224,1,56.2500021457673,2|0,0:0|0:0,0:0:0:0:
304,136,36404,2,0,L|308:72,1,56.2500021457673,2|0,0:0|0:0,0:0:0:0:
152,32,36734,2,0,P|100:64|72:120,1,112.500004291535,2|0,0:0|0:0,0:0:0:0:
72,188,37228,1,0,0:0:0:0:
172,128,37393,1,2,0:0:0:0:
240,216,37558,1,0,0:0:0:0:
384,64,37723,5,2,0:0:0:0:
384,64,38052,2,0,P|380:104|392:184,1,112.500004291535,2|0,0:0|0:0,0:0:0:0:
412,248,38547,1,0,0:0:0:0:
256,68,38712,1,2,0:0:0:0:
256,68,39041,2,0,P|260:108|248:188,1,112.500004291535,2|0,0:0|0:0,0:0:0:0:
228,252,39536,1,0,0:0:0:0:
84,136,39701,6,0,P|72:96|72:64,1,56.2500021457673,2|0,0:0|0:0,0:0:0:0:
88,228,40030,2,0,P|84:255|75:282,1,56.2500021457673,2|0,0:0|0:0,0:0:0:0:
164,180,40360,2,0,L|232:180,1,56.2500021457673,2|0,0:0|0:0,0:0:0:0:
360,76,40690,6,0,B|375:107|375:107|359:143,1,75,6|0,0:0|0:0,0:0:0:0:
360,307,41019,2,0,B|375:275|375:275|359:239,1,75,6|0,0:0|0:0,0:0:0:0:
248,92,41349,5,0,0:0:0:0:
184,52,41514,1,0,0:0:0:0:
108,48,41679,2,0,P|60:60|16:120,1,112.500004291535,6|0,0:0|0:0,0:0:0:0:
56,208,42173,2,0,L|96:256,1,56.2500021457673,2|0,0:0|0:0,0:0:0:0:
248,200,42503,1,2,0:0:0:0:
248,200,42668,2,0,L|211:156,1,56.2500021457673,2|0,0:0|0:0,0:0:0:0:
264,40,42997,2,0,L|340:140,1,112.500004291535
416,196,43492,1,0,0:0:0:0:
288,336,43657,5,0,0:0:0:0:
228,288,43822,1,0,0:0:0:0:
164,236,43986,2,0,P|112:216|48:228,1,112.500004291535,2|0,0:0|0:0,0:0:0:0:
216,120,44481,1,2,0:0:0:0:
216,120,44646,2,0,P|268:140|320:128,1,84.3750032186509,2|0,0:0|0:0,0:0:0:0:
316,132,44975,5,2,0:0:0:0:
336,140,45058,1,0,0:0:0:0:
352,148,45140,1,0,0:0:0:0:
368,160,45223,1,0,0:0:0:0:
384,172,45305,1,2,0:0:0:0:
396,188,45388,1,0,0:0:0:0:
404,204,45470,1,0,0:0:0:0:
412,224,45552,1,0,0:0:0:0:
416,244,45635,6,0,P|380:272|352:272,1,56.2500021457673,2|0,0:0|0:0,0:0:0:0:
164,228,45964,2,0,P|208:194|263:183,1,112.500004291535
416,244,46459,1,0,0:0:0:0:
320,286,46624,2,0,P|297:270|280:248,1,56.2500021457673,2|0,0:0|0:0,0:0:0:0:
124,120,46953,2,0,P|144:100|169:88,1,56.2500021457673,0|2,0:0|0:0,0:0:0:0:
364,80,47283,2,0,P|408:72|436:48,1,56.2500021457673,0|2,0:0|0:0,0:0:0:0:
288,96,47613,6,0,B|300:128|300:128|348:148|356:184,1,112.500004291535,2|0,0:0|0:0,0:0:0:0:
157,180,48107,2,0,B|164:148|212:128|212:128|224:96,1,112.500004291535,2|0,0:0|0:0,0:0:0:0:
256,196,48602,1,2,0:0:0:0:
256,204,48684,1,0,0:0:0:0:
256,212,48767,1,0,0:0:0:0:
256,220,48849,1,0,0:0:0:0:
256,228,48932,1,2,0:0:0:0:
256,236,49014,1,0,0:0:0:0:
256,244,49096,1,0,0:0:0:0:
256,252,49179,1,0,0:0:0:0:
256,256,49261,6,0,L|256:300,1,37.5,2|0,0:0|0:0,0:0:0:0:
375,225,49591,6,0,L|348:164,2,50,0|0|2,0:0|0:0|0:0,0:0:0:0:
137,225,49921,2,0,L|164:164,2,50,0|0|2,0:0|0:0|0:0,0:0:0:0:
252,104,50250,2,0,L|252:44,2,50
408,92,50580,6,0,L|484:72,2,50,0|0|2,0:0|0:0|0:0,0:0:0:0:
104,92,50910,2,0,L|28:72,2,50,0|0|2,0:0|0:0|0:0,0:0:0:0:
252,280,51239,2,0,L|252:340,2,50
320,104,51569,6,0,P|344:56|344:24,2,50,0|0|2,0:0|0:0|0:0,0:0:0:0:
344,256,51899,2,0,P|392:280|424:280,2,50,0|0|2,0:0|0:0|0:0,0:0:0:0:
192,172,52228,2,0,P|144:148|112:148,2,50
412,128,52558,6,0,L|480:128,2,50,0|0|2,0:0|0:0|0:0,0:0:0:0:
240,208,52888,2,0,L|296:236,2,50,0|0|2,0:0|0:0|0:0,0:0:0:0:
40,272,53217,2,0,L|64:332,2,50
92,64,53547,5,0,0:0:0:0:
168,36,53657,2,0,L|256:36,1,50,0|2,0:0|0:0,0:0:0:0:
356,140,53877,1,0,0:0:0:0:
288,192,53986,2,0,L|238:192,1,50,0|2,0:0|0:0,0:0:0:0:
96,312,54206,2,0,L|104:368,2,50
96,120,54536,5,0,0:0:0:0:
96,120,54646,2,0,L|104:64,1,50,0|2,0:0|0:0,0:0:0:0:
256,156,54866,1,0,0:0:0:0:
256,156,54976,2,0,L|248:212,1,50,0|2,0:0|0:0,0:0:0:0:
436,96,55195,1,2,0:0:0:0:
436,96,55305,2,0,L|444:40,1,50
304,48,55525,6,0,P|240:40|184:60,1,100,2|0,0:0|0:0,0:0:0:0:
308,224,55855,2,0,P|358:184|384:130,1,100,2|0,0:0|0:3,0:3:0:0:
136,156,56184,2,0,P|163:197|204:225,1,100,2|2,0:0|0:0,0:0:0:0:
256,48,56514,1,6,0:0:0:0:
256,192,56596,12,0,57504,0:0:0:0:
188,68,68053,6,0,P|140:100|112:200,1,150
401,184,68547,6,0,P|382:113|324:68,1,150
110,184,69042,2,0,B|204:260|268:136|268:136|360:164|324:292|212:300,1,450.000017166138
303,63,70690,6,0,P|361:110|396:176,1,150
212,300,71185,2,0,P|154:253|120:188,1,150
233,67,71679,6,0,B|395:177|395:177|291:181|291:181|167:97,1,450.000017166138
34,32,73163,1,0,0:0:0:0:
329,32,73328,6,0,L|451:118,1,150
266,346,73822,2,0,L|144:260,1,150
222,68,74317,2,0,B|283:94|330:33|330:33|355:110|435:50|451:118,1,281.250010728836
452,332,75306,6,0,L|340:280,1,112.5
124,252,75965,6,0,P|168:260|208:316,1,112.500004291535
376,164,76460,2,0,P|332:172|292:228,1,112.500004291535
136,104,76954,2,0,P|176:108|200:132,1,56.2500021457673
336,72,77284,6,0,L|282:88,1,56.2500021457673
354,92,77613,2,0,L|299:107,1,56.2500021457673
370,120,77943,2,0,L|315:135,1,56.2500021457673
387,139,78272,2,0,L|332:154,1,56.2500021457673
208,208,78602,5,0,0:0:0:0:
88,280,78767,1,0,0:0:0:0:
160,336,78932,1,0,0:0:0:0:
244,304,79097,2,0,P|284:296|364:320,1,112.500004291535
440,332,79591,1,0,0:0:0:0:
440,240,79756,2,0,L|432:168,1,56.2500021457673
360,116,80086,2,0,L|296:112,1,56.2500021457673
192,72,80416,1,0,0:0:0:0:
80,132,80580,1,0,0:0:0:0:
192,72,80745,1,0,0:0:0:0:
168,212,80910,1,0,0:0:0:0:
192,72,81075,1,0,0:0:0:0:
272,168,81240,6,0,B|304:152|304:152|340:72,1,112.500004291535
208,216,81734,2,0,B|176:232|176:232|140:312,1,112.500004291535
256,352,82229,1,0,0:0:0:0:
352,312,82394,2,0,P|392:304|412:276,1,56.2500021457673
288,256,82723,1,0,0:0:0:0:
256,352,82888,1,0,0:0:0:0:
168,304,83053,1,0,0:0:0:0:
168,304,83383,1,0,0:0:0:0:
56,248,83548,1,0,0:0:0:0:
120,148,83712,1,0,0:0:0:0:
212,76,83877,6,0,L|288:76,1,56.2500021457673
360,96,84207,1,0,0:0:0:0:
360,96,84372,2,0,P|312:100|260:156,1,112.500004291535
152,288,84866,1,0,0:0:0:0:
152,288,85031,2,0,P|200:284|252:228,1,112.500004291535
340,184,85525,1,0,0:0:0:0:
456,200,85690,1,0,0:0:0:0:
456,200,86020,2,0,L|436:136,2,56.2500021457673
424,276,86432,1,0,0:0:0:0:
424,276,86514,6,0,L|448:340,1,56.2500021457673
348,232,86844,1,0,0:0:0:0:
316,160,87009,2,0,L|272:40,1,112.500004291535
196,96,87504,1,0,0:0:0:0:
96,48,87668,1,0,0:0:0:0:
36,128,87833,1,4,0:0:0:0:
36,128,88493,5,0,0:0:0:0:
32,144,88575,1,0,0:0:0:0:
32,160,88657,1,0,0:0:0:0:
36,176,88740,1,0,0:0:0:0:
44,192,88822,1,0,0:0:0:0:
52,204,88905,1,0,0:0:0:0:
64,212,88987,1,0,0:0:0:0:
76,220,89069,1,0,0:0:0:0:
92,224,89152,6,0,L|148:228,1,56.2500021457673,4|0,0:0|0:0,0:0:0:0:
248,184,89482,1,0,0:0:0:0:
392,120,89646,2,0,L|336:116,1,56.2500021457673
236,60,89976,2,0,L|180:56,1,56.2500021457673
84,100,90306,1,0,0:0:0:0:
92,256,90471,1,0,0:0:0:0:
88,176,90635,1,0,0:0:0:0:
96,336,90800,1,0,0:0:0:0:
96,336,91130,2,0,L|216:344,2,112.500004291535
180,240,91954,5,0,0:0:0:0:
324,300,92119,1,0,0:0:0:0:
368,228,92284,2,0,L|360:172,1,56.2500021457673
416,48,92613,2,0,L|424:104,1,56.2500021457673
452,192,92943,1,0,0:0:0:0:
380,336,93108,1,0,0:0:0:0:
304,288,93273,1,0,0:0:0:0:
244,236,93438,2,0,P|212:216|144:220,1,84.3750032186509
104,240,93767,6,0,P|56:220|48:200,1,56.2500021457673
172,76,94097,2,0,P|220:96|228:116,1,56.2500021457673
336,252,94427,6,0,P|288:232|280:212,1,56.2500021457673
252,164,94756,1,0,0:0:0:0:
200,300,94921,2,0,L|148:320,1,56.2500021457673
55,218,95251,2,0,L|107:198,1,56.2500021457673
220,192,95580,1,0,0:0:0:0:
244,48,95745,1,0,0:0:0:0:
320,104,95910,1,0,0:0:0:0:
444,20,96075,1,0,0:0:0:0:
444,20,96405,2,0,B|464:68|464:68|472:140,2,112.500004291535
312,72,97229,5,0,0:0:0:0:
216,40,97394,1,0,0:0:0:0:
148,136,97558,2,0,P|144:176|152:208,1,56.2500021457673
365,191,97888,2,0,P|368:163|364:136,1,56.2500021457673
256,44,98218,1,0,0:0:0:0:
240,160,98383,6,0,L|240:208,1,37.5
268,164,98712,6,0,L|268:228,1,56.2500021457673
300,172,99042,6,0,L|300:248,1,75
332,176,99372,6,0,L|332:280,1,93.75
432,328,99701,5,0,0:0:0:0:
444,172,99866,6,0,L|444:102,1,56.2500021457673
360,36,100196,1,0,0:0:0:0:
360,36,100278,1,0,0:0:0:0:
360,36,100361,1,0,0:0:0:0:
256,120,100525,2,0,L|256:176,1,56.2500021457673
160,32,100855,5,0,0:0:0:0:
160,32,100938,1,0,0:0:0:0:
160,32,101020,1,0,0:0:0:0:
72,84,101185,1,0,0:0:0:0:
72,84,101267,1,0,0:0:0:0:
72,84,101350,1,0,0:0:0:0:
96,176,101514,1,0,0:0:0:0:
96,176,101597,1,0,0:0:0:0:
96,176,101679,1,0,0:0:0:0:
200,188,101844,1,0,0:0:0:0:
200,188,101927,1,0,0:0:0:0:
200,188,102009,1,0,0:0:0:0:
252,96,102174,1,0,0:0:0:0:
252,96,102339,6,0,L|332:96,1,56.2500021457673
448,88,102668,2,0,P|472:64|476:32,1,56.2500021457673
380,96,102916,1,0,0:0:0:0:
380,96,102998,2,0,L|380:172,1,56.2500021457673
316,292,103328,1,0,0:0:0:0:
212,176,103493,5,0,0:0:0:0:
208,168,103575,1,0,0:0:0:0:
204,160,103657,1,0,0:0:0:0:
264,64,103822,1,0,0:0:0:0:
268,72,103904,1,0,0:0:0:0:
272,80,103986,1,0,0:0:0:0:
148,36,104152,1,0,0:0:0:0:
144,28,104234,1,0,0:0:0:0:
140,20,104316,1,0,0:0:0:0:
84,132,104482,1,0,0:0:0:0:
88,140,104564,1,0,0:0:0:0:
92,148,104646,1,0,0:0:0:0:
144,280,104811,1,0,0:0:0:0:
272,316,104976,6,0,L|348:308,1,56.2500021457673,4|0,0:0|0:0,0:0:0:0:
358,171,105306,2,0,L|316:208,1,56.2500021457673
155,92,105635,2,0,L|136:40,1,56.2500021457673
299,43,105965,2,0,L|280:96,1,56.2500021457673
216,240,106295,5,4,0:0:0:0:
332,216,106460,1,0,0:0:0:0:
396,116,106624,2,0,P|396:76|384:40,1,56.2500021457673
252,28,106954,1,4,0:0:0:0:
112,48,107119,1,0,0:0:0:0:
40,156,107284,2,0,B|32:188|32:188|48:224,1,56.2500021457673
169,301,107613,5,4,0:0:0:0:
184,300,107696,1,0,0:0:0:0:
200,300,107778,1,0,0:0:0:0:
216,300,107861,1,0,0:0:0:0:
232,300,107943,1,0,0:0:0:0:
248,300,108025,1,0,0:0:0:0:
264,300,108108,1,0,0:0:0:0:
280,300,108190,1,0,0:0:0:0:
296,300,108273,2,0,L|320:300,6,14.0625005364418
276,216,108602,5,0,0:0:0:0:
268,196,108685,1,0,0:0:0:0:
260,176,108767,1,0,0:0:0:0:
252,156,108850,1,0,0:0:0:0:
244,136,108932,2,0,L|236:112,6,14.0625005364418
160,164,109262,5,0,0:0:0:0:
132,172,109344,1,0,0:0:0:0:
104,180,109427,1,0,0:0:0:0:
76,188,109509,1,0,0:0:0:0:
48,196,109591,2,0,L|36:224,14,18.75
60,160,110251,5,4,0:1:0:0:
256,192,110333,12,0,112558,0:0:0:0:
204,184,112888,6,0,B|236:160|280:208|324:192,1,112.5
472,96,113547,6,0,B|460:60|460:60|416:28,1,75
308,32,113877,1,0,0:0:0:0:
320,260,114042,2,0,B|332:296|332:296|376:328,1,75
480,348,114372,1,0,0:0:0:0:
232,124,114536,2,0,L|128:120,1,75
400,260,114866,2,0,L|504:264,1,75
448,72,115196,1,0,0:0:0:0:
88,56,115525,6,0,L|64:72,1,18.75
100,68,115608,2,0,L|80:88,1,18.75
112,84,115690,2,0,L|104:112,1,18.75
132,96,115773,2,0,L|132:120,1,18.75
160,96,115855,2,0,L|164:124,1,18.75
184,96,115938,2,0,L|196:120,1,18.75
208,88,116020,2,0,L|220:104,1,18.75
232,72,116102,2,0,L|248:88,1,18.75
248,52,116185,6,0,P|284:36|400:48,1,150
264,332,116679,2,0,P|228:348|112:336,1,150
388,168,117174,2,0,B|392:208|392:208|380:240,1,75
145,115,117504,2,0,B|171:84|171:84|202:70,1,75
464,36,117833,1,0,0:0:0:0:
464,36,118163,6,0,B|428:60|488:120|464:144,1,112.5
280,316,118822,6,0,B|224:296|224:296|208:256,1,75
368,332,119152,1,0,0:0:0:0:
252,72,119317,2,0,B|308:92|308:92|324:132,1,75
164,56,119647,1,0,0:0:0:0:
392,84,119811,2,0,L|416:168,1,75
120,300,120141,2,0,L|96:216,1,75
304,344,120471,1,0,0:0:0:0:
304,344,120800,6,0,P|272:316|248:304,1,56.2500021457673
244,300,121047,1,0,0:0:0:0:
228,292,121130,1,0,0:0:0:0:
152,204,121295,2,0,P|184:176|208:164,1,56.2500021457673
212,160,121542,1,0,0:0:0:0:
228,152,121625,1,0,0:0:0:0:
376,144,121789,6,0,P|384:112|380:76,1,56.2500021457673
380,76,122036,1,0,0:0:0:0:
372,60,122119,1,0,0:0:0:0:
260,40,122284,1,0,0:0:0:0:
260,40,122366,1,0,0:0:0:0:
260,40,122449,2,0,L|204:44,1,56.2500021457673
136,124,122696,1,0,0:0:0:0:
136,124,122778,2,0,L|192:120,1,56.2500021457673
356,132,123108,2,0,B|312:148|312:148|304:204,1,84.3750032186509
372,256,123438,6,0,P|408:244|428:172,1,112.5
192,48,124097,6,0,B|152:56|152:56|124:88,1,75
192,276,124427,1,0,0:0:0:0:
320,48,124591,2,0,B|360:56|360:56|388:88,1,75
320,276,124921,1,0,0:0:0:0:
124,176,125086,2,0,L|48:180,1,75
388,176,125416,2,0,L|464:180,1,75
256,340,125745,1,0,0:0:0:0:
268,104,126075,6,0,L|244:84,1,18.75
280,96,126157,2,0,L|272:76,1,18.75
300,84,126240,2,0,L|300:60,1,18.75
328,72,126322,2,0,L|332:40,1,18.75
352,68,126405,2,0,L|364:48,1,18.75
384,72,126487,2,0,L|392:48,1,18.75
404,80,126569,2,0,L|420:48,1,18.75
424,88,126652,2,0,L|448:68,1,18.75
448,100,126734,6,0,B|460:140|460:140|448:168|448:168|468:232,1,112.5
472,244,127064,1,0,0:0:0:0:
320,332,127229,2,0,B|308:292|308:292|320:264|320:264|300:200,1,112.5
296,188,127559,1,0,0:0:0:0:
172,72,127723,1,0,0:0:0:0:
88,200,127888,1,0,0:0:0:0:
88,200,127971,1,0,0:0:0:0:
88,200,128053,2,0,P|72:236|100:328,1,112.5
114,337,128383,6,0,B|139:327|139:327|177:334,1,56.25
251,347,128712,6,0,P|271:299|273:182,1,150
244,105,129207,1,0,0:0:0:0:
151,50,129372,2,0,P|113:78|104:118,1,75
170,238,129701,1,0,0:0:0:0:
353,140,129866,1,0,0:0:0:0:
353,140,130031,6,0,B|368:163|399:169|399:169|390:200|413:236,2,112.5
286,81,130608,1,0,0:0:0:0:
286,81,130690,2,0,P|240:88|202:70,1,75
101,126,131020,1,0,0:0:0:0:
31,28,131185,1,0,0:0:0:0:
181,224,131350,6,0,L|233:280,1,75
370,319,131679,1,0,0:0:0:0:
471,221,131844,2,0,L|359:106,1,150
243,38,132339,1,0,0:0:0:0:
138,121,132504,6,0,P|92:142|60:137,1,75
221,180,132833,2,0,P|225:224|204:265,1,75
304,119,133163,2,0,P|370:127|391:144,1,75
407,150,133410,1,0,0:0:0:0:
435,174,133492,1,0,0:0:0:0:
454,206,133574,1,0,0:0:0:0:
460,243,133657,1,0,0:0:0:0:
455,280,133739,1,0,0:0:0:0:
437,313,133822,1,0,0:0:0:0:
410,338,133904,1,0,0:0:0:0:
375,352,133986,1,4,0:0:0:0:
256,168,136460,5,0,0:0:0:0:
256,176,136542,1,0,0:0:0:0:
256,184,136624,1,4,0:1:0:0:
108,56,139262,5,0,0:0:0:0:
60,184,139427,1,0,0:0:0:0:
120,228,139591,1,0,0:0:0:0:
188,200,139756,1,0,0:0:0:0:
248,248,139921,1,0,0:0:0:0:
316,220,140086,1,0,0:0:0:0:
364,276,140251,1,0,0:0:0:0:
424,232,140416,1,0,0:0:0:0:
404,56,140580,5,0,0:0:0:0:
232,44,140745,1,0,0:0:0:0:
160,132,140909,1,0,0:0:0:0:
228,220,141075,1,0,0:0:0:0:
164,312,141239,1,0,0:0:0:0:
92,224,141404,1,0,0:0:0:0:
240,144,141569,1,0,0:0:0:0:
312,232,141734,1,0,0:0:0:0:
408,320,141899,5,0,0:0:0:0:
424,286,141981,1,0,0:0:0:0:
435,250,142063,1,0,0:0:0:0:
442,213,142146,1,0,0:0:0:0:
443,176,142228,1,0,0:0:0:0:
439,138,142311,1,0,0:0:0:0:
431,102,142393,1,0,0:0:0:0:
417,67,142475,1,0,0:0:0:0:
336,48,142558,5,0,0:0:0:0:
293,63,142640,1,0,0:0:0:0:
249,68,142722,1,0,0:0:0:0:
204,67,142805,1,0,0:0:0:0:
159,60,142887,1,0,0:0:0:0:
116,48,142970,1,0,0:0:0:0:
132,92,143053,1,0,0:0:0:0:
148,132,143135,1,0,0:0:0:0:
256,192,143218,12,0,144207,0:0:0:0:
256,188,144536,5,4,0:0:0:0:
408,128,144701,2,0,P|388:84|352:40,1,89.9999972534181
152,68,145031,1,0,0:0:0:0:
128,104,145113,1,0,0:0:0:0:
160,208,145278,1,0,0:0:0:0:
136,244,145360,1,0,0:0:0:0:
108,280,145443,1,0,0:0:0:0:
84,320,145525,2,0,P|136:348|208:352,1,89.9999972534181
428,280,145855,6,0,P|376:252|304:248,1,89.9999972534181
84,104,146185,2,0,P|136:132|208:136,1,89.9999972534181
212,136,146432,1,0,0:0:0:0:
388,72,146597,2,0,L|440:80,2,44.999998626709
344,68,146844,1,0,0:0:0:0:
168,68,147009,1,0,0:0:0:0:
216,172,147174,6,0,P|260:160|316:180,1,89.9999972534181
304,244,147421,2,0,P|260:256|204:236,1,89.9999972534181
180,224,147668,1,0,0:0:0:0:
136,208,147751,1,0,0:0:0:0:
92,208,147833,1,0,0:0:0:0:
56,232,147916,1,0,0:0:0:0:
40,276,147998,1,0,0:0:0:0:
52,320,148080,1,0,0:0:0:0:
92,340,148163,2,0,B|144:356|144:356|188:352,1,89.9999972534181
220,332,148410,1,0,0:0:0:0:
260,352,148493,6,0,B|295:355|295:355|347:339,1,89.9999972534181
428,192,148822,2,0,L|416:96,1,89.9999972534181
372,40,149069,1,0,0:0:0:0:
350,80,149152,1,0,0:0:0:0:
329,120,149234,1,0,0:0:0:0:
311,161,149317,1,0,0:0:0:0:
290,200,149399,2,0,P|228:211|178:195,1,89.9999972534181
134,184,149646,2,0,L|108:229,1,44.999998626709
171,119,149811,6,0,L|215:32,1,89.9999972534181
373,213,150141,2,0,L|332:293,1,89.9999972534181
314,335,150388,1,0,0:0:0:0:
186,282,150553,1,0,0:0:0:0:
164,321,150635,1,0,0:0:0:0:
133,197,150800,2,0,B|178:181|178:181|244:202,1,89.9999972534181
396,82,151130,6,0,B|351:66|351:66|285:87,1,89.9999972534181
394,281,151460,2,0,B|439:297|439:297|505:276,1,89.9999972534181
440,217,151707,1,0,0:0:0:0:
422,211,151789,2,0,L|352:190,1,44.999998626709
364,120,151954,2,0,L|292:144,1,44.999998626709
292,240,152119,2,0,L|222:219,1,44.999998626709
232,96,152284,2,0,L|160:120,1,44.999998626709
60,230,152449,6,0,P|104:235|147:221,1,89.9999972534181
280,46,152778,2,0,P|235:41|193:55,1,89.9999972534181
153,76,153025,1,0,0:0:0:0:
285,162,153190,1,0,0:0:0:0:
327,145,153273,1,0,0:0:0:0:
441,216,153438,1,0,0:0:0:0:
399,233,153521,1,0,0:0:0:0:
206,296,153685,1,0,0:0:0:0:
161,295,153767,6,0,P|127:240|127:199,1,89.9999972534181
220,31,154097,2,0,P|254:86|254:127,1,89.9999972534181
244,153,154344,1,0,0:0:0:0:
235,197,154427,5,0,0:0:0:0:
475,174,154591,1,0,0:0:0:0:
367,345,154756,1,0,0:0:0:0:
364,286,154839,1,0,0:0:0:0:
364,227,154921,1,0,0:0:0:0:
360,168,155004,1,0,0:0:0:0:
356,108,155086,6,0,P|304:68|252:64,1,89.9999972534181,4|0,0:0|0:0,0:0:0:0:
80,80,155416,2,0,L|104:188,1,89.9999972534181
108,212,155663,1,0,0:0:0:0:
252,264,155828,1,0,0:0:0:0:
268,224,155910,1,0,0:0:0:0:
284,184,155993,1,0,0:0:0:0:
300,144,156075,2,0,L|424:176,1,89.9999972534181
236,40,156405,6,0,L|112:72,1,89.9999972534181
36,216,156734,2,0,L|123:238,1,89.9999972534181
168,252,156982,1,0,0:0:0:0:
348,248,157146,2,0,L|400:236,2,44.999998626709
304,252,157394,2,0,P|280:208|280:140,1,89.9999972534181
415,66,157723,6,0,P|379:92|336:104,1,89.9999972534181
231,52,157971,2,0,P|267:26|310:14,1,89.9999972534181
323,60,158218,1,0,0:0:0:0:
335,104,158300,1,0,0:0:0:0:
347,148,158383,1,0,0:0:0:0:
357,191,158465,1,0,0:0:0:0:
367,234,158547,2,0,B|329:272|329:272|274:279,1,89.9999972534181
219,278,158795,1,0,0:0:0:0:
212,232,158877,1,0,0:0:0:0:
204,188,158960,1,0,0:0:0:0:
196,144,159042,6,0,L|180:56,1,89.9999972534181
92,82,159289,1,0,0:0:0:0:
92,82,159372,2,0,L|108:170,1,89.9999972534181
120,214,159619,1,0,0:0:0:0:
161,180,159701,1,0,0:0:0:0:
196,144,159784,1,0,0:0:0:0:
247,128,159866,1,0,0:0:0:0:
300,136,159949,2,0,P|342:143|401:123,1,89.9999972534181
442,76,160196,2,0,L|433:27,1,44.999998626709
444,184,160361,6,0,L|428:280,1,89.9999972534181
280,328,160690,2,0,L|294:239,1,89.9999972534181
304,196,160938,1,0,0:0:0:0:
256,36,161102,1,0,0:0:0:0:
224,68,161185,1,0,0:0:0:0:
192,100,161267,1,0,0:0:0:0:
160,132,161350,2,0,P|204:184|200:232,1,89.9999972534181
324,120,161679,6,0,P|360:80|432:80,1,89.9999972534181
384,272,162009,2,0,P|348:312|276:312,1,89.9999972534181
236,312,162256,1,0,0:0:0:0:
232,296,162339,2,0,L|216:224,1,44.999998626709
296,168,162504,2,0,L|292:216,1,44.999998626709
200,144,162668,2,0,L|176:72,1,44.999998626709
320,32,162833,2,0,L|316:88,1,44.999998626709
222,252,162998,6,0,P|162:252|110:188,1,134.999995880127
152,44,163493,1,0,0:0:0:0:
316,76,163657,2,0,P|376:84|424:148,1,134.999995880127
376,264,164152,1,0,0:0:0:0:
256,192,164317,12,0,165306,0:0:0:0:
220,160,165635,5,4,0:0:0:0:
76,52,165800,1,0,0:0:0:0:
52,232,165965,1,0,0:0:0:0:
264,64,166130,1,0,0:0:0:0:
320,72,166212,1,0,0:0:0:0:
380,76,166295,2,0,L|416:40,2,44.999998626709
356,132,166542,1,0,0:0:0:0:
328,184,166624,1,0,0:0:0:0:
248,316,166789,1,0,0:0:0:0:
120,128,166954,5,0,0:0:0:0:
60,300,167119,1,0,0:0:0:0:
248,316,167284,1,0,0:0:0:0:
420,252,167449,1,0,0:0:0:0:
432,196,167531,1,0,0:0:0:0:
432,136,167613,2,0,L|432:76,1,44.999998626709
352,36,167778,2,0,L|336:88,1,44.999998626709
280,160,167943,2,0,L|248:112,1,44.999998626709
200,40,168108,2,0,L|160:88,1,44.999998626709
40,224,168273,6,0,P|84:252|147:251,1,89.9999972534181
220,200,168520,2,0,P|176:172|116:172,1,89.9999972534181
80,180,168767,1,0,0:0:0:0:
40,224,168850,1,0,0:0:0:0:
32,280,168932,1,0,0:0:0:0:
64,328,169014,1,0,0:0:0:0:
120,348,169097,1,0,0:0:0:0:
168,316,169179,2,0,P|216:304|268:320,1,89.9999972534181
312,336,169427,1,0,0:0:0:0:
364,360,169509,1,0,0:0:0:0:
424,356,169591,6,0,L|460:256,1,89.9999972534181
456,212,169839,1,0,0:0:0:0:
440,156,169921,1,0,0:0:0:0:
264,64,170086,1,0,0:0:0:0:
212,92,170168,1,0,0:0:0:0:
152,88,170251,1,0,0:0:0:0:
100,64,170333,1,0,0:0:0:0:
48,36,170416,2,0,B|28:88|28:88|32:136,1,89.9999972534181
64,168,170663,1,0,0:0:0:0:
52,224,170745,1,0,0:0:0:0:
40,280,170828,1,0,0:0:0:0:
72,324,170910,5,0,0:0:0:0:
284,324,171075,1,0,0:0:0:0:
464,184,171240,1,0,0:0:0:0:
252,56,171405,1,0,0:0:0:0:
252,56,171487,1,0,0:0:0:0:
252,56,171569,2,0,L|272:112,1,44.999998626709
376,192,171734,2,0,L|396:248,1,44.999998626709
248,288,171899,2,0,L|268:344,1,44.999998626709
128,169,172064,2,0,L|148:225,1,44.999998626709
252,56,172229,6,0,L|281:141,1,89.9999972534181
468,208,172558,2,0,L|438:122,1,89.9999972534181
372,36,172806,1,0,0:0:0:0:
368,44,172888,2,0,P|352:88|340:100,1,44.999998626709
216,104,173053,2,0,P|188:144|188:160,1,44.999998626709
308,212,173218,2,0,P|268:244|256:244,1,44.999998626709
128,252,173383,2,0,P|112:288|112:300,1,44.999998626709
300,312,173547,6,0,P|348:288|388:204,1,134.999995880127
396,144,173877,1,0,0:0:0:0:
288,80,174042,2,0,P|236:76|180:92,1,89.9999972534181
