osu file format v14

[General]
AudioFilename: audio.mp3
AudioLeadIn: 0
PreviewTime: 144578
Countdown: 0
SampleSet: Soft
StackLeniency: 0.7
Mode: 3
LetterboxInBreaks: 0
SpecialStyle: 0
WidescreenStoryboard: 0

[Editor]
DistanceSpacing: 0.8
BeatDivisor: 1
GridSize: 8
TimelineZoom: 2.400005

[Metadata]
Title:cyanine
TitleUnicode:cyanine
Artist:jioyi
ArtistUnicode:jioyi
Creator:Rivals_7
Version:Beginner
Source:Lanota
Tags:aste- 1164530434 noxy games fisica ritmo dance EDM boss song chapter 2 drum & bass hardcore bass drumstep dubstep arcaea
BeatmapID:1231249
BeatmapSetID:581729

[Difficulty]
HPDrainRate:6.5
CircleSize:4
OverallDifficulty:6.5
ApproachRate:5
SliderMultiplier:1.4
SliderTickRate:1

[Events]
//Background and Video events
0,0,"cyanine.jpg",0,0
//Break Periods
//Storyboard Layer 0 (Background)
//Storyboard Layer 1 (Fail)
//Storyboard Layer 2 (Pass)
//Storyboard Layer 3 (Foreground)
//Storyboard Sound Samples
Sample,1668,0,"B5S_s.wav",40
Sample,2657,0,"B6S_s.wav",40
Sample,3316,0,"A6S_s.wav",40
Sample,3646,0,"G6S_s.wav",40
Sample,4635,0,"F#6S_Gb6S_s.wav",40
Sample,5624,0,"B5S_s.wav",40
Sample,9580,0,"B5S_s.wav",40
Sample,10569,0,"B6S_s.wav",40
Sample,11558,0,"F#6S_Gb6S_s.wav",40
Sample,12547,0,"D7S_s.wav",40
Sample,13206,0,"C7S_s.wav",40
Sample,13536,0,"B6S_s.wav",40
Sample,14525,0,"B5S_s.wav",80
Sample,15514,0,"E5S_s.wav",40
Sample,16173,0,"E5S_s.wav",40
Sample,16393,0,"E6S_s.wav",80
Sample,16448,0,"F#6S_Gb6S_s.wav",80
Sample,16503,0,"D#5S_Eb5S_s.wav",40
Sample,17327,0,"LR_RevCyG.wav",30
Sample,18151,0,"Kick.wav",70
Sample,18315,0,"LR_HiHat Click2.wav",50
Sample,18398,0,"LR_HiHat Click.wav",50
Sample,18480,0,"Kick.wav",35
Sample,18645,0,"LR_HiHat Click2.wav",50
Sample,18727,0,"LR_HiHat Click.wav",50
Sample,18810,0,"Kick.wav",35
Sample,18975,0,"LR_HiHat Click2.wav",25
Sample,18975,0,"LR_HiHat Click2.wav",25
Sample,19057,0,"LR_HiHat Click.wav",50
Sample,19140,0,"Kick.wav",35
Sample,19304,0,"LR_HiHat Click2.wav",50
Sample,19387,0,"LR_HiHat Click.wav",50
Sample,19469,0,"Kick.wav",35
Sample,19469,0,"Kick.wav",35
Sample,19634,0,"LR_HiHat Click2.wav",50
Sample,19716,0,"LR_HiHat Click.wav",50
Sample,19799,0,"Kick.wav",35
Sample,19799,0,"Kick.wav",35
Sample,19964,0,"LR_HiHat Click2.wav",50
Sample,20046,0,"LR_HiHat Click.wav",50
Sample,20129,0,"Kick.wav",35
Sample,20293,0,"LR_HiHat Click2.wav",50
Sample,20376,0,"LR_HiHat Click.wav",50
Sample,20458,0,"Kick.wav",35
Sample,20623,0,"LR_HiHat Click2.wav",50
Sample,20705,0,"LR_HiHat Click.wav",50
Sample,20788,0,"Kick.wav",35
Sample,20953,0,"LR_HiHat Click2.wav",25
Sample,20953,0,"LR_HiHat Click2.wav",25
Sample,21035,0,"LR_HiHat Click.wav",50
Sample,21118,0,"Kick.wav",35
Sample,21282,0,"LR_HiHat Click2.wav",50
Sample,21365,0,"LR_HiHat Click.wav",50
Sample,21447,0,"Kick.wav",35
Sample,21612,0,"LR_HiHat Click2.wav",50
Sample,21694,0,"LR_HiHat Click.wav",50
Sample,21777,0,"Kick.wav",35
Sample,21942,0,"LR_HiHat Click2.wav",50
Sample,22024,0,"LR_HiHat Click.wav",50
Sample,22107,0,"Kick.wav",35
Sample,22271,0,"LR_HiHat Click2.wav",50
Sample,22354,0,"LR_HiHat Click.wav",50
Sample,22436,0,"Kick.wav",35
Sample,22601,0,"LR_HiHat Click2.wav",50
Sample,22683,0,"LR_HiHat Click.wav",50
Sample,22766,0,"Kick.wav",35
Sample,22931,0,"LR_HiHat Click2.wav",25
Sample,22931,0,"LR_HiHat Click2.wav",25
Sample,23013,0,"LR_HiHat Click.wav",50
Sample,23096,0,"Kick.wav",35
Sample,23260,0,"LR_HiHat Click2.wav",50
Sample,23343,0,"LR_HiHat Click.wav",50
Sample,23425,0,"Kick.wav",35
Sample,23425,0,"LR4_SnareDropDwS.wav",70
Sample,23590,0,"LR_HiHat Click2.wav",50
Sample,23672,0,"LR_HiHat Click.wav",50
Sample,23755,0,"Kick.wav",35
Sample,23755,0,"Kick.wav",35
Sample,23920,0,"LR_HiHat Click2.wav",50
Sample,24002,0,"LR_HiHat Click.wav",50
Sample,24085,0,"LR2_ClapRRvLE.wav",35
Sample,24085,0,"Kick.wav",70
Sample,24249,0,"LR_HiHat Click2.wav",50
Sample,24332,0,"LR_HiHat Click.wav",50
Sample,24414,0,"Kick.wav",35
Sample,24579,0,"LR_HiHat Click2.wav",25
Sample,24579,0,"LR_HiHat Click2.wav",25
Sample,24661,0,"LR_HiHat Click.wav",50
Sample,24744,0,"Kick.wav",35
Sample,24909,0,"LR_HiHat Click2.wav",25
Sample,24909,0,"LR_HiHat Click2.wav",25
Sample,24991,0,"LR_HiHat Click.wav",50
Sample,25074,0,"Kick.wav",35
Sample,25238,0,"LR_HiHat Click2.wav",50
Sample,25321,0,"LR_HiHat Click.wav",50
Sample,25403,0,"Kick.wav",35
Sample,25568,0,"LR_HiHat Click2.wav",50
Sample,25651,0,"LR_HiHat Click.wav",50
Sample,25733,0,"Kick.wav",35
Sample,25898,0,"LR_HiHat Click2.wav",50
Sample,26063,0,"cymbol 2.wav",35
Sample,26063,0,"Kick.wav",35
Sample,26227,0,"LR_HiHat Click2.wav",50
Sample,26310,0,"LR_HiHat Click.wav",50
Sample,26392,0,"Kick.wav",35
Sample,26557,0,"LR_HiHat Click2.wav",50
Sample,26640,0,"LR_HiHat Click.wav",50
Sample,26722,0,"Kick.wav",35
Sample,26887,0,"LR_HiHat Click2.wav",25
Sample,26887,0,"LR_HiHat Click2.wav",25
Sample,26969,0,"LR_HiHat Click.wav",50
Sample,27052,0,"Kick.wav",35
Sample,27216,0,"LR_HiHat Click2.wav",50
Sample,27299,0,"LR_HiHat Click.wav",50
Sample,27381,0,"Kick.wav",35
Sample,27381,0,"LR4_SnareDropDwS.wav",70
Sample,27546,0,"LR_HiHat Click2.wav",50
Sample,27629,0,"LR_HiHat Click.wav",50
Sample,27711,0,"Kick.wav",35
Sample,27711,0,"Kick.wav",35
Sample,27876,0,"LR_HiHat Click2.wav",50
Sample,27958,0,"LR_HiHat Click.wav",50
Sample,28041,0,"Kick.wav",35
Sample,28205,0,"LR_HiHat Click2.wav",50
Sample,28288,0,"LR_HiHat Click.wav",50
Sample,28370,0,"Kick.wav",35
Sample,28535,0,"LR_HiHat Click2.wav",50
Sample,28618,0,"LR_HiHat Click.wav",50
Sample,28700,0,"Kick.wav",35
Sample,28865,0,"LR_HiHat Click2.wav",25
Sample,28865,0,"LR_HiHat Click2.wav",25
Sample,28947,0,"LR_HiHat Click.wav",50
Sample,29030,0,"Kick.wav",35
Sample,29194,0,"LR_HiHat Click2.wav",50
Sample,29277,0,"LR_HiHat Click.wav",50
Sample,29359,0,"Kick.wav",35
Sample,29524,0,"LR_HiHat Click2.wav",50
Sample,29607,0,"LR_HiHat Click.wav",50
Sample,29689,0,"Kick.wav",35
Sample,29854,0,"LR_HiHat Click2.wav",50
Sample,30019,0,"Kick.wav",70
Sample,30101,0,"LR4_ClapReverbDPS.wav",15
Sample,30183,0,"LR_HiHat Click2.wav",50
Sample,30183,0,"LR4_ClapReverbDPS.wav",15
Sample,30266,0,"LR4_ClapReverbDPS.wav",15
Sample,30348,0,"Kick.wav",70
Sample,30431,0,"LR4_ClapReverbDPS.wav",15
Sample,30513,0,"LR_HiHat Click2.wav",50
Sample,30513,0,"LR4_ClapReverbDPS.wav",15
Sample,30596,0,"LR4_ClapReverbDPS.wav",15
Sample,30678,0,"LR4_ClapReverbDPS.wav",15
Sample,30760,0,"LR4_ClapReverbDPS.wav",15
Sample,30843,0,"LR_HiHat Click2.wav",50
Sample,30843,0,"LR4_ClapReverbDPS.wav",15
Sample,30925,0,"LR4_ClapReverbDPS.wav",15
Sample,31008,0,"Kick.wav",70
Sample,31090,0,"LR4_ClapReverbDPS.wav",15
Sample,31172,0,"LR_HiHat Click2.wav",50
Sample,31172,0,"LR4_ClapReverbDPS.wav",15
Sample,31255,0,"LR4_ClapReverbDPS.wav",15
Sample,31337,0,"LR4_SnareDropDwS.wav",70
Sample,31337,0,"LR4_ClapReverbDPS.wav",10
Sample,31420,0,"LR4_ClapReverbDPS.wav",15
Sample,31502,0,"LR4_ClapReverbDPS.wav",15
Sample,31502,0,"LR_HiHat Click2.wav",50
Sample,31585,0,"LR4_ClapReverbDPS.wav",15
Sample,31667,0,"Kick.wav",70
Sample,31667,0,"LR_Snare Wet.wav",70
Sample,31749,0,"LR4_ClapReverbDPS.wav",15
Sample,31832,0,"LR_HiHat Click2.wav",50
Sample,31832,0,"LR4_ClapReverbDPS.wav",15
Sample,31914,0,"LR4_ClapReverbDPS.wav",15
Sample,31997,0,"LR2_ClapRRvLE.wav",70
Sample,31997,0,"Kick.wav",70
Sample,32079,0,"LR4_ClapReverbDPS.wav",15
Sample,32161,0,"LR4_ClapReverbDPS.wav",15
Sample,32161,0,"LR_HiHat Click2.wav",50
Sample,32244,0,"LR4_ClapReverbDPS.wav",15
Sample,32326,0,"LR4_ClapReverbDPS.wav",15
Sample,32409,0,"LR4_ClapReverbDPS.wav",15
Sample,32491,0,"LR4_ClapReverbDPS.wav",15
Sample,32491,0,"LR_HiHat Click2.wav",50
Sample,32574,0,"LR4_ClapReverbDPS.wav",15
Sample,32656,0,"Kick.wav",70
Sample,32738,0,"LR4_ClapReverbDPS.wav",15
Sample,32821,0,"LR4_ClapReverbDPS.wav",15
Sample,32821,0,"LR_HiHat Click2.wav",50
Sample,32903,0,"LR4_ClapReverbDPS.wav",15
Sample,32986,0,"LR_Hat Synth.wav",70
Sample,32986,0,"Kick.wav",70
Sample,33151,0,"Whistle 2.wav",70
Sample,33151,0,"LR_Hat Synth.wav",70
Sample,33151,0,"LR4_ClapReverbDPS.wav",15
Sample,33315,0,"snare2.wav",60
Sample,33480,0,"snare2.wav",60
Sample,33563,0,"snare2.wav",30
Sample,33563,0,"snare2.wav",30
Sample,33645,0,"ehco2.wav",30
Sample,33645,0,"Snare1.wav",60
Sample,33727,0,"snare2.wav",60
Sample,33810,0,"snare2.wav",60
Sample,33892,0,"Snare1.wav",60
Sample,33975,0,"cymbol 2.wav",70
Sample,33975,0,"Crash.wav",70
Sample,34140,0,"LR_HiHat Click.wav",100
Sample,34222,0,"LR_HiHat Click.wav",100
Sample,34304,0,"LR_HiHat Click.wav",100
Sample,34469,0,"A6S_s.wav",70
Sample,34469,0,"LR_HiHat Click.wav",100
Sample,34634,0,"Kick.wav",35
Sample,34634,0,"Kick.wav",35
Sample,34799,0,"G6S_s.wav",70
Sample,34799,0,"LR_HiHat Click.wav",100
Sample,34964,0,"Kick.wav",70
Sample,35129,0,"LR_HiHat Click.wav",100
Sample,35293,0,"Kick.wav",35
Sample,35458,0,"LR_HiHat Click.wav",100
Sample,35623,0,"Kick.wav",35
Sample,35623,0,"Kick.wav",35
Sample,35788,0,"LR_HiHat Click.wav",100
Sample,35953,0,"LR_HiHat Click.wav",100
Sample,35953,0,"Kick.wav",70
Sample,36118,0,"LR_HiHat Click.wav",100
Sample,36200,0,"LR_HiHat Click.wav",100
Sample,36282,0,"LR_HiHat Click.wav",100
Sample,36282,0,"G6S_s.wav",70
Sample,36447,0,"LR_HiHat Click.wav",100
Sample,36612,0,"Kick.wav",70
Sample,36612,0,"Clap.wav",70
Sample,36777,0,"LR_HiHat Click.wav",100
Sample,36942,0,"A5S_s.wav",70
Sample,37107,0,"LR_HiHat Click.wav",100
Sample,37271,0,"Kick.wav",35
Sample,37271,0,"A5S_s.wav",70
Sample,37436,0,"LR_HiHat Click.wav",100
Sample,37601,0,"B5S_s.wav",70
Sample,37601,0,"Clap.wav",70
Sample,37766,0,"LR_HiHat Click.wav",100
Sample,37766,0,"C6S_s.wav",70
Sample,37931,0,"LR_HiHat Click.wav",100
Sample,37931,0,"C4S_s.wav",70
Sample,37931,0,"Kick.wav",70
Sample,38096,0,"LR_HiHat Click.wav",100
Sample,38178,0,"LR_HiHat Click.wav",100
Sample,38260,0,"Kick.wav",70
Sample,38260,0,"LR_HiHat Click.wav",100
Sample,38425,0,"LR_HiHat Click.wav",100
Sample,38590,0,"Kick.wav",70
Sample,38590,0,"Clap.wav",35
Sample,38755,0,"LR_HiHat Click.wav",100
Sample,38920,0,"Kick.wav",70
Sample,38920,0,"D4S_s.wav",70
Sample,39085,0,"LR_HiHat Click.wav",100
Sample,39249,0,"F#5S_Gb5S_s.wav",70
Sample,39414,0,"LR_HiHat Click.wav",100
Sample,39579,0,"Kick.wav",35
Sample,39579,0,"Clap.wav",70
Sample,39744,0,"LR_HiHat Click.wav",100
Sample,39909,0,"A3S_s.wav",70
Sample,39909,0,"LR_HiHat Click.wav",100
Sample,39909,0,"G5S_s.wav",70
Sample,40074,0,"LR_HiHat Click.wav",100
Sample,40156,0,"LR_HiHat Click.wav",100
Sample,40238,0,"LR_HiHat Click.wav",100
Sample,40238,0,"Kick.wav",70
Sample,40403,0,"LR_HiHat Click.wav",100
Sample,40568,0,"E5S_s.wav",70
Sample,40568,0,"Kick.wav",70
Sample,40733,0,"LR_HiHat Click.wav",100
Sample,40898,0,"Kick.wav",70
Sample,40898,0,"LR_Hat Synth.wav",70
Sample,40898,0,"B3S_s.wav",70
Sample,41227,0,"LR_RevCyCCR.wav",70
Sample,41227,0,"LR_Hat Synth.wav",70
Sample,41227,0,"Whistle 2.wav",70
Sample,41557,0,"ehco.wav",30
Sample,41887,0,"Crash.wav",70
Sample,41887,0,"Kick.wav",70
Sample,42052,0,"LR_HiHat Click.wav",100
Sample,42134,0,"LR_HiHat Click.wav",100
Sample,42216,0,"LR_HiHat Click.wav",100
Sample,42381,0,"A6S_s.wav",70
Sample,42381,0,"LR_HiHat Click.wav",100
Sample,42546,0,"Clap.wav",35
Sample,42546,0,"Kick.wav",70
Sample,42711,0,"LR_HiHat Click.wav",100
Sample,42711,0,"G6S_s.wav",70
Sample,42876,0,"Kick.wav",70
Sample,43041,0,"LR_HiHat Click.wav",100
Sample,43205,0,"Kick.wav",35
Sample,43370,0,"LR_HiHat Click.wav",100
Sample,43535,0,"Kick.wav",70
Sample,43535,0,"Clap.wav",35
Sample,43700,0,"LR_HiHat Click.wav",100
Sample,43865,0,"LR_HiHat Click.wav",100
Sample,43865,0,"D3S_s.wav",70
Sample,44030,0,"LR_HiHat Click.wav",100
Sample,44112,0,"LR_HiHat Click.wav",100
Sample,44174,0,"D7S_s.wav",70
Sample,44194,0,"F#7S_Gb7S_s.wav",70
Sample,44194,0,"bell1.wav",70
Sample,44194,0,"LR_HiHat Click.wav",100
Sample,44359,0,"LR_HiHat Click.wav",100
Sample,44524,0,"Clap.wav",70
Sample,44524,0,"F#7S_Gb7S_s.wav",70
Sample,44689,0,"LR_HiHat Click.wav",100
Sample,44689,0,"B6S_s.wav",70
Sample,44854,0,"Kick.wav",70
Sample,45019,0,"LR_HiHat Click.wav",100
Sample,45183,0,"Kick.wav",70
Sample,45348,0,"B5S_s.wav",50
Sample,45348,0,"LR_HiHat Click.wav",100
Sample,45431,0,"C6S_s.wav",50
Sample,45513,0,"D6S_s.wav",50
Sample,45568,0,"E6S_s.wav",50
Sample,45623,0,"F#6S_Gb6S_s.wav",50
Sample,45678,0,"G6S_s.wav",50
Sample,45678,0,"LR_HiHat Click.wav",100
Sample,45760,0,"A6S_s.wav",50
Sample,45843,0,"Kick.wav",70
Sample,45843,0,"LR_HiHat Click.wav",100
Sample,45843,0,"B6S_s.wav",70
Sample,46008,0,"LR_RevCyWWT.wav",70
Sample,46008,0,"LR_HiHat Click.wav",100
Sample,46090,0,"LR_HiHat Click.wav",100
Sample,46172,0,"LR_HiHat Click.wav",100
Sample,46337,0,"LR_HiHat Click.wav",100
Sample,46502,0,"Kick.wav",35
Sample,46502,0,"Kick.wav",35
Sample,46667,0,"LR_HiHat Click.wav",100
Sample,46832,0,"Kick.wav",35
Sample,46997,0,"LR_HiHat Click.wav",100
Sample,47161,0,"Kick.wav",35
Sample,47326,0,"LR_HiHat Click.wav",100
Sample,47491,0,"Kick.wav",35
Sample,47491,0,"Clap.wav",70
Sample,47656,0,"LR_HiHat Click.wav",100
Sample,47821,0,"Kick.wav",70
Sample,47821,0,"LR_HiHat Click.wav",100
Sample,47821,0,"LR_Drum Hit Clap Sn.wav",25
Sample,47903,0,"LR_Drum Hit Clap Sn.wav",25
Sample,47986,0,"LR_Drum Hit Clap Sn.wav",25
Sample,47986,0,"LR_HiHat Click.wav",100
Sample,48068,0,"LR_Drum Hit Clap Sn.wav",25
Sample,48068,0,"LR_HiHat Click.wav",70
Sample,48151,0,"LR_Drum Hit Clap Sn.wav",25
Sample,48151,0,"LR_HiHat Click.wav",100
Sample,48233,0,"LR_Drum Hit Clap Sn.wav",25
Sample,48315,0,"LR_Drum Hit Clap Sn.wav",25
Sample,48315,0,"C7S_s.wav",70
Sample,48315,0,"LR_HiHat Click.wav",100
Sample,48398,0,"LR_Drum Hit Clap Sn.wav",25
Sample,48480,0,"LR_Drum Hit Clap Sn.wav",25
Sample,48480,0,"Clap.wav",70
Sample,48563,0,"LR_Drum Hit Clap Sn.wav",25
Sample,48645,0,"LR_HiHat Click.wav",100
Sample,48645,0,"G6S_s.wav",70
Sample,48727,0,"LR_Drum Hit Clap Sn.wav",25
Sample,48727,0,"LR_Drum Hit Clap Sn.wav",25
Sample,48810,0,"LR_Drum Hit Clap Sn.wav",25
Sample,48810,0,"F#6S_Gb6S_s.wav",70
Sample,48892,0,"LR_Drum Hit Clap Sn.wav",25
Sample,48975,0,"LR_Drum Hit Clap Sn.wav",25
Sample,48975,0,"LR_HiHat Click.wav",100
Sample,49057,0,"LR_Drum Hit Clap Sn.wav",25
Sample,49140,0,"LR_Drum Hit Clap Sn.wav",25
Sample,49222,0,"B6S_s.wav",50
Sample,49222,0,"LR_Drum Hit Clap Sn.wav",25
Sample,49304,0,"LR_HiHat Click.wav",100
Sample,49304,0,"D7S_s.wav",50
Sample,49304,0,"LR_Drum Hit Clap Sn.wav",25
Sample,49387,0,"F#7S_Gb7S_s.wav",50
Sample,49387,0,"LR_Drum Hit Clap Sn.wav",25
Sample,49799,0,"Cymbal.wav",35
Sample,49799,0,"Kick.wav",35
Sample,49909,0,"LR_HiHat Click.wav",45
Sample,49909,0,"LR_HiHat Click.wav",45
Sample,50019,0,"LR_HiHat Click.wav",45
Sample,50019,0,"LR_HiHat Click.wav",45
Sample,50129,0,"Kick.wav",35
Sample,50238,0,"LR_HiHat Click.wav",45
Sample,50238,0,"LR_HiHat Click.wav",45
Sample,50348,0,"LR_HiHat Click.wav",45
Sample,50348,0,"LR_HiHat Click.wav",45
Sample,50458,0,"Kick.wav",70
Sample,50568,0,"LR_HiHat Click.wav",45
Sample,50568,0,"LR_HiHat Click.wav",45
Sample,50678,0,"LR_HiHat Click.wav",45
Sample,50678,0,"LR_HiHat Click.wav",45
Sample,50788,0,"Kick.wav",35
Sample,50898,0,"LR_HiHat Click.wav",45
Sample,50898,0,"LR_HiHat Click.wav",45
Sample,51008,0,"LR_HiHat Click.wav",45
Sample,51008,0,"LR_HiHat Click.wav",45
Sample,51118,0,"Kick.wav",35
Sample,51227,0,"LR_HiHat Click.wav",45
Sample,51227,0,"LR_HiHat Click.wav",45
Sample,51337,0,"LR_HiHat Click.wav",45
Sample,51337,0,"LR_HiHat Click.wav",45
Sample,51447,0,"Kick.wav",70
Sample,51557,0,"LR_HiHat Click.wav",45
Sample,51557,0,"LR_HiHat Click.wav",45
Sample,51667,0,"LR_HiHat Click.wav",45
Sample,51667,0,"LR_HiHat Click.wav",45
Sample,51777,0,"Kick.wav",35
Sample,51887,0,"LR_HiHat Click.wav",45
Sample,51887,0,"LR_HiHat Click.wav",45
Sample,51997,0,"LR_HiHat Click.wav",45
Sample,51997,0,"LR_HiHat Click.wav",45
Sample,52107,0,"Kick.wav",35
Sample,52216,0,"LR_HiHat Click.wav",45
Sample,52216,0,"LR_HiHat Click.wav",45
Sample,52326,0,"LR_HiHat Click.wav",45
Sample,52326,0,"LR_HiHat Click.wav",45
Sample,52436,0,"Kick.wav",70
Sample,52546,0,"LR_HiHat Click.wav",45
Sample,52546,0,"LR_HiHat Click.wav",45
Sample,52656,0,"LR_HiHat Click.wav",45
Sample,52656,0,"LR_HiHat Click.wav",45
Sample,52766,0,"Kick.wav",35
Sample,52876,0,"LR_HiHat Click.wav",45
Sample,52876,0,"LR_HiHat Click.wav",45
Sample,52986,0,"LR_HiHat Click.wav",45
Sample,52986,0,"LR_HiHat Click.wav",45
Sample,53096,0,"Kick.wav",35
Sample,53205,0,"LR_HiHat Click.wav",45
Sample,53205,0,"LR_HiHat Click.wav",45
Sample,53315,0,"LR_HiHat Click.wav",45
Sample,53315,0,"LR_HiHat Click.wav",45
Sample,53425,0,"Kick.wav",70
Sample,53535,0,"LR_HiHat Click.wav",45
Sample,53535,0,"LR_HiHat Click.wav",45
Sample,53645,0,"LR_HiHat Click.wav",45
Sample,53645,0,"LR_HiHat Click.wav",45
Sample,53865,0,"LR_HiHat Click.wav",45
Sample,53865,0,"LR_HiHat Click.wav",45
Sample,53975,0,"LR_HiHat Click.wav",45
Sample,53975,0,"LR_HiHat Click.wav",45
Sample,54085,0,"Kick.wav",35
Sample,54194,0,"LR_HiHat Click.wav",45
Sample,54194,0,"LR_HiHat Click.wav",45
Sample,54304,0,"LR_HiHat Click.wav",45
Sample,54304,0,"LR_HiHat Click.wav",45
Sample,54414,0,"Kick.wav",70
Sample,54524,0,"LR_HiHat Click.wav",45
Sample,54524,0,"LR_HiHat Click.wav",45
Sample,54634,0,"LR_HiHat Click.wav",45
Sample,54634,0,"LR_HiHat Click.wav",45
Sample,54744,0,"Kick.wav",35
Sample,54854,0,"LR_HiHat Click.wav",45
Sample,54854,0,"LR_HiHat Click.wav",45
Sample,54964,0,"LR_HiHat Click.wav",45
Sample,54964,0,"LR_HiHat Click.wav",45
Sample,55074,0,"Kick.wav",35
Sample,55183,0,"LR_HiHat Click.wav",45
Sample,55183,0,"LR_HiHat Click.wav",45
Sample,55293,0,"LR_HiHat Click.wav",45
Sample,55293,0,"LR_HiHat Click.wav",45
Sample,55403,0,"Clap.wav",70
Sample,55513,0,"LR_HiHat Click.wav",45
Sample,55513,0,"LR_HiHat Click.wav",45
Sample,55623,0,"LR_HiHat Click.wav",45
Sample,55623,0,"LR_HiHat Click.wav",45
Sample,55733,0,"Kick.wav",70
Sample,55843,0,"LR_HiHat Click.wav",45
Sample,55843,0,"LR_HiHat Click.wav",45
Sample,55953,0,"LR_HiHat Click.wav",90
Sample,55953,0,"Kick.wav",70
Sample,56063,0,"Clap.wav",23
Sample,56063,0,"Clap.wav",23
Sample,56172,0,"LR_HiHat Click.wav",45
Sample,56172,0,"LR_HiHat Click.wav",45
Sample,56282,0,"LR_HiHat Click.wav",90
Sample,56282,0,"Kick.wav",70
Sample,56392,0,"Clap.wav",23
Sample,56392,0,"Clap.wav",23
Sample,56502,0,"LR_HiHat Click.wav",45
Sample,56502,0,"LR_HiHat Click.wav",45
Sample,56612,0,"Kick.wav",70
Sample,56612,0,"LR_HiHat Click.wav",90
Sample,56722,0,"cymbol 2.wav",70
Sample,57711,0,"C3S_s.wav",10
Sample,57875,0,"LR_HiHat Click.wav",8
Sample,58205,0,"LR_HiHat Click.wav",8
Sample,58535,0,"LR_HiHat Click.wav",8
Sample,58700,0,"A2S_s.wav",20
Sample,58700,0,"LR_HiHat Click2.wav",8
Sample,58864,0,"LR_HiHat Click.wav",8
Sample,59194,0,"LR_HiHat Click.wav",8
Sample,59524,0,"LR_HiHat Click.wav",8
Sample,59606,0,"LR_HiHat Click.wav",8
Sample,59689,0,"LR_HiHat Click2.wav",8
Sample,59689,0,"click.wav",10
Sample,59853,0,"LR_HiHat Click.wav",8
Sample,60183,0,"LR_HiHat Click.wav",8
Sample,60348,0,"LR_HiHat Click2.wav",8
Sample,60513,0,"LR_HiHat Click.wav",8
Sample,60678,0,"click.wav",10
Sample,60842,0,"F#3S_Gb3S_s.wav",20
Sample,61172,0,"LR_HiHat Click.wav",8
Sample,61337,0,"LR_HiHat Click2.wav",8
Sample,61502,0,"LR_HiHat Click.wav",8
Sample,61667,0,"click.wav",10
Sample,61831,0,"LR_HiHat Click.wav",8
Sample,62161,0,"LR_HiHat Click.wav",8
Sample,62243,0,"LR_HiHat Click.wav",8
Sample,62326,0,"LR_HiHat Click2.wav",8
Sample,62491,0,"LR_HiHat Click.wav",8
Sample,62656,0,"click.wav",10
Sample,62820,0,"LR_HiHat Click.wav",8
Sample,62985,0,"LR_HiHat Click2.wav",8
Sample,63150,0,"LR_HiHat Click.wav",8
Sample,63480,0,"LR_HiHat Click.wav",8
Sample,63645,0,"click.wav",10
Sample,63809,0,"LR_HiHat Click.wav",8
Sample,63974,0,"LR_HiHat Click2.wav",8
Sample,64139,0,"LR_HiHat Click.wav",8
Sample,64469,0,"LR_HiHat Click.wav",8
Sample,64634,0,"click.wav",10
Sample,64798,0,"LR_HiHat Click.wav",8
Sample,64881,0,"LR_HiHat Click.wav",8
Sample,64963,0,"LR_HiHat Click2.wav",8
Sample,65128,0,"LR_HiHat Click.wav",8
Sample,65458,0,"LR_HiHat Click.wav",8
Sample,65623,0,"LR_HiHat Click2.wav",8
Sample,65623,0,"click.wav",10
Sample,65787,0,"LR_HiHat Click.wav",8
Sample,66117,0,"LR_HiHat Click.wav",8
Sample,66447,0,"LR_HiHat Click.wav",8
Sample,66612,0,"click.wav",10
Sample,66612,0,"LR_HiHat Click2.wav",8
Sample,66776,0,"LR_HiHat Click.wav",8
Sample,67106,0,"LR_HiHat Click.wav",8
Sample,67106,0,"LR_RevCyG.wav",70
Sample,67930,0,"LR4_BassKickReverbXD.wav",35
Sample,68260,0,"Bass.wav",35
Sample,68260,0,"Bass.wav",35
Sample,68754,0,"Bass.wav",35
Sample,69249,0,"Bass.wav",35
Sample,70897,0,"Bass.wav",23
Sample,70897,0,"Bass.wav",23
Sample,71392,0,"Bass.wav",35
Sample,71886,0,"Bass.wav",35
Sample,73123,0,"Bass.wav",70
Sample,73452,0,"Bass.wav",70
Sample,74029,0,"Bass.wav",35
Sample,74524,0,"Bass.wav",35
Sample,75513,0,"LR3_BassDrop.wav",70
Sample,76007,0,"ehco.wav",40
Sample,76172,0,"LR_HiHat Click2.wav",15
Sample,76337,0,"LR_HiHat Click.wav",30
Sample,76502,0,"LR_HiHat Click2.wav",30
Sample,76667,0,"Bass.wav",70
Sample,76831,0,"LR_HiHat Click2.wav",30
Sample,76996,0,"LR_HiHat Click.wav",30
Sample,77161,0,"LR_HiHat Click2.wav",15
Sample,77326,0,"LR_HiHat Click.wav",30
Sample,77491,0,"LR_HiHat Click2.wav",30
Sample,77656,0,"LR_HiHat Click.wav",30
Sample,77820,0,"LR_HiHat Click2.wav",30
Sample,77985,0,"LR_HiHat Click.wav",30
Sample,78150,0,"LR_HiHat Click2.wav",30
Sample,78315,0,"LR_HiHat Click.wav",30
Sample,78480,0,"LR_HiHat Click2.wav",30
Sample,78645,0,"LR_HiHat Click.wav",30
Sample,78809,0,"cymbol 2.wav",40
Sample,78809,0,"C3S_s.wav",70
Sample,79304,0,"D3S_s.wav",70
Sample,79304,0,"Bass.wav",40
Sample,79798,0,"LR_HiHat Click.wav",60
Sample,79963,0,"Bass.wav",20
Sample,79963,0,"Bass.wav",20
Sample,80623,0,"Bass.wav",20
Sample,80623,0,"Bass.wav",20
Sample,80952,0,"Bass.wav",20
Sample,80952,0,"Bass.wav",20
Sample,81282,0,"Bass.wav",20
Sample,81282,0,"Bass.wav",20
Sample,81447,0,"LR_HiHat Click.wav",60
Sample,81447,0,"Bass.wav",40
Sample,81776,0,"LR_HiHat Click.wav",60
Sample,81776,0,"LR_HiHat Click.wav",60
Sample,81941,0,"Bass.wav",40
Sample,81941,0,"D3S_s.wav",70
Sample,82436,0,"E3S_s.wav",70
Sample,82436,0,"LR_HiHat Click.wav",60
Sample,82601,0,"Bass.wav",20
Sample,82601,0,"Bass.wav",20
Sample,83095,0,"LR2_ClapRRvLE.wav",70
Sample,83260,0,"Bass.wav",20
Sample,83260,0,"Bass.wav",20
Sample,83590,0,"Bass.wav",20
Sample,83590,0,"Bass.wav",20
Sample,83754,0,"LR_Snare Hat 2.wav",50
Sample,83919,0,"Bass.wav",20
Sample,84084,0,"LR_HiHat Click.wav",60
Sample,84084,0,"D#3S_Eb3S_s.wav",70
Sample,84414,0,"LR_HiHat Click.wav",60
Sample,84579,0,"Bass.wav",40
Sample,84579,0,"E3S_s.wav",70
Sample,85073,0,"LR_HiHat Click.wav",60
Sample,85073,0,"B2S_s.wav",70
Sample,85238,0,"Bass.wav",20
Sample,85238,0,"Bass.wav",20
Sample,85732,0,"LR4_ClapLRV.wav",30
Sample,85897,0,"Bass.wav",20
Sample,85897,0,"Bass.wav",20
Sample,86227,0,"Bass.wav",20
Sample,86227,0,"Bass.wav",20
Sample,86392,0,"LR4_ClapLRV.wav",30
Sample,86557,0,"Bass.wav",40
Sample,86639,0,"LR4_ClapLRV.wav",30
Sample,86721,0,"Bass.wav",40
Sample,86721,0,"LR_HiHat Click.wav",60
Sample,87051,0,"LR_HiHat Click.wav",60
Sample,87216,0,"Bass.wav",40
Sample,87216,0,"D3S_s.wav",70
Sample,87711,0,"E3S_s.wav",70
Sample,87711,0,"LR_HiHat Click.wav",60
Sample,87875,0,"Bass.wav",20
Sample,88040,0,"cymbol 2.wav",35
Sample,88205,0,"Snare1.wav",60
Sample,88370,0,"Snare1.wav",60
Sample,88535,0,"snare2.wav",60
Sample,88864,0,"snare2.wav",60
Sample,88947,0,"snare2.wav",60
Sample,89029,0,"Snare1.wav",60
Sample,89112,0,"snare2.wav",60
Sample,89194,0,"Snare1.wav",60
Sample,89276,0,"Bass.wav",40
Sample,89359,0,"Bass.wav",40
Sample,89359,0,"Whistle.wav",30
Sample,89359,0,"LR2_ClapRRvLE.wav",30
Sample,89689,0,"LR2_ClapRRvLE.wav",15
Sample,89853,0,"Whistle.wav",30
Sample,89853,0,"Bass.wav",40
Sample,90018,0,"LR4_ClapLRV.wav",25
Sample,90018,0,"LR4_ClapLRV.wav",25
Sample,90183,0,"Whistle.wav",15
Sample,90183,0,"Whistle.wav",15
Sample,90348,0,"LR2_ClapRRvLE.wav",30
Sample,90348,0,"Whistle.wav",30
Sample,90678,0,"LR2_ClapRRvLE.wav",15
Sample,90842,0,"Bass.wav",40
Sample,91007,0,"LR2_ClapRRvLE.wav",15
Sample,91337,0,"LR2_ClapRRvLE.wav",30
Sample,91337,0,"Bass.wav",40
Sample,91337,0,"Clap.wav",30
Sample,91667,0,"LR2_ClapRRvLE.wav",30
Sample,91667,0,"Whistle.wav",30
Sample,91996,0,"LR2_ClapRRvLE.wav",30
Sample,91996,0,"Whistle.wav",30
Sample,92326,0,"LR2_ClapRRvLE.wav",15
Sample,92491,0,"Whistle.wav",30
Sample,92491,0,"Bass.wav",40
Sample,92656,0,"LR4_ClapLRV.wav",25
Sample,92656,0,"LR4_ClapLRV.wav",25
Sample,92820,0,"Whistle.wav",15
Sample,92820,0,"Whistle.wav",15
Sample,92985,0,"LR2_ClapRRvLE.wav",30
Sample,92985,0,"Whistle.wav",30
Sample,93315,0,"LR2_ClapRRvLE.wav",15
Sample,93480,0,"Bass.wav",40
Sample,93645,0,"LR2_ClapRRvLE.wav",15
Sample,93974,0,"Bass.wav",40
Sample,93974,0,"LR2_ClapRRvLE.wav",30
Sample,94139,0,"Whistle.wav",15
Sample,94139,0,"Whistle.wav",15
Sample,94304,0,"LR2_ClapRRvLE.wav",30
Sample,94304,0,"Whistle.wav",30
Sample,94469,0,"Whistle.wav",15
Sample,94469,0,"Whistle.wav",15
Sample,94634,0,"LR2_ClapRRvLE.wav",30
Sample,94634,0,"Whistle.wav",30
Sample,94963,0,"LR2_ClapRRvLE.wav",15
Sample,95128,0,"Whistle.wav",30
Sample,95128,0,"Bass.wav",40
Sample,95293,0,"LR4_ClapLRV.wav",25
Sample,95293,0,"LR4_ClapLRV.wav",25
Sample,95458,0,"Whistle.wav",15
Sample,95458,0,"Whistle.wav",15
Sample,95623,0,"LR2_ClapRRvLE.wav",30
Sample,95623,0,"Bass.wav",40
Sample,95952,0,"LR2_ClapRRvLE.wav",15
Sample,96117,0,"Bass.wav",40
Sample,96282,0,"LR2_ClapRRvLE.wav",15
Sample,96612,0,"Bass.wav",40
Sample,96612,0,"LR4_ClapLRV.wav",50
Sample,96612,0,"LR2_ClapRRvLE.wav",30
Sample,96941,0,"LR2_ClapRRvLE.wav",30
Sample,97271,0,"LR2_ClapRRvLE.wav",30
Sample,97601,0,"LR2_ClapRRvLE.wav",15
Sample,97765,0,"Whistle.wav",30
Sample,97765,0,"Bass.wav",40
Sample,97930,0,"LR4_ClapLRV.wav",25
Sample,97930,0,"LR4_ClapLRV.wav",25
Sample,98095,0,"Whistle.wav",15
Sample,98095,0,"Whistle.wav",15
Sample,98260,0,"Bass.wav",40
Sample,98260,0,"LR2_ClapRRvLE.wav",30
Sample,98590,0,"LR2_ClapRRvLE.wav",15
Sample,98754,0,"Bass.wav",40
Sample,98919,0,"LR2_ClapRRvLE.wav",15
Sample,99249,0,"LR4_ClapLRV.wav",50
Sample,99249,0,"LR2_ClapRRvLE.wav",30
Sample,99496,0,"LR2_ClapRRvLE.wav",40
Sample,99579,0,"LR3_BassDropPDG.wav",70
Sample,99908,0,"LR2_ClapRRvLE.wav",30
Sample,99908,0,"Whistle.wav",50
Sample,100073,0,"LR_Hat Normal.wav",60
Sample,100238,0,"LR2_ClapRRvLE.wav",30
Sample,100403,0,"Whistle.wav",50
Sample,100403,0,"LR_Hat Normal.wav",60
Sample,100568,0,"LR2_ClapRRvLE.wav",30
Sample,100732,0,"LR_Hat Normal.wav",60
Sample,100732,0,"Whistle.wav",50
Sample,100897,0,"Whistle.wav",50
Sample,100897,0,"LR2_ClapRRvLE.wav",30
Sample,101062,0,"LR_Hat Normal.wav",60
Sample,101227,0,"Bass.wav",50
Sample,101392,0,"LR_Hat Normal.wav",60
Sample,101557,0,"Bass.wav",50
Sample,101721,0,"LR_Hat Normal.wav",60
Sample,101886,0,"LR2_ClapRRvLE.wav",30
Sample,102051,0,"LR_Hat Normal.wav",60
Sample,102216,0,"LR2_ClapRRvLE.wav",30
Sample,102216,0,"Bass.wav",50
Sample,102381,0,"LR_Hat Normal.wav",30
Sample,102381,0,"LR_Hat Normal.wav",30
Sample,102546,0,"LR2_ClapRRvLE.wav",30
Sample,102546,0,"Whistle.wav",50
Sample,102711,0,"LR_Hat Normal.wav",60
Sample,102711,0,"LR_Hat Normal.wav",20
Sample,102875,0,"Bass.wav",50
Sample,103040,0,"LR_Hat Normal.wav",60
Sample,103040,0,"Whistle.wav",50
Sample,103205,0,"Bass.wav",50
Sample,103370,0,"LR_Hat Normal.wav",60
Sample,103370,0,"Whistle.wav",50
Sample,103535,0,"Bass.wav",50
Sample,103535,0,"LR2_ClapRRvLE.wav",30
Sample,103700,0,"LR_Hat Normal.wav",60
Sample,103700,0,"LR_Hat Normal.wav",20
Sample,103864,0,"Bass.wav",50
Sample,104029,0,"LR_Hat Normal.wav",20
Sample,104029,0,"LR_Hat Normal.wav",60
Sample,104194,0,"LR2_ClapRRvLE.wav",30
Sample,104359,0,"LR_Hat Normal.wav",30
Sample,104359,0,"LR_Hat Normal.wav",30
Sample,104524,0,"Bass.wav",50
Sample,104689,0,"Whistle.wav",50
Sample,104689,0,"LR_Hat Normal.wav",60
Sample,104853,0,"LR2_ClapRRvLE.wav",30
Sample,104853,0,"Bass.wav",50
Sample,105018,0,"LR_Hat Normal.wav",60
Sample,105018,0,"Whistle.wav",50
Sample,105183,0,"Whistle.wav",50
Sample,105183,0,"LR2_ClapRRvLE.wav",30
Sample,105348,0,"Bass.wav",30
Sample,105348,0,"Bass.wav",30
Sample,105513,0,"LR2_ClapRRvLE.wav",30
Sample,105678,0,"Bass.wav",30
Sample,105678,0,"Bass.wav",30
Sample,105842,0,"LR2_ClapRRvLE.wav",30
Sample,106007,0,"Bass.wav",30
Sample,106007,0,"Bass.wav",30
Sample,106172,0,"LR2_ClapRRvLE.wav",30
Sample,106337,0,"Bass.wav",30
Sample,106337,0,"Bass.wav",30
Sample,106502,0,"LR2_ClapRRvLE.wav",30
Sample,106667,0,"Bass.wav",30
Sample,106667,0,"Bass.wav",30
Sample,106831,0,"Bass.wav",60
Sample,106996,0,"Bass.wav",30
Sample,106996,0,"Bass.wav",30
Sample,107161,0,"LR2_ClapRRvLE.wav",30
Sample,107326,0,"Bass.wav",30
Sample,107326,0,"Bass.wav",30
Sample,107491,0,"Bass.wav",60
Sample,107656,0,"Bass.wav",30
Sample,107656,0,"Bass.wav",30
Sample,107820,0,"LR2_ClapRRvLE.wav",30
Sample,107903,0,"Bass.wav",30
Sample,107903,0,"Bass.wav",30
Sample,107985,0,"Bass.wav",30
Sample,107985,0,"Bass.wav",30
Sample,108068,0,"Bass.wav",30
Sample,108068,0,"Bass.wav",30
Sample,108150,0,"Bass.wav",60
Sample,108150,0,"LR2_ClapRRvLE.wav",30
Sample,108232,0,"Bass.wav",30
Sample,108232,0,"Bass.wav",30
Sample,108315,0,"Bass.wav",30
Sample,108315,0,"Bass.wav",30
Sample,108397,0,"Bass.wav",30
Sample,108397,0,"Bass.wav",30
Sample,108480,0,"Bass.wav",60
Sample,108521,0,"Bass.wav",60
Sample,108562,0,"Bass.wav",60
Sample,108603,0,"Bass.wav",60
Sample,108645,0,"Bass.wav",30
Sample,108645,0,"Bass.wav",30
Sample,108727,0,"Bass.wav",30
Sample,108727,0,"Bass.wav",30
Sample,108809,0,"Bass.wav",60
Sample,108809,0,"LR2_ClapRRvLE.wav",30
Sample,108892,0,"Bass.wav",30
Sample,108892,0,"Bass.wav",30
Sample,108974,0,"Bass.wav",30
Sample,108974,0,"Bass.wav",30
Sample,109057,0,"Bass.wav",30
Sample,109057,0,"Bass.wav",30
Sample,109139,0,"Bass.wav",60
Sample,109180,0,"Bass.wav",60
Sample,109221,0,"Bass.wav",60
Sample,109263,0,"Bass.wav",60
Sample,109304,0,"Bass.wav",40
Sample,109345,0,"Bass.wav",30
Sample,109386,0,"Bass.wav",20
Sample,109428,0,"Bass.wav",20
Sample,109469,0,"LR2_ClapRRvLE.wav",30
Sample,109469,0,"Bass.wav",20
Sample,109469,0,"Bass.wav",20
Sample,109510,0,"Bass.wav",20
Sample,109551,0,"Bass.wav",20
Sample,109592,0,"Bass.wav",30
Sample,109634,0,"snare2.wav",70
Sample,109675,0,"snare2.wav",70
Sample,109716,0,"snare2.wav",70
Sample,109757,0,"snare2.wav",70
Sample,109798,0,"LR2_ClapRRvLE.wav",30
Sample,109840,0,"snare2.wav",70
Sample,109881,0,"snare2.wav",70
Sample,109922,0,"snare2.wav",70
Sample,109963,0,"snare2.wav",70
Sample,110004,0,"snare2.wav",70
Sample,110046,0,"snare2.wav",70
Sample,110087,0,"snare2.wav",70
Sample,110128,0,"LR2_ClapRRvLE.wav",40
Sample,110128,0,"snare2.wav",70
Sample,110169,0,"snare2.wav",70
Sample,110211,0,"snare2.wav",70
Sample,110252,0,"snare2.wav",70
Sample,110293,0,"snare2.wav",70
Sample,110334,0,"snare2.wav",70
Sample,110375,0,"Snare1.wav",70
Sample,110417,0,"snare2.wav",70
Sample,110458,0,"LR2_ClapRRvLE.wav",30
Sample,111776,0,"LR_RevCyITV.wav",70
Sample,113095,0,"LR3_BassDropPDG.wav",70
Sample,113754,0,"LR4_SnareBPDT.wav",23
Sample,114084,0,"Kick.wav",35
Sample,114249,0,"LR4_SnareBPDT.wav",23
Sample,114249,0,"LR4_SnareBPDT.wav",23
Sample,114743,0,"LR4_SnareBPDT.wav",23
Sample,114743,0,"LR4_SnareBPDT.wav",23
Sample,115073,0,"LR4_SnareBPDT.wav",23
Sample,115073,0,"LR4_SnareBPDT.wav",23
Sample,115238,0,"Kick.wav",35
Sample,115403,0,"Kick.wav",35
Sample,115732,0,"Kick.wav",70
Sample,116062,0,"LR3_BassDrop.wav",70
Sample,116392,0,"LR4_SnareBPDT.wav",23
Sample,116721,0,"Kick.wav",35
Sample,116886,0,"LR4_SnareBPDT.wav",23
Sample,116886,0,"LR4_SnareBPDT.wav",23
Sample,117381,0,"LR4_SnareBPDT.wav",23
Sample,117381,0,"LR4_SnareBPDT.wav",23
Sample,117711,0,"LR4_SnareBPDT.wav",23
Sample,117711,0,"LR4_SnareBPDT.wav",23
Sample,118040,0,"ehco3.wav",25
Sample,118370,0,"Kick.wav",70
Sample,119029,0,"LR4_SnareBPDT.wav",23
Sample,119359,0,"Kick.wav",70
Sample,119524,0,"LR4_SnareBPDT.wav",23
Sample,119524,0,"LR4_SnareBPDT.wav",23
Sample,120018,0,"LR4_SnareBPDT.wav",23
Sample,120018,0,"LR4_SnareBPDT.wav",23
Sample,120348,0,"LR4_SnareBPDT.wav",23
Sample,120348,0,"LR4_SnareBPDT.wav",23
Sample,120513,0,"Kick.wav",35
Sample,120678,0,"Kick.wav",35
Sample,120987,0,"D7S_s.wav",70
Sample,121007,0,"F#7S_Gb7S_s.wav",70
Sample,121007,0,"LR_Drum Hit Clap Sn.wav",50
Sample,121172,0,"LR_Hat Normal.wav",70
Sample,121254,0,"Bass.wav",35
Sample,121254,0,"Bass.wav",35
Sample,121337,0,"LR_Drum Hit Clap Sn.wav",25
Sample,121337,0,"LR_Drum Hit Clap Sn.wav",25
Sample,121502,0,"Bass.wav",70
Sample,121502,0,"LR_Hat Normal.wav",70
Sample,121667,0,"LR_Hat Normal.wav",70
Sample,121749,0,"Bass.wav",35
Sample,121749,0,"Bass.wav",35
Sample,121831,0,"LR_Drum Hit Clap Sn.wav",25
Sample,121831,0,"LR_Drum Hit Clap Sn.wav",25
Sample,121996,0,"LR_Hat Normal.wav",70
Sample,122161,0,"LR_Hat Normal.wav",35
Sample,122161,0,"LR_Hat Normal.wav",35
Sample,122243,0,"LR_Drum Hit Clap Sn.wav",25
Sample,122243,0,"LR_Drum Hit Clap Sn.wav",25
Sample,122326,0,"LR_Hat Normal.wav",70
Sample,122408,0,"Bass.wav",70
Sample,122491,0,"LR_Drum Hit Clap Sn.wav",25
Sample,122491,0,"LR_Drum Hit Clap Sn.wav",25
Sample,122656,0,"LR_Hat Normal.wav",70
Sample,122820,0,"LR_Hat Normal.wav",35
Sample,122820,0,"LR_Hat Normal.wav",35
Sample,122903,0,"Bass.wav",35
Sample,122903,0,"Bass.wav",35
Sample,122985,0,"LR_Drum Hit Clap Sn.wav",25
Sample,123150,0,"LR4_RevCyCV5.wav",70
Sample,123315,0,"LR3_BassDrop.wav",35
Sample,123645,0,"LR3_BassDropPDG.wav",70
Sample,124304,0,"LR4_SnareBPDT.wav",23
Sample,124634,0,"Kick.wav",35
Sample,124798,0,"LR4_SnareBPDT.wav",23
Sample,124798,0,"LR4_SnareBPDT.wav",23
Sample,125293,0,"LR4_SnareBPDT.wav",23
Sample,125293,0,"LR4_SnareBPDT.wav",23
Sample,125623,0,"LR4_SnareBPDT.wav",23
Sample,125623,0,"LR4_SnareBPDT.wav",23
Sample,125787,0,"Kick.wav",35
Sample,125952,0,"Kick.wav",35
Sample,126282,0,"Kick.wav",35
Sample,126859,0,"Kick.wav",35
Sample,126859,0,"Kick.wav",35
Sample,126941,0,"LR4_SnareBPDT.wav",23
Sample,127189,0,"Kick.wav",35
Sample,127436,0,"LR4_SnareBPDT.wav",23
Sample,127436,0,"LR4_SnareBPDT.wav",23
Sample,127683,0,"Kick.wav",35
Sample,127930,0,"LR4_SnareBPDT.wav",23
Sample,127930,0,"LR4_SnareBPDT.wav",23
Sample,128178,0,"Kick.wav",35
Sample,128178,0,"Kick.wav",35
Sample,128260,0,"LR4_SnareBPDT.wav",23
Sample,128260,0,"LR4_SnareBPDT.wav",23
Sample,128590,0,"Kick.wav",23
Sample,128590,0,"Kick.wav",23
Sample,128919,0,"Kick.wav",35
Sample,129414,0,"Kick.wav",35
Sample,129579,0,"LR4_SnareBPDT.wav",23
Sample,130073,0,"Kick.wav",35
Sample,130238,0,"Kick.wav",35
Sample,130485,0,"LR4_SnareBPDT.wav",23
Sample,130485,0,"LR4_SnareBPDT.wav",23
Sample,130732,0,"Kick.wav",35
Sample,130815,0,"Kick.wav",35
Sample,130815,0,"Kick.wav",35
Sample,130897,0,"LR4_SnareBPDT.wav",23
Sample,130897,0,"LR4_SnareBPDT.wav",23
Sample,131062,0,"Kick.wav",35
Sample,131392,0,"LR4_SnareBPDT.wav",23
Sample,131392,0,"LR4_SnareBPDT.wav",23
Sample,131557,0,"LR_CymbalQST.wav",70
Sample,131557,0,"cymbol 2.wav",50
Sample,132051,0,"Kick.wav",70
Sample,132051,0,"Cymbal.wav",70
Sample,132711,0,"LR_CymbalSSD.wav",40
Sample,132711,0,"Kick.wav",70
Sample,133040,0,"Kick.wav",35
Sample,133040,0,"LR_CymbalSSD.wav",40
Sample,133370,0,"LR_CymbalSSD.wav",40
Sample,133370,0,"Kick.wav",35
Sample,133535,0,"LR4_SnareBPDT.wav",30
Sample,133617,0,"Bass.wav",30
Sample,133700,0,"Bass.wav",15
Sample,133700,0,"Bass.wav",15
Sample,133782,0,"Bass.wav",15
Sample,133782,0,"Bass.wav",15
Sample,133864,0,"Bass.wav",30
Sample,133947,0,"Bass.wav",30
Sample,134029,0,"Bass.wav",30
Sample,134112,0,"Bass.wav",30
Sample,134194,0,"cymbol 2.wav",70
Sample,134359,0,"LR_Drum Hit Clap Sn.wav",30
Sample,134359,0,"LR_Drum Hit Clap Sn.wav",30
Sample,134524,0,"LR_Drum Hit Clap Sn.wav",60
Sample,134771,0,"LR_Drum Hit Clap Sn.wav",30
Sample,134771,0,"LR_Drum Hit Clap Sn.wav",30
Sample,134853,0,"LR2_ClapRRvLE.wav",30
Sample,135018,0,"LR_Drum Hit Clap Sn.wav",30
Sample,135018,0,"LR_Drum Hit Clap Sn.wav",30
Sample,135183,0,"LR2_ClapRRvLE.wav",30
Sample,135265,0,"LR_Drum Hit Clap Sn.wav",30
Sample,135265,0,"LR_Drum Hit Clap Sn.wav",30
Sample,135430,0,"LR_Drum Hit Clap Sn.wav",30
Sample,135430,0,"LR_Drum Hit Clap Sn.wav",30
Sample,135513,0,"LR_Drum Hit Clap Sn.wav",60
Sample,135760,0,"LR_Drum Hit Clap Sn.wav",30
Sample,135760,0,"LR_Drum Hit Clap Sn.wav",30
Sample,135842,0,"LR2_ClapRRvLE.wav",30
Sample,136007,0,"LR_Drum Hit Clap Sn.wav",30
Sample,136007,0,"LR_Drum Hit Clap Sn.wav",30
Sample,136172,0,"LR2_ClapRRvLE.wav",30
Sample,136254,0,"LR_Drum Hit Clap Sn.wav",30
Sample,136254,0,"LR_Drum Hit Clap Sn.wav",30
Sample,136502,0,"LR2_ClapRRvLE.wav",60
Sample,136667,0,"LR_Drum Hit Clap Sn.wav",30
Sample,136667,0,"LR_Drum Hit Clap Sn.wav",30
Sample,136749,0,"LR_Drum Hit Clap Sn.wav",60
Sample,136831,0,"Drum Hit Hard.wav",35
Sample,136996,0,"LR_Drum Hit Clap Sn.wav",30
Sample,136996,0,"LR_Drum Hit Clap Sn.wav",30
Sample,137161,0,"LR2_ClapRRvLE.wav",60
Sample,137408,0,"LR_Drum Hit Clap Sn.wav",30
Sample,137408,0,"LR_Drum Hit Clap Sn.wav",30
Sample,137491,0,"LR2_ClapRRvLE.wav",30
Sample,137656,0,"LR_Drum Hit Clap Sn.wav",30
Sample,137656,0,"LR_Drum Hit Clap Sn.wav",30
Sample,137820,0,"LR2_ClapRRvLE.wav",30
Sample,137903,0,"LR_Drum Hit Clap Sn.wav",30
Sample,137903,0,"LR_Drum Hit Clap Sn.wav",30
Sample,137985,0,"LR2_ClapRRvLE.wav",60
Sample,138068,0,"LR_Drum Hit Clap Sn.wav",30
Sample,138068,0,"LR_Drum Hit Clap Sn.wav",30
Sample,138150,0,"LR2_ClapRRvLE.wav",60
Sample,138397,0,"LR_Drum Hit Clap Sn.wav",30
Sample,138397,0,"LR_Drum Hit Clap Sn.wav",30
Sample,138480,0,"LR2_ClapRRvLE.wav",30
Sample,138645,0,"LR_Drum Hit Clap Sn.wav",30
Sample,138645,0,"LR_Drum Hit Clap Sn.wav",30
Sample,138809,0,"LR2_ClapRRvLE.wav",30
Sample,138892,0,"LR_Drum Hit Clap Sn.wav",30
Sample,138892,0,"LR_Drum Hit Clap Sn.wav",30
Sample,139139,0,"LR2_ClapRRvLE.wav",60
Sample,139304,0,"LR_Drum Hit Clap Sn.wav",30
Sample,139304,0,"LR_Drum Hit Clap Sn.wav",30
Sample,139386,0,"LR_Drum Hit Clap Sn.wav",60
Sample,139469,0,"LR2_ClapRRvLE.wav",60
Sample,139634,0,"LR_Drum Hit Clap Sn.wav",60
Sample,139634,0,"LR2_ClapRRvLE.wav",60
Sample,139798,0,"LR2_ClapRRvLE.wav",60
Sample,139798,0,"LR_Drum Hit Clap Sn.wav",60
Sample,139963,0,"LR2_ClapRRvLE.wav",60
Sample,139963,0,"LR_Drum Hit Clap Sn.wav",60
Sample,140046,0,"LR_Drum Hit Clap Sn.wav",30
Sample,140046,0,"LR_Drum Hit Clap Sn.wav",30
Sample,140128,0,"LR2_ClapRRvLE.wav",30
Sample,140128,0,"LR2_ClapRRvLE.wav",30
Sample,140293,0,"LR2_ClapRRvLE.wav",60
Sample,140293,0,"LR_Drum Hit Clap Sn.wav",60
Sample,140458,0,"LR2_ClapRRvLE.wav",30
Sample,140458,0,"LR2_ClapRRvLE.wav",30
Sample,140540,0,"LR_Drum Hit Clap Sn.wav",30
Sample,140540,0,"LR_Drum Hit Clap Sn.wav",30
Sample,140623,0,"LR2_ClapRRvLE.wav",30
Sample,140623,0,"LR2_ClapRRvLE.wav",30
Sample,140705,0,"LR_Drum Hit Clap Sn.wav",60
Sample,140787,0,"cymbol 2.wav",70
Sample,140952,0,"LR_Drum Hit Clap Sn.wav",60
Sample,140952,0,"LR2_ClapRRvLE.wav",60
Sample,141117,0,"LR2_ClapRRvLE.wav",60
Sample,141117,0,"LR_Drum Hit Clap Sn.wav",60
Sample,141282,0,"LR2_ClapRRvLE.wav",60
Sample,141282,0,"LR_Drum Hit Clap Sn.wav",60
Sample,141364,0,"LR_Drum Hit Clap Sn.wav",30
Sample,141364,0,"LR_Drum Hit Clap Sn.wav",30
Sample,141447,0,"LR2_ClapRRvLE.wav",30
Sample,141447,0,"LR2_ClapRRvLE.wav",30
Sample,141612,0,"LR_Drum Hit Clap Sn.wav",60
Sample,141612,0,"LR_RevCyLGLH.wav",70
Sample,141612,0,"LR2_ClapRRvLE.wav",60
Sample,141776,0,"LR2_ClapRRvLE.wav",30
Sample,141776,0,"LR2_ClapRRvLE.wav",30
Sample,141859,0,"LR_Drum Hit Clap Sn.wav",30
Sample,141859,0,"LR_Drum Hit Clap Sn.wav",30
Sample,141941,0,"LR2_ClapRRvLE.wav",30
Sample,141941,0,"LR2_ClapRRvLE.wav",30
Sample,142024,0,"LR_Drum Hit Clap Sn.wav",30
Sample,142024,0,"LR_Drum Hit Clap Sn.wav",30
Sample,142106,0,"Bass.wav",40
Sample,142106,0,"LR2_ClapRRvLE.wav",60
Sample,142147,0,"Bass.wav",40
Sample,142189,0,"Bass.wav",40
Sample,142230,0,"Bass.wav",40
Sample,142271,0,"Bass.wav",40
Sample,142271,0,"LR2_ClapRRvLE.wav",60
Sample,142271,0,"LR_Drum Hit Clap Sn.wav",60
Sample,142312,0,"Bass.wav",40
Sample,142353,0,"Bass.wav",40
Sample,142395,0,"Bass.wav",40
Sample,142436,0,"Bass.wav",40
Sample,142436,0,"LR_Drum Hit Clap Sn.wav",60
Sample,142436,0,"LR2_ClapRRvLE.wav",60
Sample,142477,0,"Bass.wav",40
Sample,142518,0,"Bass.wav",40
Sample,142559,0,"Bass.wav",40
Sample,142601,0,"Bass.wav",40
Sample,142601,0,"LR2_ClapRRvLE.wav",60
Sample,142601,0,"LR_Drum Hit Clap Sn.wav",60
Sample,142642,0,"Bass.wav",40
Sample,142683,0,"LR_Drum Hit Clap Sn.wav",60
Sample,142683,0,"Bass.wav",40
Sample,142724,0,"Bass.wav",40
Sample,142765,0,"Bass.wav",40
Sample,142765,0,"LR2_ClapRRvLE.wav",60
Sample,142807,0,"Bass.wav",40
Sample,142848,0,"Bass.wav",40
Sample,142889,0,"Bass.wav",40
Sample,142930,0,"LR2_ClapRRvLE.wav",60
Sample,142930,0,"LR_Drum Hit Clap Sn.wav",60
Sample,142930,0,"Bass.wav",40
Sample,142971,0,"Bass.wav",40
Sample,143013,0,"Bass.wav",40
Sample,143054,0,"Bass.wav",40
Sample,143095,0,"Bass.wav",40
Sample,143095,0,"LR_Drum Hit Clap Sn.wav",60
Sample,143095,0,"LR2_ClapRRvLE.wav",60
Sample,143136,0,"Bass.wav",40
Sample,143178,0,"Bass.wav",40
Sample,143219,0,"Bass.wav",40
Sample,143260,0,"Bass.wav",40
Sample,143260,0,"LR2_ClapRRvLE.wav",60
Sample,143260,0,"LR_Drum Hit Clap Sn.wav",60
Sample,143301,0,"Bass.wav",40
Sample,143342,0,"Bass.wav",40
Sample,143342,0,"LR_Drum Hit Clap Sn.wav",60
Sample,143384,0,"Bass.wav",40
Sample,143425,0,"Kick.wav",70
Sample,143754,0,"LR_RevCyCCR.wav",70
Sample,143919,0,"LR_Hit Med Click.wav",100
Sample,144167,0,"LR_Hit Med Click.wav",100
Sample,144249,0,"LR_Hit Med Click.wav",100
Sample,144414,0,"Kick.wav",35
Sample,144743,0,"Kick.wav",35
Sample,144743,0,"cymbol 2.wav",70
Sample,145073,0,"LR4_SnareBPDT.wav",40
Sample,145073,0,"LR_Hit Med Click.wav",70
Sample,145568,0,"Kick.wav",70
Sample,145732,0,"LR4_SnareBPDT.wav",27
Sample,145732,0,"LR4_SnareBPDT.wav",27
Sample,146062,0,"Kick.wav",35
Sample,146392,0,"LR_Hit Med Click.wav",40
Sample,146392,0,"LR4_SnareBPDT.wav",40
Sample,146886,0,"Kick.wav",70
Sample,147051,0,"LR4_SnareBPDT.wav",27
Sample,147051,0,"LR4_SnareBPDT.wav",27
Sample,147381,0,"Kick.wav",35
Sample,147711,0,"LR4_SnareBPDT.wav",40
Sample,147711,0,"LR_Hit Med Click.wav",70
Sample,148205,0,"Kick.wav",70
Sample,148370,0,"LR4_SnareBPDT.wav",27
Sample,148370,0,"LR4_SnareBPDT.wav",27
Sample,148700,0,"Kick.wav",35
Sample,149029,0,"LR4_SnareBPDT.wav",40
Sample,149029,0,"LR_Hit Med Click.wav",40
Sample,149524,0,"Kick.wav",70
Sample,149689,0,"LR4_SnareBPDT.wav",27
Sample,149689,0,"LR4_SnareBPDT.wav",27
Sample,150018,0,"Kick.wav",35
Sample,150348,0,"LR_Hit Med Click.wav",70
Sample,150348,0,"LR4_SnareBPDT.wav",40
Sample,150842,0,"Kick.wav",70
Sample,151007,0,"LR4_SnareBPDT.wav",27
Sample,151007,0,"LR4_SnareBPDT.wav",27
Sample,151337,0,"Kick.wav",35
Sample,151667,0,"LR_Hit Med Click.wav",70
Sample,151667,0,"LR4_SnareBPDT.wav",40
Sample,152161,0,"Kick.wav",70
Sample,152326,0,"LR4_SnareBPDT.wav",27
Sample,152326,0,"LR4_SnareBPDT.wav",27
Sample,152656,0,"Kick.wav",35
Sample,152985,0,"LR_Hit Med Click.wav",70
Sample,152985,0,"LR4_SnareBPDT.wav",40
Sample,153480,0,"Kick.wav",70
Sample,153645,0,"LR4_SnareBPDT.wav",27
Sample,153645,0,"LR4_SnareBPDT.wav",27
Sample,153974,0,"Kick.wav",35
Sample,154304,0,"LR4_SnareBPDT.wav",40
Sample,154304,0,"LR_Hit Med Click.wav",70
Sample,154469,0,"Kick.wav",70
Sample,154798,0,"Kick.wav",70
Sample,154798,0,"LR_Hit Med Click.wav",70
Sample,154963,0,"LR4_SnareBPDT.wav",27
Sample,155046,0,"Kick.wav",70
Sample,155128,0,"LR_Hit Med Click.wav",70
Sample,155128,0,"Kick.wav",70
Sample,155211,0,"Kick.wav",70
Sample,155293,0,"cymbol 2.wav",70
Sample,155623,0,"LR_Hit Med Click.wav",40
Sample,155623,0,"LR4_SnareBPDT.wav",27
Sample,156117,0,"Kick.wav",70
Sample,156282,0,"LR4_SnareBPDT.wav",27
Sample,156282,0,"LR4_SnareBPDT.wav",27
Sample,156612,0,"Kick.wav",35
Sample,156941,0,"LR_Hit Med Click.wav",70
Sample,156941,0,"LR4_SnareBPDT.wav",40
Sample,157436,0,"Kick.wav",70
Sample,157601,0,"LR4_SnareBPDT.wav",27
Sample,157601,0,"LR4_SnareBPDT.wav",27
Sample,157930,0,"Kick.wav",35
Sample,158260,0,"LR4_SnareBPDT.wav",40
Sample,158260,0,"LR_Hit Med Click.wav",70
Sample,158754,0,"Kick.wav",70
Sample,158919,0,"LR4_SnareBPDT.wav",27
Sample,158919,0,"LR4_SnareBPDT.wav",27
Sample,159249,0,"Kick.wav",35
Sample,159579,0,"LR4_SnareBPDT.wav",40
Sample,159579,0,"LR4_SnareBPDT.wav",40
Sample,160073,0,"Kick.wav",70
Sample,160238,0,"LR4_SnareBPDT.wav",27
Sample,160238,0,"LR4_SnareBPDT.wav",27
Sample,160568,0,"Kick.wav",35
Sample,160897,0,"LR4_SnareBPDT.wav",40
Sample,160897,0,"LR_Hit Med Click.wav",70
Sample,161392,0,"Kick.wav",70
Sample,161557,0,"LR4_SnareBPDT.wav",27
Sample,161557,0,"LR4_SnareBPDT.wav",27
Sample,161886,0,"Kick.wav",35
Sample,162216,0,"LR4_SnareBPDT.wav",40
Sample,162216,0,"LR_Hit Med Click.wav",70
Sample,162546,0,"LR_RevCyHLWX.wav",70
Sample,162711,0,"Kick.wav",70
Sample,162875,0,"LR4_SnareBPDT.wav",27
Sample,162875,0,"LR4_SnareBPDT.wav",27
Sample,163123,0,"LR4_SnareBPDT.wav",40
Sample,163123,0,"LR4_SnareBPDT.wav",40
Sample,163700,0,"Kick.wav",35
Sample,163864,0,"LR4_SnareBPDT.wav",27
Sample,163864,0,"LR4_SnareBPDT.wav",27
Sample,164194,0,"LR_RevCyITV.wav",70
Sample,164359,0,"Kick.wav",35
Sample,164524,0,"cymbol 2.wav",20
Sample,164524,0,"Kick.wav",35
Sample,165513,0,"Kick.wav",70
Sample,165513,0,"Drum Hit Hard.wav",90
Sample,165842,0,"Crash.wav",70
Sample,165842,0,"Kick.wav",70
Sample,165842,0,"C3S_s.wav",100
Sample,166007,0,"C3S_s.wav",100
Sample,166172,0,"Whistle.wav",90
Sample,166172,0,"click.wav",100
Sample,166172,0,"C3S_s.wav",100
Sample,166337,0,"C3S_s.wav",100
Sample,166667,0,"C3S_s.wav",100
Sample,166667,0,"Kick.wav",70
Sample,166831,0,"Whistle.wav",90
Sample,166831,0,"LR4_SnareBPDT.wav",80
Sample,166996,0,"C3S_s.wav",70
Sample,167161,0,"Kick.wav",70
Sample,167161,0,"click.wav",100
Sample,167161,0,"Whistle.wav",90
Sample,167326,0,"D3S_s.wav",100
Sample,167491,0,"Whistle.wav",90
Sample,167491,0,"LR4_SnareBPDT.wav",80
Sample,167656,0,"D3S_s.wav",70
Sample,167985,0,"Kick.wav",70
Sample,167985,0,"D3S_s.wav",100
Sample,168150,0,"click.wav",100
Sample,168150,0,"Whistle.wav",90
Sample,168150,0,"LR4_SnareBPDT.wav",80
Sample,168315,0,"D3S_s.wav",100
Sample,168480,0,"Kick.wav",70
Sample,168480,0,"Whistle.wav",90
Sample,168645,0,"A2S_s.wav",70
Sample,168809,0,"Whistle.wav",90
Sample,168809,0,"LR4_SnareBPDT.wav",80
Sample,168974,0,"A2S_s.wav",100
Sample,169139,0,"Whistle.wav",90
Sample,169139,0,"click.wav",100
Sample,169304,0,"Kick.wav",70
Sample,169304,0,"A2S_s.wav",100
Sample,169469,0,"LR4_SnareBPDT.wav",80
Sample,169469,0,"A2S_s.wav",100
Sample,169634,0,"A2S_s.wav",100
Sample,169798,0,"A2S_s.wav",100
Sample,169963,0,"A2S_s.wav",100
Sample,170128,0,"LR4_SnareBPDT.wav",80
Sample,170128,0,"Whistle.wav",90
Sample,170128,0,"click.wav",100
Sample,170293,0,"A2S_s.wav",70
Sample,170458,0,"B2S_s.wav",100
Sample,170623,0,"B2S_s.wav",100
Sample,170623,0,"Kick.wav",70
Sample,170787,0,"LR4_SnareBPDT.wav",80
Sample,170787,0,"Whistle.wav",90
Sample,170952,0,"B2S_s.wav",100
Sample,171117,0,"Whistle.wav",90
Sample,171117,0,"Kick.wav",70
Sample,171117,0,"C3S_s.wav",100
Sample,171282,0,"C3S_s.wav",100
Sample,171447,0,"LR4_SnareBPDT.wav",80
Sample,171447,0,"C3S_s.wav",100
Sample,171612,0,"C3S_s.wav",100
Sample,171941,0,"C3S_s.wav",100
Sample,171941,0,"Kick.wav",70
Sample,172106,0,"LR4_SnareBPDT.wav",80
Sample,172106,0,"C3S_s.wav",100
Sample,172106,0,"Whistle.wav",90
Sample,172271,0,"C3S_s.wav",100
Sample,172436,0,"D3S_s.wav",100
Sample,172436,0,"Kick.wav",70
Sample,172601,0,"D3S_s.wav",100
Sample,172765,0,"Whistle.wav",90
Sample,172765,0,"D3S_s.wav",100
Sample,172930,0,"D3S_s.wav",100
Sample,173095,0,"D3S_s.wav",100
Sample,173260,0,"Kick.wav",70
Sample,173260,0,"D3S_s.wav",100
Sample,173425,0,"D3S_s.wav",100
Sample,173425,0,"LR4_SnareBPDT.wav",80
Sample,173590,0,"D3S_s.wav",100
Sample,173754,0,"Kick.wav",70
Sample,173754,0,"E3S_s.wav",100
Sample,173919,0,"E3S_s.wav",100
Sample,174084,0,"click.wav",100
Sample,174084,0,"LR4_SnareBPDT.wav",80
Sample,174084,0,"E3S_s.wav",100
Sample,174249,0,"E3S_s.wav",100
Sample,174579,0,"Kick.wav",70
Sample,174579,0,"E3S_s.wav",100
Sample,174743,0,"Whistle.wav",90
Sample,174743,0,"LR4_SnareBPDT.wav",80
Sample,174908,0,"E3S_s.wav",100
Sample,175073,0,"Kick.wav",70
Sample,175073,0,"click.wav",100
Sample,175073,0,"Whistle.wav",90
Sample,175238,0,"E3S_s.wav",100
Sample,175403,0,"Whistle.wav",70
Sample,175403,0,"LR4_SnareBPDT.wav",80
Sample,175568,0,"Kick.wav",70
Sample,175568,0,"E3S_s.wav",100
Sample,175732,0,"Whistle.wav",90
Sample,175897,0,"B2S_s.wav",100
Sample,175897,0,"Kick.wav",70
Sample,176062,0,"LR4_SnareBPDT.wav",80
Sample,176062,0,"Whistle.wav",90
Sample,176145,0,"Kick.wav",70
Sample,176227,0,"Whistle.wav",90
Sample,176227,0,"B2S_s.wav",100
Sample,176227,0,"Kick.wav",70
Sample,176309,0,"Kick.wav",70
Sample,176392,0,"Kick.wav",70
Sample,176392,0,"Crash.wav",70
Sample,176392,0,"cymbol 2.wav",70
Sample,176557,0,"C3S_s.wav",100
Sample,176721,0,"Whistle.wav",90
Sample,176721,0,"LR4_SnareBPDT.wav",80
Sample,176886,0,"C3S_s.wav",100
Sample,177051,0,"C3S_s.wav",100
Sample,177216,0,"Kick.wav",70
Sample,177216,0,"C3S_s.wav",100
Sample,177381,0,"Whistle.wav",90
Sample,177381,0,"LR4_SnareBPDT.wav",80
Sample,177546,0,"C3S_s.wav",100
Sample,177711,0,"Whistle.wav",90
Sample,177711,0,"Kick.wav",70
Sample,177875,0,"D3S_s.wav",100
Sample,178040,0,"LR4_SnareBPDT.wav",80
Sample,178040,0,"Whistle.wav",90
Sample,178040,0,"D3S_s.wav",100
Sample,178205,0,"D3S_s.wav",100
Sample,178535,0,"Kick.wav",70
Sample,178535,0,"D3S_s.wav",100
Sample,178700,0,"LR4_SnareBPDT.wav",80
Sample,178700,0,"D3S_s.wav",100
Sample,178864,0,"D3S_s.wav",100
Sample,179029,0,"Whistle.wav",90
Sample,179029,0,"Kick.wav",70
Sample,179029,0,"click.wav",100
Sample,179194,0,"A2S_s.wav",100
Sample,179359,0,"LR4_SnareBPDT.wav",80
Sample,179359,0,"Whistle.wav",90
Sample,179524,0,"A2S_s.wav",100
Sample,179689,0,"Whistle.wav",90
Sample,179853,0,"Kick.wav",70
Sample,179853,0,"A2S_s.wav",100
Sample,180018,0,"Whistle.wav",90
Sample,180018,0,"A2S_s.wav",100
Sample,180018,0,"LR4_SnareBPDT.wav",80
Sample,180183,0,"A2S_s.wav",100
Sample,180348,0,"Whistle.wav",90
Sample,180348,0,"A2S_s.wav",100
Sample,180513,0,"A2S_s.wav",100
Sample,180678,0,"LR4_SnareBPDT.wav",80
Sample,180678,0,"A2S_s.wav",100
Sample,180842,0,"A2S_s.wav",100
Sample,181007,0,"B2S_s.wav",100
Sample,181007,0,"Whistle.wav",90
Sample,181172,0,"Kick.wav",70
Sample,181172,0,"B2S_s.wav",100
Sample,181337,0,"LR4_SnareBPDT.wav",80
Sample,181337,0,"Whistle.wav",90
Sample,181502,0,"B2S_s.wav",100
Sample,181584,0,"LR4_SnareBPDT.wav",40
Sample,181584,0,"LR4_SnareBPDT.wav",40
Sample,181667,0,"Kick.wav",70
Sample,181667,0,"cymbol 2.wav",70
Sample,181831,0,"Snare1.wav",90
Sample,181831,0,"C3S_s.wav",70
Sample,181996,0,"C3S_s.wav",70
Sample,181996,0,"Snare1.wav",90
Sample,181996,0,"click.wav",100
Sample,182161,0,"Snare1.wav",90
Sample,182161,0,"C3S_s.wav",70
Sample,182326,0,"C3S_s.wav",70
Sample,182326,0,"Snare1.wav",90
Sample,182491,0,"C3S_s.wav",70
Sample,182491,0,"Snare1.wav",90
Sample,182656,0,"C3S_s.wav",70
Sample,182656,0,"Snare1.wav",90
Sample,182820,0,"Kick.wav",70
Sample,182820,0,"C3S_s.wav",70
Sample,182903,0,"Kick.wav",35
Sample,182903,0,"Kick.wav",35
Sample,182985,0,"Kick.wav",70
Sample,182985,0,"cymbol 2.wav",70
Sample,183150,0,"D3S_s.wav",70
Sample,183150,0,"Snare1.wav",90
Sample,183315,0,"D3S_s.wav",70
Sample,183315,0,"Snare1.wav",90
Sample,183480,0,"D3S_s.wav",70
Sample,183480,0,"Snare1.wav",90
Sample,183645,0,"Snare1.wav",90
Sample,183645,0,"D3S_s.wav",70
Sample,183809,0,"D3S_s.wav",70
Sample,183809,0,"Snare1.wav",90
Sample,183974,0,"Snare1.wav",90
Sample,183974,0,"click.wav",100
Sample,183974,0,"D3S_s.wav",70
Sample,184139,0,"D3S_s.wav",35
Sample,184304,0,"E3S_s.wav",100
Sample,184304,0,"Crash.wav",70
Sample,184386,0,"Snare1.wav",35
Sample,184386,0,"Snare1.wav",35
Sample,184469,0,"Kick.wav",70
Sample,184469,0,"E3S_s.wav",100
Sample,184469,0,"Snare1.wav",70
Sample,184551,0,"Snare1.wav",35
Sample,184551,0,"Snare1.wav",35
Sample,184634,0,"Snare1.wav",70
Sample,184634,0,"E3S_s.wav",100
Sample,184634,0,"Kick.wav",70
Sample,184716,0,"Snare1.wav",35
Sample,184716,0,"Snare1.wav",35
Sample,184798,0,"Snare1.wav",70
Sample,184798,0,"Kick.wav",70
Sample,184798,0,"E3S_s.wav",100
Sample,184881,0,"Snare1.wav",70
Sample,184963,0,"Cymbal.wav",50
Sample,184963,0,"LR4_SnareBPDT.wav",80
Sample,184963,0,"click.wav",100
Sample,184963,0,"Snare1.wav",70
Sample,184963,0,"E3S_s.wav",100
Sample,184963,0,"Kick.wav",70
Sample,185046,0,"Snare1.wav",70
Sample,185128,0,"Snare1.wav",70
Sample,185128,0,"E3S_s.wav",100
Sample,185128,0,"Kick.wav",70
Sample,185211,0,"Snare1.wav",35
Sample,185211,0,"Snare1.wav",35
Sample,185293,0,"E3S_s.wav",100
Sample,185293,0,"Kick.wav",70
Sample,185293,0,"Snare1.wav",70
Sample,185375,0,"Snare1.wav",35
Sample,185375,0,"Snare1.wav",35
Sample,185458,0,"Crash.wav",50
Sample,185458,0,"Kick.wav",70
Sample,185458,0,"Crash.wav",50
Sample,185458,0,"Snare1.wav",70
Sample,185458,0,"E3S_s.wav",100
Sample,185540,0,"Snare1.wav",35
Sample,185540,0,"Snare1.wav",35
Sample,185623,0,"Bass.wav",70
Sample,185787,0,"snare2.wav",90
Sample,185870,0,"snare2.wav",90
Sample,185870,0,"Whistle.wav",90
Sample,185952,0,"Snare1.wav",90
Sample,185952,0,"Whistle.wav",90
Sample,186035,0,"snare2.wav",90
Sample,186035,0,"Whistle.wav",90
Sample,186200,0,"Whistle.wav",90
Sample,186200,0,"snare2.wav",90
Sample,186282,0,"Whistle.wav",90
Sample,186364,0,"Whistle.wav",90
Sample,186364,0,"Snare1.wav",90
Sample,186447,0,"Whistle.wav",90
Sample,186447,0,"snare2.wav",90
Sample,186529,0,"snare2.wav",90
Sample,186529,0,"Whistle.wav",90
Sample,186612,0,"LR3_BassDropPDG.wav",70
Sample,186776,0,"LR_RevCyLGLH.wav",70
Sample,186941,0,"click.wav",50
Sample,186941,0,"click.wav",50

[TimingPoints]
1668,329.67032967033,3,2,1,25,1,0
18151,329.67032967033,3,2,1,40,1,0
57711,329.67032967033,4,2,1,25,1,0
113754,-100,4,2,1,55,0,1
115732,-100,4,2,1,55,0,0
116392,-100,4,2,1,55,0,1
118370,-100,4,2,1,55,0,0
119029,-100,4,2,1,55,0,1
121007,-100,4,2,1,55,0,0
124304,-100,4,2,1,55,0,1
126282,-100,4,2,1,55,0,0
126941,-100,4,2,1,55,0,1
128919,-100,4,2,1,55,0,0
129579,-100,4,2,1,55,0,1
131557,-100,4,2,1,55,0,0
134194,-100,4,2,1,30,0,0
144743,-100,4,2,1,55,0,1
163205,-100,4,2,1,55,0,0
165842,-100,4,2,1,65,0,1
181667,-100,4,2,1,65,0,0
184304,-100,4,2,1,25,0,1
186941,-100,4,2,1,25,0,0

[HitObjects]
448,192,1668,5,0,0:0:0:40:B5S_s.wav
192,192,2327,1,0,0:0:0:80:G5S_s.wav
320,192,2657,1,0,0:0:0:40:B6S_s.wav
448,192,3316,1,0,0:0:0:40:A6S_s.wav
64,192,3646,1,0,0:0:0:40:G6S_s.wav
320,192,4305,1,0,0:0:0:80:D6S_s.wav
448,192,4635,1,0,0:0:0:40:F#6S_Gb6S_s.wav
192,192,4964,1,0,0:0:0:80:D5S_s.wav
448,192,5294,1,0,0:0:0:80:B5S_s.wav
64,192,5459,1,0,0:0:0:80:A5S_s.wav
320,192,5624,1,0,0:0:0:40:B5S_s.wav
192,192,5953,1,0,0:0:0:80:E5S_s.wav
320,192,6613,1,0,0:0:0:80:B5S_s.wav
448,192,7602,1,0,0:0:0:80:D6S_s.wav
64,192,7931,1,0,0:0:0:80:E5S_s.wav
320,192,8261,1,0,0:0:0:80:G5S_s.wav
192,192,8591,1,0,0:0:0:80:B4S_s.wav
64,192,8920,1,0,0:0:0:80:G5S_s.wav
320,192,9250,1,0,0:0:0:80:A5S_s.wav
448,192,9580,1,0,0:0:0:40:B5S_s.wav
192,192,10239,1,0,0:0:0:80:G5S_s.wav
448,192,10569,1,0,0:0:0:40:B6S_s.wav
320,192,11228,1,0,0:0:0:80:A6S_s.wav
192,192,11393,1,0,0:0:0:80:G6S_s.wav
64,192,11558,1,0,0:0:0:40:F#6S_Gb6S_s.wav
192,192,12217,1,0,0:0:0:80:D6S_s.wav
448,192,12547,1,0,0:0:0:40:D7S_s.wav
64,192,12876,1,0,0:0:0:80:D5S_s.wav
320,192,13206,1,0,0:0:0:40:C7S_s.wav
192,192,13536,1,0,0:0:0:40:B6S_s.wav
320,192,14525,1,0,0:0:0:80:B6S_s.wav
192,192,15514,1,0,0:0:0:40:E5S_s.wav
64,192,16173,1,0,0:0:0:40:E5S_s.wav
320,192,16503,1,0,0:0:0:40:D#5S_Eb5S_s.wav
448,192,16832,1,0,0:0:0:30:ehco3.wav
448,192,17162,1,0,0:0:0:30:ehco3.wav
64,192,18151,1,0,0:0:0:70:Cymbal.wav
192,192,18151,1,0,0:0:0:70:LR_CymbalFSU.wav
320,192,18480,1,0,0:0:0:35:Kick.wav
192,192,18810,1,0,0:0:0:35:Kick.wav
448,192,19140,1,0,0:0:0:35:Kick.wav
64,192,19469,1,0,0:0:0:70:LR4_SnareDropDwS.wav
64,192,19799,1,0,0:0:0:70:LR_Snare Wet.wav
320,192,20129,1,0,0:0:0:35:Kick.wav
448,192,20458,1,0,0:0:0:35:Kick.wav
192,192,20788,1,0,0:0:0:35:Kick.wav
64,192,21118,1,0,0:0:0:35:Kick.wav
448,192,21447,1,0,0:0:0:35:Kick.wav
192,192,21777,1,0,0:0:0:35:Kick.wav
320,192,22107,1,0,0:0:0:35:Kick.wav
64,192,22436,1,0,0:0:0:35:Kick.wav
320,192,22766,1,0,0:0:0:35:Kick.wav
192,192,23096,1,0,0:0:0:35:Kick.wav
448,192,23425,1,0,0:0:0:35:Kick.wav
448,192,23755,1,0,0:0:0:70:LR_Snare Wet.wav
64,192,24085,1,0,0:0:0:35:LR2_ClapRRvLE.wav
192,192,24414,1,0,0:0:0:35:Kick.wav
320,192,24744,1,0,0:0:0:35:Kick.wav
448,192,25074,1,0,0:0:0:35:Kick.wav
64,192,25403,1,0,0:0:0:35:Kick.wav
448,192,25733,1,0,0:0:0:35:Kick.wav
320,192,25898,1,0,0:0:0:70:Kick.wav
64,192,26063,1,0,0:0:0:35:Kick.wav
192,192,26063,1,0,0:0:0:35:cymbol 2.wav
448,192,26392,1,0,0:0:0:35:Kick.wav
64,192,26722,1,0,0:0:0:35:Kick.wav
192,192,27052,1,0,0:0:0:35:Kick.wav
320,192,27381,1,0,0:0:0:35:Kick.wav
320,192,27711,1,0,0:0:0:70:LR_Snare Wet.wav
64,192,28041,1,0,0:0:0:35:Kick.wav
448,192,28370,1,0,0:0:0:35:Kick.wav
192,192,28700,1,0,0:0:0:35:Kick.wav
448,192,29030,1,0,0:0:0:35:Kick.wav
320,192,29359,1,0,0:0:0:35:Kick.wav
192,192,29689,1,0,0:0:0:35:Kick.wav
64,192,30019,128,0,30348:0:0:0:10:LR4_ClapReverbDPS.wav
448,192,30348,128,0,30678:0:0:0:10:LR4_ClapReverbDPS.wav
192,192,30678,128,0,31008:0:0:0:70:Kick.wav
320,192,31008,128,0,31337:0:0:0:10:LR4_ClapReverbDPS.wav
64,192,31337,128,0,31667:0:0:0:70:Kick.wav
448,192,31667,128,0,31997:0:0:0:10:LR4_ClapReverbDPS.wav
192,192,31997,128,0,32326:0:0:0:15:LR4_ClapReverbDPS.wav
64,192,32326,128,0,32656:0:0:0:70:Kick.wav
320,192,32656,128,0,32986:0:0:0:15:LR4_ClapReverbDPS.wav
192,192,32986,1,0,0:0:0:15:LR4_ClapReverbDPS.wav
448,192,33151,1,0,0:0:0:70:Kick.wav
64,192,33645,128,0,33975:0:0:0:70:B5S_s.wav
320,192,33975,1,0,0:0:0:70:Kick.wav
448,192,33975,1,0,0:0:0:70:B6S_s.wav
64,192,34304,1,0,0:0:0:70:Kick.wav
192,192,34634,1,0,0:0:0:70:Clap.wav
448,192,34964,1,0,0:0:0:70:F#6S_Gb6S_s.wav
64,192,35293,1,0,0:0:0:35:Kick.wav
320,192,35623,1,0,0:0:0:70:Clap.wav
192,192,35953,1,0,0:0:0:70:B3S_s.wav
448,192,36282,1,0,0:0:0:70:Kick.wav
320,192,36612,1,0,0:0:0:70:B5S_s.wav
64,192,36942,1,0,0:0:0:70:Kick.wav
64,192,37271,1,0,0:0:0:35:Kick.wav
448,192,37601,1,0,0:0:0:70:Kick.wav
192,192,37931,1,0,0:0:0:70:B5S_s.wav
448,192,38260,1,0,0:0:0:70:E5S_s.wav
320,192,38590,1,0,0:0:0:35:Clap.wav
64,192,38920,1,0,0:0:0:70:A5S_s.wav
448,192,39249,1,0,0:0:0:70:Kick.wav
192,192,39579,1,0,0:0:0:35:Kick.wav
64,192,39909,1,0,0:0:0:70:Kick.wav
448,192,40238,1,0,0:0:0:70:B4S_s.wav
64,192,40568,1,0,0:0:0:70:Clap.wav
320,192,40898,1,0,0:0:0:70:F#5S_Gb5S_s.wav
320,192,41227,1,0,0:0:0:70:Kick.wav
64,192,41557,1,0,0:0:0:70:B5S_s.wav
192,192,41722,1,0,0:0:0:70:C6S_s.wav
320,192,41887,1,0,0:0:0:70:B6S_s.wav
448,192,41887,1,0,0:0:0:70:cymbol 2.wav
64,192,42216,1,0,0:0:0:70:Kick.wav
448,192,42546,1,0,0:0:0:35:Clap.wav
320,192,42876,1,0,0:0:0:70:F#6S_Gb6S_s.wav
192,192,43205,1,0,0:0:0:35:Kick.wav
448,192,43535,1,0,0:0:0:35:Clap.wav
320,192,43865,1,0,0:0:0:70:Kick.wav
64,192,44194,1,0,0:0:0:70:Kick.wav
192,192,44524,1,0,0:0:0:70:Kick.wav
448,192,44854,1,0,0:0:0:70:A6S_s.wav
64,192,45183,128,0,45513:0:0:0:70:A5S_s.wav
320,192,45513,1,0,0:0:0:70:Kick.wav
448,192,45513,128,0,45843:0:0:0:70:Clap.wav
64,192,45843,1,0,0:0:0:70:C#4S_Db4S_s.wav
320,192,46172,1,0,0:0:0:70:Kick.wav
448,192,46502,1,0,0:0:0:70:Clap.wav
192,192,46832,1,0,0:0:0:35:Kick.wav
64,192,47161,1,0,0:0:0:35:Kick.wav
320,192,47491,1,0,0:0:0:35:Kick.wav
64,192,47821,1,0,0:0:0:70:D7S_s.wav
448,192,48151,1,0,0:0:0:70:Kick.wav
192,192,48480,1,0,0:0:0:70:Kick.wav
320,192,48810,1,0,0:0:0:70:Kick.wav
64,192,49140,128,0,49469:0:0:0:70:Kick.wav
192,192,49140,1,0,0:0:0:50:F#6S_Gb6S_s.wav
448,192,49469,128,0,49799:0:0:0:0:
64,192,49799,1,0,0:0:0:35:Cymbal.wav
320,192,49799,1,0,0:0:0:35:Kick.wav
192,192,50129,1,0,0:0:0:35:Kick.wav
448,192,50458,1,0,0:0:0:70:Clap.wav
64,192,50788,1,0,0:0:0:35:Kick.wav
448,192,51118,1,0,0:0:0:35:Kick.wav
192,192,51447,1,0,0:0:0:70:Clap.wav
320,192,51777,1,0,0:0:0:35:Kick.wav
64,192,52107,1,0,0:0:0:35:Kick.wav
448,192,52436,1,0,0:0:0:70:Clap.wav
192,192,52766,1,0,0:0:0:35:Kick.wav
320,192,53096,1,0,0:0:0:35:Kick.wav
64,192,53425,1,0,0:0:0:70:Clap.wav
320,192,53755,1,0,0:0:0:35:Kick.wav
448,192,53755,128,0,54085:0:0:0:35:Kick.wav
64,192,54085,1,0,0:0:0:35:Kick.wav
448,192,54414,1,0,0:0:0:70:Clap.wav
192,192,54744,1,0,0:0:0:35:Kick.wav
320,192,55074,1,0,0:0:0:35:Kick.wav
64,192,55403,1,0,0:0:0:70:Kick.wav
448,192,55733,1,0,0:0:0:70:Clap.wav
320,192,56063,1,0,0:0:0:23:Clap.wav
192,192,56392,1,0,0:0:0:23:Clap.wav
320,192,56722,1,0,0:0:0:70:L-Rhythm.wav
448,192,56722,1,0,0:0:0:70:Kick.wav
64,192,57711,1,0,0:0:0:20:C3S_s.wav
192,192,58205,1,0,0:0:0:20:D3S_s.wav
320,192,58700,1,0,0:0:0:10:click.wav
64,192,60348,1,0,0:0:0:20:D3S_s.wav
320,192,60842,1,0,0:0:0:8:LR_HiHat Click.wav
448,192,61337,1,0,0:0:0:20:E3S_s.wav
192,192,62985,1,0,0:0:0:20:D#3S_Eb3S_s.wav
320,192,63480,1,0,0:0:0:20:E3S_s.wav
448,192,63974,1,0,0:0:0:20:B2S_s.wav
320,192,65623,1,0,0:0:0:20:C3S_s.wav
192,192,66117,1,0,0:0:0:20:D3S_s.wav
64,192,66612,128,0,67930:0:0:0:20:E3S_s.wav
320,192,67930,1,0,0:0:0:70:Bass.wav
448,192,67930,1,0,0:0:0:35:LR4_BassKickReverbXD.wav
192,192,68260,1,0,0:0:0:70:Crash.wav
320,192,68754,1,0,0:0:0:35:Bass.wav
448,192,69249,128,0,70568:0:0:0:35:Bass.wav
64,192,70568,1,0,0:0:0:70:Bass.wav
192,192,70568,1,0,0:0:0:70:LR3_BassDrop.wav
320,192,70897,1,0,0:0:0:23:Bass.wav
192,192,71392,1,0,0:0:0:35:Bass.wav
64,192,71886,128,0,73205:0:0:0:35:Bass.wav
448,192,73205,1,0,0:0:0:70:Bass.wav
64,192,73535,1,0,0:0:0:70:Crash.wav
320,192,73535,1,0,0:0:0:70:Bass.wav
192,192,74029,1,0,0:0:0:35:Bass.wav
448,192,74524,128,0,75513:0:0:0:35:Bass.wav
64,192,75513,128,0,76172:0:0:0:70:Bass.wav
320,192,76172,1,0,0:0:0:70:Bass.wav
192,192,76667,1,0,0:0:0:15:LR_HiHat Click.wav
448,192,77161,128,0,78809:0:0:0:70:Bass.wav
64,192,78809,1,0,0:0:0:40:Bass.wav
320,192,79139,1,0,0:0:0:60:LR_HiHat Click.wav
192,192,79469,1,0,0:0:0:60:LR_HiHat Click.wav
448,192,79798,1,0,0:0:0:70:A2S_s.wav
64,192,80128,1,0,0:0:0:60:LR_HiHat Click.wav
192,192,80458,1,0,0:0:0:60:LR_HiHat Click.wav
448,192,80787,1,0,0:0:0:60:LR_HiHat Click.wav
320,192,81117,1,0,0:0:0:60:LR_HiHat Click.wav
64,192,81447,1,0,0:0:0:70:B2S_s.wav
192,192,81776,1,0,0:0:0:50:LR2_ClapRRvLE.wav
448,192,82106,1,0,0:0:0:60:LR_HiHat Click.wav
64,192,82436,1,0,0:0:0:50:LR2_ClapRRvLE.wav
448,192,82765,1,0,0:0:0:60:LR_HiHat Click.wav
64,192,83095,1,0,0:0:0:60:LR_HiHat Click.wav
192,192,83425,1,0,0:0:0:60:LR_HiHat Click.wav
448,192,83754,1,0,0:0:0:60:LR_HiHat Click.wav
320,192,83919,1,0,0:0:0:20:Bass.wav
64,192,84084,1,0,0:0:0:40:Bass.wav
448,192,84414,1,0,0:0:0:50:LR_Snare Hat 2.wav
64,192,84743,1,0,0:0:0:60:LR_HiHat Click.wav
448,192,85073,1,0,0:0:0:70:LR_Snare Hat 2.wav
192,192,85403,1,0,0:0:0:60:LR_HiHat Click.wav
320,192,85732,1,0,0:0:0:60:LR_HiHat Click.wav
64,192,86062,1,0,0:0:0:60:LR_HiHat Click.wav
448,192,86392,1,0,0:0:0:60:LR_HiHat Click.wav
320,192,86721,1,0,0:0:0:70:C3S_s.wav
64,192,87051,1,0,0:0:0:50:LR4_ClapLRV.wav
192,192,87381,1,0,0:0:0:60:LR_HiHat Click.wav
448,192,87711,1,0,0:0:0:50:LR4_ClapLRV.wav
320,192,87875,1,0,0:0:0:20:Bass.wav
64,192,88040,1,0,0:0:0:35:cymbol 2.wav
192,192,88040,1,0,0:0:0:40:Bass.wav
64,192,88700,128,0,89359:0:0:0:60:snare2.wav
448,192,89359,1,0,0:0:0:40:ehco2.wav
192,192,89689,1,0,0:0:0:15:LR2_ClapRRvLE.wav
320,192,90018,1,0,0:0:0:30:LR2_ClapRRvLE.wav
320,192,90348,1,0,0:0:0:40:Bass.wav
64,192,90678,1,0,0:0:0:15:LR2_ClapRRvLE.wav
448,192,91007,1,0,0:0:0:15:LR2_ClapRRvLE.wav
320,192,91337,1,0,0:0:0:50:LR4_ClapLRV.wav
64,192,91667,1,0,0:0:0:40:Bass.wav
64,192,91996,1,0,0:0:0:40:Bass.wav
448,192,92326,1,0,0:0:0:15:LR2_ClapRRvLE.wav
192,192,92656,1,0,0:0:0:30:LR2_ClapRRvLE.wav
192,192,92985,1,0,0:0:0:40:Bass.wav
320,192,93315,1,0,0:0:0:15:LR2_ClapRRvLE.wav
64,192,93645,1,0,0:0:0:15:LR2_ClapRRvLE.wav
192,192,93974,1,0,0:0:0:50:Clap.wav
448,192,93974,1,0,0:0:0:50:LR4_ClapLRV.wav
320,192,94304,1,0,0:0:0:40:Bass.wav
320,192,94634,1,0,0:0:0:40:Bass.wav
64,192,94963,1,0,0:0:0:15:LR2_ClapRRvLE.wav
448,192,95293,1,0,0:0:0:30:LR2_ClapRRvLE.wav
448,192,95623,1,0,0:0:0:30:Whistle.wav
64,192,95952,1,0,0:0:0:15:LR2_ClapRRvLE.wav
320,192,96282,1,0,0:0:0:15:LR2_ClapRRvLE.wav
192,192,96612,1,0,0:0:0:30:Clap.wav
64,192,96941,1,0,0:0:0:40:Bass.wav
448,192,97271,1,0,0:0:0:40:Bass.wav
320,192,97601,1,0,0:0:0:15:LR2_ClapRRvLE.wav
192,192,97930,1,0,0:0:0:30:LR2_ClapRRvLE.wav
192,192,98260,1,0,0:0:0:30:Whistle.wav
448,192,98590,1,0,0:0:0:15:LR2_ClapRRvLE.wav
64,192,98919,1,0,0:0:0:15:LR2_ClapRRvLE.wav
448,192,99249,1,0,0:0:0:40:Bass.wav
64,192,99579,1,0,0:0:0:40:Bass.wav
192,192,99908,1,0,0:0:0:70:Crash.wav
448,192,99908,1,0,0:0:0:50:Bass.wav
320,192,100238,1,0,0:0:0:50:Bass.wav
64,192,100568,1,0,0:0:0:50:Bass.wav
320,192,100897,1,0,0:0:0:50:Bass.wav
64,192,101227,1,0,0:0:0:30:LR2_ClapRRvLE.wav
448,192,101557,1,0,0:0:0:30:LR2_ClapRRvLE.wav
192,192,101886,1,0,0:0:0:50:Bass.wav
448,192,102216,1,0,0:0:0:50:Whistle.wav
192,192,102546,1,0,0:0:0:50:Bass.wav
320,192,102875,1,0,0:0:0:30:LR2_ClapRRvLE.wav
64,192,103205,1,0,0:0:0:30:LR2_ClapRRvLE.wav
320,192,103535,1,0,0:0:0:50:Whistle.wav
64,192,103864,1,0,0:0:0:30:LR2_ClapRRvLE.wav
448,192,104194,1,0,0:0:0:50:Bass.wav
192,192,104524,1,0,0:0:0:30:LR2_ClapRRvLE.wav
448,192,104853,1,0,0:0:0:50:Whistle.wav
64,192,105183,1,0,0:0:0:70:cymbol 2.wav
192,192,105183,1,0,0:0:0:60:Bass.wav
448,192,105513,1,0,0:0:0:60:Bass.wav
192,192,105842,1,0,0:0:0:60:Bass.wav
448,192,106172,1,0,0:0:0:60:Bass.wav
192,192,106502,1,0,0:0:0:70:cymbol 2.wav
320,192,106502,1,0,0:0:0:60:Bass.wav
64,192,106831,1,0,0:0:0:30:LR2_ClapRRvLE.wav
320,192,107161,1,0,0:0:0:60:Bass.wav
448,192,107161,1,0,0:0:0:70:Cymbal.wav
64,192,107491,1,0,0:0:0:30:LR2_ClapRRvLE.wav
192,192,107820,1,0,0:0:0:60:Bass.wav
448,192,107820,128,0,109139:0:0:0:70:Crash.wav
64,192,108480,1,0,0:0:0:30:LR2_ClapRRvLE.wav
64,192,109139,128,0,109798:0:0:0:30:LR2_ClapRRvLE.wav
448,192,109798,128,0,110458:0:0:0:70:snare2.wav
64,192,110458,1,0,0:0:0:60:Bass.wav
320,192,110458,1,0,0:0:0:50:LR4_BassKickReverbXD.wav
64,192,112765,128,0,113095:0:0:0:0:
320,192,113095,1,0,0:0:0:70:Kick.wav
192,192,113425,1,0,0:0:0:0:
64,192,113754,1,0,0:0:0:23:LR4_SnareBPDT.wav
448,192,113754,1,0,0:0:0:23:LR4_SnareBPDT.wav
192,192,114084,1,0,0:0:0:35:Kick.wav
448,192,114249,1,0,0:0:0:23:LR4_SnareBPDT.wav
192,192,114743,1,0,0:0:0:23:LR4_SnareBPDT.wav
448,192,115073,1,0,0:0:0:23:LR4_SnareBPDT.wav
320,192,115238,1,0,0:0:0:35:Kick.wav
64,192,115403,128,0,115732:0:0:0:35:Kick.wav
320,192,115732,1,0,0:0:0:70:LR3_BassDrop.wav
192,192,116062,1,0,0:0:0:70:Kick.wav
64,192,116392,1,0,0:0:0:23:LR4_SnareBPDT.wav
448,192,116392,1,0,0:0:0:23:LR4_SnareBPDT.wav
320,192,116721,1,0,0:0:0:35:Kick.wav
64,192,116886,1,0,0:0:0:23:LR4_SnareBPDT.wav
448,192,117381,1,0,0:0:0:23:LR4_SnareBPDT.wav
192,192,117711,1,0,0:0:0:23:LR4_SnareBPDT.wav
448,192,118040,128,0,118370:0:0:0:25:ehco3.wav
64,192,118370,1,0,0:0:0:70:LR3_BassDropPDG.wav
192,192,118700,1,0,0:0:0:0:
64,192,119029,1,0,0:0:0:23:LR4_SnareBPDT.wav
448,192,119029,1,0,0:0:0:23:LR4_SnareBPDT.wav
320,192,119359,1,0,0:0:0:70:LR3_BassDrop.wav
64,192,119524,1,0,0:0:0:23:LR4_SnareBPDT.wav
448,192,120018,1,0,0:0:0:23:LR4_SnareBPDT.wav
192,192,120348,1,0,0:0:0:23:LR4_SnareBPDT.wav
320,192,120513,1,0,0:0:0:35:Kick.wav
448,192,120678,1,0,0:0:0:35:Kick.wav
64,192,121007,1,0,0:0:0:70:LR_Hat Normal.wav
192,192,121502,1,0,0:0:0:70:D7S_s.wav
320,192,121996,1,0,0:0:0:70:E7S_s.wav
64,192,122326,128,0,122656:0:0:0:70:LR4_RevCyCV2.wav
448,192,122656,128,0,122985:0:0:0:70:Bass.wav
64,192,122985,128,0,123315:0:0:0:25:LR_Drum Hit Clap Sn.wav
320,192,123315,1,0,0:0:0:35:LR3_BassDrop.wav
192,192,123645,1,0,0:0:0:70:Kick.wav
448,192,123974,1,0,0:0:0:0:
64,192,124304,1,0,0:0:0:23:LR4_SnareBPDT.wav
192,192,124304,1,0,0:0:0:23:LR4_SnareBPDT.wav
448,192,124634,1,0,0:0:0:35:Kick.wav
192,192,124798,1,0,0:0:0:23:LR4_SnareBPDT.wav
320,192,125293,1,0,0:0:0:23:LR4_SnareBPDT.wav
192,192,125623,1,0,0:0:0:23:LR4_SnareBPDT.wav
448,192,125787,1,0,0:0:0:35:Kick.wav
64,192,125952,1,0,0:0:0:35:Kick.wav
320,192,126282,1,0,0:0:0:35:Kick.wav
192,192,126612,1,0,0:0:0:0:
64,192,126941,1,0,0:0:0:23:LR4_SnareBPDT.wav
448,192,126941,1,0,0:0:0:23:LR4_SnareBPDT.wav
320,192,127189,1,0,0:0:0:35:Kick.wav
64,192,127436,1,0,0:0:0:23:LR4_SnareBPDT.wav
448,192,127683,1,0,0:0:0:35:Kick.wav
192,192,127930,1,0,0:0:0:23:LR4_SnareBPDT.wav
320,192,128260,1,0,0:0:0:23:LR4_SnareBPDT.wav
64,192,128590,128,0,128919:0:0:0:23:Kick.wav
448,192,128919,1,0,0:0:0:35:Kick.wav
192,192,129414,1,0,0:0:0:35:Kick.wav
64,192,129579,1,0,0:0:0:23:LR4_SnareBPDT.wav
448,192,129579,1,0,0:0:0:23:LR4_SnareBPDT.wav
320,192,130073,1,0,0:0:0:35:Kick.wav
64,192,130238,1,0,0:0:0:35:Kick.wav
448,192,130485,1,0,0:0:0:23:LR4_SnareBPDT.wav
192,192,130732,1,0,0:0:0:35:Kick.wav
320,192,130897,1,0,0:0:0:23:LR4_SnareBPDT.wav
64,192,131062,1,0,0:0:0:35:Kick.wav
448,192,131392,1,0,0:0:0:23:LR4_SnareBPDT.wav
192,192,131557,1,0,0:0:0:70:Kick.wav
320,192,131721,1,0,0:0:0:0:
64,192,132051,128,0,132381:0:0:0:40:LR_CymbalSSD.wav
448,192,132381,1,0,0:0:0:0:
192,192,132711,128,0,133040:0:0:0:70:LR_CymbalQST.wav
448,192,133040,128,0,133370:0:0:0:35:Kick.wav
64,192,133370,1,0,0:0:0:35:Kick.wav
320,192,133535,128,0,133864:0:0:0:70:Kick.wav
64,192,133864,128,0,134194:0:0:0:70:Kick.wav
192,192,134194,1,0,0:0:0:70:Crash.wav
448,192,134194,1,0,0:0:0:70:Kick.wav
320,192,134524,1,0,0:0:0:60:LR2_ClapRRvLE.wav
448,192,134853,1,0,0:0:0:30:LR2_ClapRRvLE.wav
64,192,135183,1,0,0:0:0:30:LR2_ClapRRvLE.wav
320,192,135513,1,0,0:0:0:60:LR2_ClapRRvLE.wav
192,192,135842,1,0,0:0:0:30:LR2_ClapRRvLE.wav
448,192,136172,1,0,0:0:0:30:LR2_ClapRRvLE.wav
64,192,136502,1,0,0:0:0:60:LR_Drum Hit Clap Sn.wav
192,192,136831,1,0,0:0:0:60:LR2_ClapRRvLE.wav
448,192,136831,1,0,0:0:0:35:Drum Hit Hard.wav
320,192,137161,1,0,0:0:0:60:LR_Drum Hit Clap Sn.wav
64,192,137491,1,0,0:0:0:30:LR2_ClapRRvLE.wav
448,192,137820,1,0,0:0:0:30:LR2_ClapRRvLE.wav
192,192,138150,1,0,0:0:0:60:LR_Drum Hit Clap Sn.wav
320,192,138480,1,0,0:0:0:30:LR2_ClapRRvLE.wav
64,192,138809,1,0,0:0:0:30:LR2_ClapRRvLE.wav
448,192,139139,1,0,0:0:0:60:LR_Drum Hit Clap Sn.wav
64,192,139469,128,0,140787:0:0:0:70:cymbol 2.wav
192,192,139469,1,0,0:0:0:70:Kick.wav
320,192,140787,1,0,0:0:0:60:LR2_ClapRRvLE.wav
448,192,140787,128,0,142106:0:0:0:70:Kick.wav
64,192,142106,128,0,142765:0:0:0:70:Kick.wav
192,192,142106,1,0,0:0:0:70:Cymbal.wav
320,192,142765,1,0,0:0:0:70:Crash.wav
448,192,142765,128,0,143425:0:0:0:70:Kick.wav
64,192,143425,1,0,0:0:0:40:Bass.wav
192,192,143425,1,0,0:0:0:70:LR_CymbalQST.wav
320,192,143754,128,0,144084:0:0:0:100:LR_Hit Med Click.wav
192,192,144084,128,0,144414:0:0:0:100:LR_Hit Med Click.wav
64,192,144414,1,0,0:0:0:50:Drum Hit Hard.wav
448,192,144414,1,0,0:0:0:35:Kick.wav
192,192,144743,1,0,0:0:0:70:Crash.wav
320,192,144743,1,0,0:0:0:35:Kick.wav
64,192,145073,1,0,0:0:0:40:LR4_SnareBPDT.wav
448,192,145403,1,0,0:0:0:70:LR_Hit Med Click.wav
192,192,145732,1,0,0:0:0:27:LR4_SnareBPDT.wav
320,192,146062,1,0,0:0:0:35:Kick.wav
64,192,146392,1,0,0:0:0:40:LR4_SnareBPDT.wav
448,192,146721,1,0,0:0:0:70:LR_Hit Med Click.wav
192,192,147051,1,0,0:0:0:27:LR4_SnareBPDT.wav
320,192,147381,1,0,0:0:0:35:Kick.wav
64,192,147711,1,0,0:0:0:40:LR4_SnareBPDT.wav
448,192,148040,1,0,0:0:0:70:LR_Hit Med Click.wav
192,192,148370,1,0,0:0:0:27:LR4_SnareBPDT.wav
320,192,148700,1,0,0:0:0:35:Kick.wav
192,192,149029,1,0,0:0:0:40:LR4_SnareBPDT.wav
448,192,149359,1,0,0:0:0:70:LR_Hit Med Click.wav
64,192,149689,1,0,0:0:0:27:LR4_SnareBPDT.wav
320,192,150018,1,0,0:0:0:35:Kick.wav
192,192,150348,1,0,0:0:0:40:LR4_SnareBPDT.wav
448,192,150678,1,0,0:0:0:70:LR_Hit Med Click.wav
64,192,151007,1,0,0:0:0:27:LR4_SnareBPDT.wav
320,192,151337,1,0,0:0:0:35:Kick.wav
192,192,151667,1,0,0:0:0:40:LR4_SnareBPDT.wav
64,192,151996,1,0,0:0:0:70:LR_Hit Med Click.wav
448,192,152326,1,0,0:0:0:27:LR4_SnareBPDT.wav
192,192,152656,1,0,0:0:0:35:Kick.wav
320,192,152985,1,0,0:0:0:40:LR4_SnareBPDT.wav
64,192,153315,1,0,0:0:0:70:LR_Hit Med Click.wav
448,192,153645,1,0,0:0:0:27:LR4_SnareBPDT.wav
192,192,153974,1,0,0:0:0:35:Kick.wav
320,192,154304,1,0,0:0:0:40:LR4_SnareBPDT.wav
64,192,154634,1,0,0:0:0:70:LR_Hit Med Click.wav
320,192,154963,1,0,0:0:0:27:LR4_SnareBPDT.wav
448,192,154963,128,0,155293:0:0:0:27:LR4_SnareBPDT.wav
64,192,155293,1,0,0:0:0:70:Crash.wav
192,192,155293,1,0,0:0:0:70:Kick.wav
320,192,155623,1,0,0:0:0:27:LR4_SnareBPDT.wav
448,192,155952,1,0,0:0:0:70:LR_Hit Med Click.wav
64,192,156282,1,0,0:0:0:27:LR4_SnareBPDT.wav
192,192,156612,1,0,0:0:0:35:Kick.wav
448,192,156941,1,0,0:0:0:40:LR4_SnareBPDT.wav
320,192,157271,1,0,0:0:0:70:LR_Hit Med Click.wav
64,192,157601,1,0,0:0:0:27:LR4_SnareBPDT.wav
448,192,157930,1,0,0:0:0:35:Kick.wav
192,192,158260,1,0,0:0:0:40:LR4_SnareBPDT.wav
320,192,158590,1,0,0:0:0:70:LR_Hit Med Click.wav
64,192,158919,1,0,0:0:0:27:LR4_SnareBPDT.wav
448,192,159249,1,0,0:0:0:35:Kick.wav
320,192,159579,1,0,0:0:0:70:LR_Hit Med Click.wav
192,192,159908,1,0,0:0:0:70:LR_Hit Med Click.wav
448,192,160238,1,0,0:0:0:27:LR4_SnareBPDT.wav
64,192,160568,1,0,0:0:0:35:Kick.wav
320,192,160897,1,0,0:0:0:40:LR4_SnareBPDT.wav
192,192,161227,1,0,0:0:0:70:LR_Hit Med Click.wav
448,192,161557,1,0,0:0:0:27:LR4_SnareBPDT.wav
64,192,161886,1,0,0:0:0:35:Kick.wav
192,192,162216,1,0,0:0:0:40:LR4_SnareBPDT.wav
320,192,162546,1,0,0:0:0:70:LR_Hit Med Click.wav
64,192,162875,1,0,0:0:0:27:LR4_SnareBPDT.wav
320,192,163205,1,0,0:0:0:50:Cymbal.wav
448,192,163205,128,0,163700:0:0:0:70:Kick.wav
192,192,163700,1,0,0:0:0:35:Kick.wav
64,192,163864,1,0,0:0:0:27:LR4_SnareBPDT.wav
448,192,164359,1,0,0:0:0:35:Kick.wav
64,192,164524,128,0,165513:0:0:0:20:cymbol 2.wav
192,192,164524,1,0,0:0:0:35:Kick.wav
448,192,165513,1,0,0:0:0:70:Whistle 2.wav
192,192,165842,1,0,0:0:0:70:cymbol 2.wav
320,192,165842,1,0,0:0:0:90:Whistle.wav
64,192,166172,1,0,0:0:0:80:LR4_SnareBPDT.wav
448,192,166502,1,0,0:0:0:100:C3S_s.wav
192,192,166831,1,0,0:0:0:100:C3S_s.wav
320,192,167161,1,0,0:0:0:100:D3S_s.wav
448,192,167491,1,0,0:0:0:100:D3S_s.wav
64,192,167820,1,0,0:0:0:100:D3S_s.wav
320,192,168150,1,0,0:0:0:100:D3S_s.wav
192,192,168480,1,0,0:0:0:100:A2S_s.wav
448,192,168809,1,0,0:0:0:100:A2S_s.wav
64,192,169139,1,0,0:0:0:100:A2S_s.wav
320,192,169469,1,0,0:0:0:90:Whistle.wav
192,192,169798,1,0,0:0:0:70:Kick.wav
320,192,170128,1,0,0:0:0:100:A2S_s.wav
64,192,170458,1,0,0:0:0:90:Whistle.wav
448,192,170787,1,0,0:0:0:100:B2S_s.wav
192,192,171117,1,0,0:0:0:100:click.wav
320,192,171447,1,0,0:0:0:90:Whistle.wav
64,192,171776,1,0,0:0:0:100:C3S_s.wav
448,192,172106,1,0,0:0:0:100:click.wav
192,192,172436,1,0,0:0:0:90:Whistle.wav
320,192,172765,1,0,0:0:0:80:LR4_SnareBPDT.wav
448,192,173095,1,0,0:0:0:100:click.wav
64,192,173425,1,0,0:0:0:90:Whistle.wav
320,192,173754,1,0,0:0:0:90:Whistle.wav
192,192,174084,1,0,0:0:0:90:Whistle.wav
448,192,174414,1,0,0:0:0:100:E3S_s.wav
64,192,174743,1,0,0:0:0:100:E3S_s.wav
320,192,175073,1,0,0:0:0:100:E3S_s.wav
192,192,175403,1,0,0:0:0:70:E3S_s.wav
448,192,175732,1,0,0:0:0:100:B2S_s.wav
64,192,176062,128,0,176392:0:0:0:100:B2S_s.wav
192,192,176062,1,0,0:0:0:100:click.wav
320,192,176392,1,0,0:0:0:90:Whistle.wav
448,192,176392,1,0,0:0:0:100:C3S_s.wav
192,192,176721,1,0,0:0:0:100:C3S_s.wav
64,192,177051,1,0,0:0:0:100:click.wav
448,192,177381,1,0,0:0:0:100:C3S_s.wav
320,192,177711,1,0,0:0:0:100:D3S_s.wav
64,192,178040,1,0,0:0:0:100:click.wav
192,192,178370,1,0,0:0:0:100:D3S_s.wav
448,192,178700,1,0,0:0:0:90:Whistle.wav
64,192,179029,1,0,0:0:0:100:A2S_s.wav
320,192,179359,1,0,0:0:0:100:A2S_s.wav
192,192,179689,1,0,0:0:0:100:A2S_s.wav
448,192,180018,1,0,0:0:0:100:click.wav
64,192,180348,1,0,0:0:0:70:Kick.wav
192,192,180678,1,0,0:0:0:90:Whistle.wav
320,192,181007,1,0,0:0:0:100:click.wav
64,192,181337,1,0,0:0:0:100:B2S_s.wav
320,192,181667,1,0,0:0:0:70:C3S_s.wav
448,192,181667,128,0,182985:0:0:0:90:Whistle.wav
64,192,182985,128,0,184139:0:0:0:70:D3S_s.wav
192,192,182985,1,0,0:0:0:100:click.wav
320,192,184139,1,0,0:0:0:35:D3S_s.wav
192,192,184304,1,0,0:0:0:70:Kick.wav
448,192,184304,128,0,185623:0:0:0:70:cymbol 2.wav
64,192,185623,1,0,0:0:0:100:E3S_s.wav
320,192,185787,1,0,0:0:0:90:Whistle.wav
192,192,185952,1,0,0:0:0:100:click.wav
448,192,186282,128,0,186612:0:0:0:90:snare2.wav
64,192,186612,128,0,186941:0:0:0:70:Kick.wav
320,192,186941,1,0,0:0:0:70:Kick.wav
448,192,186941,1,0,0:0:0:70:cymbol 2.wav
