osu file format v14

[General]
AudioFilename: audio.mp3
AudioLeadIn: 0
PreviewTime: 111715
Countdown: 0
SampleSet: Normal
StackLeniency: 0.7
Mode: 3
LetterboxInBreaks: 0
SpecialStyle: 0
WidescreenStoryboard: 0

[Editor]
Bookmarks: 6385,9682,15616,38034,59132,80231,101330,111880,122429,130341,134297
DistanceSpacing: 0.8
BeatDivisor: 4
GridSize: 8
TimelineZoom: 1.9

[Metadata]
Title:Platinum
TitleUnicode:Platinum
Artist:jioyi
ArtistUnicode:jioyi
Creator:Level 51
Version:Extra
Source:
Tags:
BeatmapID:1116692
BeatmapSetID:526241

[Difficulty]
HPDrainRate:9.2
CircleSize:7
OverallDifficulty:8.3
ApproachRate:5
SliderMultiplier:1.4
SliderTickRate:1

[Events]
//Background and Video events
0,0,"plat.jpg",0,0
//Break Periods
//Storyboard Layer 0 (Background)
//Storyboard Layer 1 (Fail)
//Storyboard Layer 2 (Pass)
//Storyboard Layer 3 (Foreground)
//Storyboard Sound Samples

[TimingPoints]
1111,329.67032967033,4,1,0,0,1,0

[HitObjects]
36,192,1111,5,0,0:0:0:30:soft-hitnormal.wav
256,192,1111,1,0,0:0:0:30:soft-hitnormal.wav
475,192,1111,1,0,0:0:0:30:soft-hitnormal.wav
182,192,1275,1,0,0:0:0:30:soft-hitnormal.wav
402,192,1440,1,0,0:0:0:30:soft-hitnormal.wav
109,192,1440,1,0,0:0:0:30:soft-hitnormal.wav
329,192,1605,1,0,0:0:0:30:soft-hitnormal.wav
475,192,1770,1,0,0:0:0:30:soft-hitnormal.wav
256,192,1770,1,0,0:0:0:30:soft-hitnormal.wav
182,192,1935,1,0,0:0:0:30:soft-hitnormal.wav
109,192,2100,1,0,0:0:0:30:soft-hitnormal.wav
329,192,2100,1,0,0:0:0:30:soft-hitnormal.wav
256,192,2182,1,0,0:0:0:30:soft-hitnormal.wav
402,192,2264,1,0,0:0:0:30:soft-hitnormal.wav
182,192,2264,1,0,0:0:0:30:soft-hitnormal.wav
36,192,2429,1,0,0:0:0:30:soft-hitnormal.wav
329,192,2429,1,0,0:0:0:30:soft-hitnormal.wav
329,192,2594,1,0,0:0:0:30:soft-hitnormal.wav
402,192,2759,1,0,0:0:0:30:soft-hitnormal.wav
109,192,2759,1,0,0:0:0:30:soft-hitnormal.wav
182,192,2924,1,0,0:0:0:30:soft-hitnormal.wav
329,192,3089,1,0,0:0:0:30:soft-hitnormal.wav
36,192,3253,1,0,0:0:0:30:soft-hitnormal.wav
256,192,3418,1,0,0:0:0:30:soft-hitnormal.wav
475,192,3583,1,0,0:0:0:30:soft-hitnormal.wav
182,192,3583,1,0,0:0:0:30:soft-hitnormal.wav
109,192,3748,1,0,0:0:0:30:soft-hitnormal.wav
329,192,3748,1,0,0:0:0:30:soft-hitnormal.wav
182,192,3830,1,0,0:0:0:30:soft-hitnormal.wav
36,192,3913,1,0,0:0:0:30:soft-hitnormal.wav
256,192,3913,1,0,0:0:0:30:soft-hitnormal.wav
109,192,4078,1,0,0:0:0:30:soft-hitnormal.wav
329,192,4078,1,0,0:0:0:30:soft-hitnormal.wav
475,192,4078,1,0,0:0:0:30:soft-hitnormal.wav
36,192,4242,1,0,0:0:0:30:soft-hitnormal.wav
256,192,4242,1,0,0:0:0:30:soft-hitnormal.wav
402,192,4242,1,0,0:0:0:30:soft-hitnormal.wav
36,192,4407,1,0,0:0:0:30:soft-hitnormal.wav
329,192,4407,1,0,0:0:0:30:soft-hitnormal.wav
475,192,4407,1,0,0:0:0:30:soft-hitnormal.wav
256,192,4407,1,0,0:0:0:30:soft-hitnormal.wav
109,192,4572,1,0,0:0:0:30:soft-hitnormal.wav
329,192,4572,1,0,0:0:0:30:soft-hitnormal.wav
402,192,4572,1,0,0:0:0:30:soft-hitnormal.wav
36,192,4737,1,0,0:0:0:30:soft-hitnormal.wav
256,192,4737,1,0,0:0:0:30:soft-hitnormal.wav
182,192,4819,1,0,0:0:0:30:soft-hitnormal.wav
109,192,4902,1,0,0:0:0:30:soft-hitnormal.wav
402,192,4902,1,0,0:0:0:30:soft-hitnormal.wav
475,192,4902,1,0,0:0:0:30:soft-hitnormal.wav
36,192,5067,1,0,0:0:0:30:soft-hitnormal.wav
402,192,5067,1,0,0:0:0:30:soft-hitnormal.wav
256,192,5067,1,0,0:0:0:30:soft-hitnormal.wav
329,192,5231,1,0,0:0:0:30:soft-hitnormal.wav
182,192,5231,1,0,0:0:0:30:soft-hitnormal.wav
109,192,5396,1,0,0:0:0:30:soft-hitnormal.wav
475,192,5396,1,0,0:0:0:30:soft-hitnormal.wav
256,192,5396,1,0,0:0:0:30:soft-hitnormal.wav
182,192,5561,1,0,0:0:0:30:soft-hitnormal.wav
329,192,5561,1,0,0:0:0:30:soft-hitnormal.wav
36,192,5726,1,0,0:0:0:30:soft-hitnormal.wav
402,192,5726,1,0,0:0:0:30:soft-hitnormal.wav
256,192,5726,1,0,0:0:0:30:soft-hitnormal.wav
182,192,5808,1,0,0:0:0:30:soft-hitnormal.wav
109,192,5891,1,0,0:0:0:30:soft-hitnormal.wav
329,192,5891,1,0,0:0:0:30:soft-hitnormal.wav
475,192,5891,1,0,0:0:0:30:soft-hitnormal.wav
256,192,5973,1,0,0:0:0:30:soft-hitnormal.wav
402,192,6056,1,0,0:0:0:30:soft-hitnormal.wav
182,192,6056,1,0,0:0:0:30:soft-hitnormal.wav
329,192,6138,1,0,0:0:0:30:soft-hitnormal.wav
475,192,6220,1,0,0:0:0:30:soft-hitnormal.wav
256,192,6220,1,0,0:0:0:30:soft-hitnormal.wav
182,192,6303,1,0,0:0:0:30:soft-hitnormal.wav
109,192,6385,1,0,0:0:0:30:soft-hitnormal.wav
36,192,6385,1,0,0:0:0:30:soft-hitnormal.wav
402,192,6385,1,0,0:0:0:30:soft-hitnormal.wav
329,192,6385,1,0,0:0:0:30:soft-hitnormal.wav
256,192,6468,1,0,0:0:0:30:soft-hitnormal.wav
109,192,6550,1,0,0:0:0:30:soft-hitnormal.wav
182,192,6550,1,0,0:0:0:30:soft-hitnormal.wav
329,192,6632,1,0,0:0:0:30:soft-hitnormal.wav
475,192,6632,1,0,0:0:0:30:soft-hitnormal.wav
402,192,6632,1,0,0:0:0:30:soft-hitnormal.wav
256,192,6715,1,0,0:0:0:30:soft-hitnormal.wav
329,192,6797,1,0,0:0:0:30:soft-hitnormal.wav
402,192,6797,1,0,0:0:0:30:soft-hitnormal.wav
182,192,6880,1,0,0:0:0:30:soft-hitnormal.wav
109,192,6880,1,0,0:0:0:30:soft-hitnormal.wav
36,192,6880,1,0,0:0:0:30:soft-hitnormal.wav
256,192,6962,1,0,0:0:0:30:soft-hitnormal.wav
109,192,7045,1,0,0:0:0:30:soft-hitnormal.wav
182,192,7045,1,0,0:0:0:30:soft-hitnormal.wav
329,192,7127,1,0,0:0:0:30:soft-hitnormal.wav
402,192,7127,1,0,0:0:0:30:soft-hitnormal.wav
475,192,7127,1,0,0:0:0:30:soft-hitnormal.wav
256,192,7209,1,0,0:0:0:30:soft-hitnormal.wav
329,192,7292,1,0,0:0:0:30:soft-hitnormal.wav
402,192,7292,1,0,0:0:0:30:soft-hitnormal.wav
36,192,7374,1,0,0:0:0:30:soft-hitnormal.wav
109,192,7374,1,0,0:0:0:30:soft-hitnormal.wav
182,192,7374,1,0,0:0:0:30:soft-hitnormal.wav
256,192,7457,1,0,0:0:0:30:soft-hitnormal.wav
329,192,7539,1,0,0:0:0:30:soft-hitnormal.wav
402,192,7539,1,0,0:0:0:30:soft-hitnormal.wav
329,192,7621,1,0,0:0:0:30:soft-hitnormal.wav
402,192,7621,1,0,0:0:0:30:soft-hitnormal.wav
109,192,7704,1,0,0:0:0:30:soft-hitnormal.wav
182,192,7704,1,0,0:0:0:30:soft-hitnormal.wav
36,192,7704,1,0,0:0:0:30:soft-hitnormal.wav
475,192,7786,1,0,0:0:0:30:soft-hitnormal.wav
109,192,7869,1,0,0:0:0:30:soft-hitnormal.wav
182,192,7869,1,0,0:0:0:30:soft-hitnormal.wav
329,192,7951,1,0,0:0:0:30:soft-hitnormal.wav
402,192,7951,1,0,0:0:0:30:soft-hitnormal.wav
475,192,7951,1,0,0:0:0:30:soft-hitnormal.wav
36,192,8034,1,0,0:0:0:30:soft-hitnormal.wav
329,192,8116,1,0,0:0:0:30:soft-hitnormal.wav
402,192,8116,1,0,0:0:0:30:soft-hitnormal.wav
36,192,8198,1,0,0:0:0:30:soft-hitnormal.wav
182,192,8198,1,0,0:0:0:30:soft-hitnormal.wav
109,192,8198,1,0,0:0:0:30:soft-hitnormal.wav
475,192,8281,1,0,0:0:0:30:soft-hitnormal.wav
109,192,8363,1,0,0:0:0:30:soft-hitnormal.wav
182,192,8363,1,0,0:0:0:30:soft-hitnormal.wav
329,192,8446,1,0,0:0:0:30:soft-hitnormal.wav
402,192,8446,1,0,0:0:0:30:soft-hitnormal.wav
475,192,8446,1,0,0:0:0:30:soft-hitnormal.wav
36,192,8528,1,0,0:0:0:30:soft-hitnormal.wav
329,192,8611,1,0,0:0:0:30:soft-hitnormal.wav
402,192,8611,1,0,0:0:0:30:soft-hitnormal.wav
36,192,8693,1,0,0:0:0:30:soft-hitnormal.wav
109,192,8693,1,0,0:0:0:30:soft-hitnormal.wav
182,192,8693,1,0,0:0:0:30:soft-hitnormal.wav
475,192,8775,1,0,0:0:0:30:soft-hitnormal.wav
329,192,8775,1,0,0:0:0:30:soft-hitnormal.wav
109,192,8858,1,0,0:0:0:30:soft-hitnormal.wav
182,192,8858,1,0,0:0:0:30:soft-hitnormal.wav
109,192,8940,1,0,0:0:0:30:soft-hitnormal.wav
182,192,8940,1,0,0:0:0:30:soft-hitnormal.wav
329,192,9023,1,0,0:0:0:30:soft-hitnormal.wav
402,192,9023,1,0,0:0:0:30:soft-hitnormal.wav
475,192,9023,1,0,0:0:0:30:soft-hitnormal.wav
182,192,9105,1,0,0:0:0:30:soft-hitnormal.wav
36,192,9187,1,0,0:0:0:30:soft-hitnormal.wav
109,192,9187,1,0,0:0:0:30:soft-hitnormal.wav
256,192,9270,1,0,0:0:0:30:soft-hitnormal.wav
329,192,9270,1,0,0:0:0:30:soft-hitnormal.wav
402,192,9270,1,0,0:0:0:30:soft-hitnormal.wav
36,192,9352,1,0,0:0:0:30:soft-hitnormal.wav
402,192,9435,1,0,0:0:0:30:soft-hitnormal.wav
475,192,9435,1,0,0:0:0:30:soft-hitnormal.wav
109,192,9517,1,0,0:0:0:30:soft-hitnormal.wav
256,192,9517,1,0,0:0:0:30:soft-hitnormal.wav
182,192,9517,1,0,0:0:0:30:soft-hitnormal.wav
475,192,9600,1,0,0:0:0:30:soft-hitnormal.wav
36,192,9682,1,0,0:0:0:30:soft-hitnormal.wav
109,192,9682,1,0,0:0:0:30:soft-hitnormal.wav
256,192,9764,1,0,0:0:0:30:soft-hitnormal.wav
402,192,9764,1,0,0:0:0:30:soft-hitnormal.wav
329,192,9764,1,0,0:0:0:30:soft-hitnormal.wav
36,192,9847,1,0,0:0:0:30:soft-hitnormal.wav
402,192,9929,1,0,0:0:0:30:soft-hitnormal.wav
475,192,9929,1,0,0:0:0:30:soft-hitnormal.wav
256,192,10012,1,0,0:0:0:30:soft-hitnormal.wav
182,192,10012,1,0,0:0:0:30:soft-hitnormal.wav
109,192,10012,1,0,0:0:0:30:soft-hitnormal.wav
475,192,10094,1,0,0:0:0:30:soft-hitnormal.wav
109,192,10176,1,0,0:0:0:30:soft-hitnormal.wav
182,192,10176,1,0,0:0:0:30:soft-hitnormal.wav
109,192,10259,1,0,0:0:0:30:soft-hitnormal.wav
182,192,10259,1,0,0:0:0:30:soft-hitnormal.wav
329,192,10341,1,0,0:0:0:30:soft-hitnormal.wav
402,192,10341,1,0,0:0:0:30:soft-hitnormal.wav
475,192,10341,1,0,0:0:0:30:soft-hitnormal.wav
109,192,10424,1,0,0:0:0:30:soft-hitnormal.wav
329,192,10506,1,0,0:0:0:30:soft-hitnormal.wav
256,192,10506,1,0,0:0:0:30:soft-hitnormal.wav
36,192,10589,1,0,0:0:0:30:soft-hitnormal.wav
109,192,10589,1,0,0:0:0:30:soft-hitnormal.wav
182,192,10589,1,0,0:0:0:30:soft-hitnormal.wav
402,192,10671,1,0,0:0:0:30:soft-hitnormal.wav
256,192,10753,1,0,0:0:0:30:soft-hitnormal.wav
182,192,10753,1,0,0:0:0:30:soft-hitnormal.wav
329,192,10836,1,0,0:0:0:30:soft-hitnormal.wav
402,192,10836,1,0,0:0:0:30:soft-hitnormal.wav
475,192,10836,1,0,0:0:0:30:soft-hitnormal.wav
109,192,10918,1,0,0:0:0:30:soft-hitnormal.wav
329,192,11001,1,0,0:0:0:30:soft-hitnormal.wav
256,192,11001,1,0,0:0:0:30:soft-hitnormal.wav
36,192,11083,1,0,0:0:0:30:soft-hitnormal.wav
182,192,11083,1,0,0:0:0:30:soft-hitnormal.wav
109,192,11083,1,0,0:0:0:30:soft-hitnormal.wav
402,192,11165,1,0,0:0:0:30:soft-hitnormal.wav
182,192,11248,1,0,0:0:0:30:soft-hitnormal.wav
256,192,11248,1,0,0:0:0:30:soft-hitnormal.wav
402,192,11330,1,0,0:0:0:30:soft-hitnormal.wav
329,192,11330,1,0,0:0:0:30:soft-hitnormal.wav
475,192,11330,1,0,0:0:0:30:soft-hitnormal.wav
109,192,11413,1,0,0:0:0:30:soft-hitnormal.wav
182,192,11413,1,0,0:0:0:30:soft-hitnormal.wav
256,192,11495,1,0,0:0:0:30:soft-hitnormal.wav
329,192,11495,1,0,0:0:0:30:soft-hitnormal.wav
402,192,11578,1,0,0:0:0:30:soft-hitnormal.wav
475,192,11578,1,0,0:0:0:30:soft-hitnormal.wav
36,192,11660,1,0,0:0:0:30:soft-hitnormal.wav
109,192,11660,1,0,0:0:0:30:soft-hitnormal.wav
182,192,11660,1,0,0:0:0:30:soft-hitnormal.wav
329,192,11742,1,0,0:0:0:30:soft-hitnormal.wav
109,192,11825,1,0,0:0:0:30:soft-hitnormal.wav
182,192,11825,1,0,0:0:0:30:soft-hitnormal.wav
329,192,11907,1,0,0:0:0:30:soft-hitnormal.wav
402,192,11907,1,0,0:0:0:30:soft-hitnormal.wav
475,192,11907,1,0,0:0:0:30:soft-hitnormal.wav
182,192,11990,1,0,0:0:0:30:soft-hitnormal.wav
329,192,12072,1,0,0:0:0:30:soft-hitnormal.wav
402,192,12072,1,0,0:0:0:30:soft-hitnormal.wav
36,192,12154,1,0,0:0:0:30:soft-hitnormal.wav
109,192,12154,1,0,0:0:0:30:soft-hitnormal.wav
182,192,12154,1,0,0:0:0:30:soft-hitnormal.wav
329,192,12237,1,0,0:0:0:30:soft-hitnormal.wav
402,192,12237,1,0,0:0:0:30:soft-hitnormal.wav
109,192,12319,1,0,0:0:0:30:soft-hitnormal.wav
182,192,12319,1,0,0:0:0:30:soft-hitnormal.wav
256,192,12319,1,0,0:0:0:30:soft-hitnormal.wav
329,192,12402,1,0,0:0:0:30:soft-hitnormal.wav
109,192,12484,1,0,0:0:0:30:soft-hitnormal.wav
182,192,12484,1,0,0:0:0:30:soft-hitnormal.wav
329,192,12567,1,0,0:0:0:30:soft-hitnormal.wav
402,192,12567,1,0,0:0:0:30:soft-hitnormal.wav
475,192,12567,1,0,0:0:0:30:soft-hitnormal.wav
182,192,12649,1,0,0:0:0:30:soft-hitnormal.wav
329,192,12731,1,0,0:0:0:30:soft-hitnormal.wav
402,192,12731,1,0,0:0:0:30:soft-hitnormal.wav
36,192,12814,1,0,0:0:0:30:soft-hitnormal.wav
109,192,12814,1,0,0:0:0:30:soft-hitnormal.wav
182,192,12814,1,0,0:0:0:30:soft-hitnormal.wav
329,192,12896,1,0,0:0:0:30:soft-hitnormal.wav
402,192,12896,1,0,0:0:0:30:soft-hitnormal.wav
109,192,12979,1,0,0:0:0:30:soft-hitnormal.wav
182,192,12979,1,0,0:0:0:30:soft-hitnormal.wav
256,192,12979,1,0,0:0:0:30:soft-hitnormal.wav
402,192,13061,1,0,0:0:0:30:soft-hitnormal.wav
36,192,13143,5,0,0:0:0:30:soft-hitnormal.wav
109,192,13143,1,0,0:0:0:30:soft-hitnormal.wav
329,192,13226,1,0,0:0:0:30:soft-hitnormal.wav
402,192,13226,1,0,0:0:0:30:soft-hitnormal.wav
256,192,13226,1,0,0:0:0:30:soft-hitnormal.wav
109,192,13308,1,0,0:0:0:30:soft-hitnormal.wav
402,192,13391,1,0,0:0:0:30:soft-hitnormal.wav
475,192,13391,1,0,0:0:0:30:soft-hitnormal.wav
109,192,13473,1,0,0:0:0:30:soft-hitnormal.wav
256,192,13473,1,0,0:0:0:30:soft-hitnormal.wav
182,192,13473,1,0,0:0:0:30:soft-hitnormal.wav
402,192,13556,1,0,0:0:0:30:soft-hitnormal.wav
475,192,13556,1,0,0:0:0:30:soft-hitnormal.wav
36,192,13638,1,0,0:0:0:30:soft-hitnormal.wav
109,192,13638,1,0,0:0:0:30:soft-hitnormal.wav
182,192,13638,1,0,0:0:0:30:soft-hitnormal.wav
402,192,13720,1,0,0:0:0:30:soft-hitnormal.wav
109,192,13803,1,0,0:0:0:30:soft-hitnormal.wav
36,192,13803,1,0,0:0:0:30:soft-hitnormal.wav
329,192,13885,1,0,0:0:0:30:soft-hitnormal.wav
402,192,13885,1,0,0:0:0:30:soft-hitnormal.wav
256,192,13885,1,0,0:0:0:30:soft-hitnormal.wav
182,192,13968,1,0,0:0:0:30:soft-hitnormal.wav
36,192,14050,1,0,0:0:0:30:soft-hitnormal.wav
109,192,14050,1,0,0:0:0:30:soft-hitnormal.wav
256,192,14132,1,0,0:0:0:30:soft-hitnormal.wav
329,192,14132,1,0,0:0:0:30:soft-hitnormal.wav
402,192,14132,1,0,0:0:0:30:soft-hitnormal.wav
475,192,14132,1,0,0:0:0:30:soft-hitnormal.wav
182,192,14215,1,0,0:0:0:30:soft-hitnormal.wav
36,192,14297,5,0,0:0:0:30:soft-hitnormal.wav
109,192,14297,1,0,0:0:0:30:soft-hitnormal.wav
329,192,14297,1,0,0:0:0:30:soft-hitnormal.wav
402,192,14297,1,0,0:0:0:30:soft-hitnormal.wav
256,192,14380,1,0,0:0:0:30:soft-hitnormal.wav
109,192,14462,1,0,0:0:0:30:soft-hitnormal.wav
182,192,14462,1,0,0:0:0:30:soft-hitnormal.wav
402,192,14462,1,0,0:0:0:30:soft-hitnormal.wav
475,192,14462,1,0,0:0:0:30:soft-hitnormal.wav
329,192,14545,1,0,0:0:0:30:soft-hitnormal.wav
256,192,14627,1,0,0:0:0:30:soft-hitnormal.wav
36,192,14627,1,0,0:0:0:30:soft-hitnormal.wav
109,192,14627,1,0,0:0:0:30:soft-hitnormal.wav
475,192,14627,1,0,0:0:0:30:soft-hitnormal.wav
182,192,14709,1,0,0:0:0:30:soft-hitnormal.wav
109,192,14792,1,0,0:0:0:30:soft-hitnormal.wav
402,192,14792,1,0,0:0:0:30:soft-hitnormal.wav
475,192,14792,1,0,0:0:0:30:soft-hitnormal.wav
329,192,14792,1,0,0:0:0:30:soft-hitnormal.wav
256,192,14874,1,0,0:0:0:30:soft-hitnormal.wav
182,192,14957,1,0,0:0:0:30:soft-hitnormal.wav
36,192,14957,1,0,0:0:0:30:soft-hitnormal.wav
402,192,14957,1,0,0:0:0:30:soft-hitnormal.wav
475,192,14957,1,0,0:0:0:30:soft-hitnormal.wav
256,192,15039,1,0,0:0:0:30:soft-hitnormal.wav
36,192,15121,1,0,0:0:0:30:soft-hitnormal.wav
109,192,15121,1,0,0:0:0:30:soft-hitnormal.wav
475,192,15121,1,0,0:0:0:30:soft-hitnormal.wav
329,192,15121,1,0,0:0:0:30:soft-hitnormal.wav
182,192,15204,1,0,0:0:0:30:soft-hitnormal.wav
256,192,15286,1,0,0:0:0:30:soft-hitnormal.wav
402,192,15286,1,0,0:0:0:30:soft-hitnormal.wav
36,192,15286,1,0,0:0:0:30:soft-hitnormal.wav
475,192,15286,1,0,0:0:0:30:soft-hitnormal.wav
182,192,15369,1,0,0:0:0:30:soft-hitnormal.wav
109,192,15451,1,0,0:0:0:30:soft-hitnormal.wav
36,192,15451,1,0,0:0:0:30:soft-hitnormal.wav
329,192,15451,1,0,0:0:0:30:soft-hitnormal.wav
402,192,15451,1,0,0:0:0:30:soft-hitnormal.wav
256,192,15534,1,0,0:0:0:30:soft-hitnormal.wav
109,192,15616,1,0,0:0:0:30:soft-hitnormal.wav
36,192,15616,1,0,0:0:0:30:soft-hitnormal.wav
182,192,15637,1,0,0:0:0:30:soft-hitnormal.wav
475,192,15657,1,0,0:0:0:30:soft-hitnormal.wav
402,192,15678,1,0,0:0:0:30:soft-hitnormal.wav
329,192,15698,1,0,0:0:0:30:soft-hitnormal.wav
36,192,15946,1,0,0:0:0:30:soft-hitnormal.wav
256,192,15946,1,0,0:0:0:30:soft-hitnormal.wav
402,192,15946,1,0,0:0:0:30:soft-hitnormal.wav
182,192,16028,1,0,0:0:0:30:soft-hitnormal.wav
329,192,16028,1,0,0:0:0:30:soft-hitnormal.wav
109,192,16111,1,0,0:0:0:30:soft-hitnormal.wav
256,192,16111,1,0,0:0:0:30:soft-hitnormal.wav
475,192,16111,1,0,0:0:0:30:soft-hitnormal.wav
36,192,16275,1,0,0:0:0:30:soft-hitnormal.wav
182,192,16275,1,0,0:0:0:30:soft-hitnormal.wav
329,192,16275,1,0,0:0:0:30:soft-hitnormal.wav
109,192,16358,1,0,0:0:0:30:soft-hitnormal.wav
256,192,16358,1,0,0:0:0:30:soft-hitnormal.wav
402,192,16358,1,0,0:0:0:30:soft-hitnormal.wav
182,192,16440,1,0,0:0:0:30:soft-hitnormal.wav
329,192,16440,1,0,0:0:0:30:soft-hitnormal.wav
475,192,16440,1,0,0:0:0:30:soft-hitnormal.wav
36,192,16605,1,0,0:0:0:30:soft-hitnormal.wav
109,192,16605,1,0,0:0:0:30:soft-hitnormal.wav
256,192,16605,128,0,16935:0:0:0:30:soft-hitnormal.wav
329,192,16605,1,0,0:0:0:30:soft-hitnormal.wav
402,192,16605,1,0,0:0:0:30:soft-hitnormal.wav
109,192,16935,1,0,0:0:0:30:soft-hitnormal.wav
182,192,16935,1,0,0:0:0:30:soft-hitnormal.wav
475,192,16935,128,0,17264:0:0:0:30:soft-hitnormal.wav
402,192,17100,128,0,17264:0:0:0:30:soft-hitnormal.wav
329,192,17141,128,0,17264:0:0:0:30:soft-hitnormal.wav
256,192,17182,128,0,17264:0:0:0:30:soft-hitnormal.wav
182,192,17223,128,0,17264:0:0:0:30:soft-hitnormal.wav
329,192,17429,1,0,0:0:0:30:soft-hitnormal.wav
182,192,17512,1,0,0:0:0:30:soft-hitnormal.wav
36,192,17512,1,0,0:0:0:30:soft-hitnormal.wav
402,192,17594,1,0,0:0:0:30:soft-hitnormal.wav
256,192,17594,1,0,0:0:0:30:soft-hitnormal.wav
475,192,17594,128,0,17924:0:0:0:30:soft-hitnormal.wav
36,192,17759,128,0,17924:0:0:0:30:soft-hitnormal.wav
109,192,17800,128,0,17924:0:0:0:30:soft-hitnormal.wav
182,192,17841,128,0,17924:0:0:0:30:soft-hitnormal.wav
256,192,17882,128,0,17924:0:0:0:30:soft-hitnormal.wav
329,192,17924,1,0,0:0:0:30:soft-hitnormal.wav
402,192,17924,1,0,0:0:0:30:soft-hitnormal.wav
36,192,18089,1,0,0:0:0:30:soft-hitnormal.wav
182,192,18089,1,0,0:0:0:30:soft-hitnormal.wav
475,192,18089,1,0,0:0:0:30:soft-hitnormal.wav
256,192,18089,1,0,0:0:0:30:soft-hitnormal.wav
329,192,18253,1,0,0:0:0:30:soft-hitnormal.wav
402,192,18253,1,0,0:0:0:0:
329,192,18336,1,0,0:0:0:30:soft-hitnormal.wav
182,192,18418,1,0,0:0:0:30:soft-hitnormal.wav
109,192,18418,1,0,0:0:0:0:
182,192,18501,1,0,0:0:0:30:soft-hitnormal.wav
329,192,18583,128,0,18913:0:0:0:30:soft-hitnormal.wav
402,192,18583,128,0,18913:0:0:0:30:soft-hitnormal.wav
36,192,18583,1,0,0:0:0:30:soft-hitnormal.wav
256,192,18583,1,0,0:0:0:0:
36,192,18913,1,0,0:0:0:30:soft-hitnormal.wav
109,192,18913,1,0,0:0:0:30:soft-hitnormal.wav
182,192,19078,1,0,0:0:0:30:soft-hitnormal.wav
329,192,19078,1,0,0:0:0:30:soft-hitnormal.wav
36,192,19242,1,0,0:0:0:30:soft-hitnormal.wav
256,192,19242,1,0,0:0:0:30:soft-hitnormal.wav
402,192,19242,1,0,0:0:0:30:soft-hitnormal.wav
475,192,19242,1,0,0:0:0:30:soft-hitnormal.wav
109,192,19242,128,0,19572:0:0:0:30:soft-hitnormal.wav
182,192,19572,1,0,0:0:0:30:soft-hitnormal.wav
329,192,19572,1,0,0:0:0:30:soft-hitnormal.wav
475,192,19572,1,0,0:0:0:30:soft-hitnormal.wav
182,192,19819,1,0,0:0:0:30:soft-hitnormal.wav
329,192,19819,1,0,0:0:0:30:soft-hitnormal.wav
475,192,19819,1,0,0:0:0:30:soft-hitnormal.wav
182,192,20067,1,0,0:0:0:30:soft-hitnormal.wav
329,192,20067,1,0,0:0:0:30:soft-hitnormal.wav
475,192,20067,1,0,0:0:0:30:soft-hitnormal.wav
36,192,20231,1,0,0:0:0:30:soft-hitnormal.wav
109,192,20231,1,0,0:0:0:30:soft-hitnormal.wav
256,192,20231,1,0,0:0:0:30:soft-hitnormal.wav
402,192,20231,1,0,0:0:0:30:soft-hitnormal.wav
182,192,20396,1,0,0:0:0:30:soft-hitnormal.wav
329,192,20396,1,0,0:0:0:30:soft-hitnormal.wav
36,192,20561,1,0,0:0:0:30:soft-hitnormal.wav
256,192,20561,1,0,0:0:0:30:soft-hitnormal.wav
402,192,20561,1,0,0:0:0:30:soft-hitnormal.wav
475,192,20561,1,0,0:0:0:30:soft-hitnormal.wav
109,192,20726,1,0,0:0:0:30:soft-hitnormal.wav
329,192,20726,1,0,0:0:0:30:soft-hitnormal.wav
182,192,20726,1,0,0:0:0:30:soft-hitnormal.wav
36,192,20891,1,0,0:0:0:30:soft-hitnormal.wav
256,192,20891,1,0,0:0:0:30:soft-hitnormal.wav
475,192,20891,1,0,0:0:0:30:soft-hitnormal.wav
36,192,21220,1,0,0:0:0:30:soft-hitnormal.wav
256,192,21220,1,0,0:0:0:30:soft-hitnormal.wav
475,192,21220,1,0,0:0:0:30:soft-hitnormal.wav
36,192,21385,1,0,0:0:0:30:soft-hitnormal.wav
256,192,21385,1,0,0:0:0:30:soft-hitnormal.wav
475,192,21385,1,0,0:0:0:30:soft-hitnormal.wav
182,192,21468,1,0,0:0:0:30:soft-hitnormal.wav
329,192,21468,1,0,0:0:0:30:soft-hitnormal.wav
36,192,21550,1,0,0:0:0:30:soft-hitnormal.wav
256,192,21550,1,0,0:0:0:30:soft-hitnormal.wav
475,192,21550,1,0,0:0:0:30:soft-hitnormal.wav
109,192,21632,1,0,0:0:0:30:soft-hitnormal.wav
182,192,21715,1,0,0:0:0:30:soft-hitnormal.wav
329,192,21715,1,0,0:0:0:30:soft-hitnormal.wav
256,192,21797,1,0,0:0:0:30:soft-hitnormal.wav
402,192,21797,1,0,0:0:0:30:soft-hitnormal.wav
36,192,21880,1,0,0:0:0:30:soft-hitnormal.wav
475,192,21880,1,0,0:0:0:30:soft-hitnormal.wav
182,192,21880,1,0,0:0:0:30:soft-hitnormal.wav
109,192,22045,1,0,0:0:0:30:soft-hitnormal.wav
256,192,22045,1,0,0:0:0:30:soft-hitnormal.wav
182,192,22209,1,0,0:0:0:30:soft-hitnormal.wav
329,192,22209,1,0,0:0:0:30:soft-hitnormal.wav
402,192,22209,1,0,0:0:0:30:soft-hitnormal.wav
475,192,22209,1,0,0:0:0:30:soft-hitnormal.wav
36,192,22209,128,0,22539:0:0:0:30:soft-hitnormal.wav
109,192,22374,128,0,22539:0:0:0:0:
182,192,22415,128,0,22539:0:0:0:0:
256,192,22457,128,0,22539:0:0:0:0:
329,192,22498,128,0,22539:0:0:0:0:
475,192,22539,1,0,0:0:0:30:soft-hitnormal.wav
402,192,22539,1,0,0:0:0:0:
182,192,22704,1,0,0:0:0:30:soft-hitnormal.wav
402,192,22704,1,0,0:0:0:30:soft-hitnormal.wav
329,192,22869,1,0,0:0:0:30:soft-hitnormal.wav
475,192,22869,1,0,0:0:0:30:soft-hitnormal.wav
36,192,22951,1,0,0:0:0:30:soft-hitnormal.wav
182,192,22951,1,0,0:0:0:30:soft-hitnormal.wav
256,192,23034,1,0,0:0:0:30:soft-hitnormal.wav
402,192,23034,1,0,0:0:0:30:soft-hitnormal.wav
109,192,23034,1,0,0:0:0:30:soft-hitnormal.wav
475,192,23198,1,0,0:0:0:30:soft-hitnormal.wav
109,192,23198,1,0,0:0:0:30:soft-hitnormal.wav
256,192,23198,1,0,0:0:0:30:soft-hitnormal.wav
36,192,23198,1,0,0:0:0:30:soft-hitnormal.wav
402,192,23363,128,0,23528:0:0:0:30:soft-hitnormal.wav
182,192,23528,1,0,0:0:0:30:soft-hitnormal.wav
36,192,23528,1,0,0:0:0:30:soft-hitnormal.wav
182,192,23611,1,0,0:0:0:30:soft-hitnormal.wav
329,192,23693,1,0,0:0:0:30:soft-hitnormal.wav
475,192,23693,1,0,0:0:0:30:soft-hitnormal.wav
329,192,23775,1,0,0:0:0:30:soft-hitnormal.wav
256,192,23858,128,0,24023:0:0:0:30:soft-hitnormal.wav
36,192,23858,128,0,24187:0:0:0:30:soft-hitnormal.wav
182,192,24023,128,0,24187:0:0:0:30:soft-hitnormal.wav
402,192,24023,128,0,24352:0:0:0:30:soft-hitnormal.wav
109,192,24187,128,0,24517:0:0:0:30:soft-hitnormal.wav
329,192,24187,128,0,24352:0:0:0:30:soft-hitnormal.wav
256,192,24352,128,0,24517:0:0:0:30:soft-hitnormal.wav
475,192,24352,128,0,24682:0:0:0:30:soft-hitnormal.wav
402,192,24517,128,0,24682:0:0:0:30:soft-hitnormal.wav
182,192,24517,128,0,24847:0:0:0:30:soft-hitnormal.wav
109,192,24682,128,0,24847:0:0:0:30:soft-hitnormal.wav
329,192,24682,128,0,24847:0:0:0:30:soft-hitnormal.wav
36,192,24847,1,0,0:0:0:30:soft-hitnormal.wav
256,192,24847,1,0,0:0:0:30:soft-hitnormal.wav
475,192,24847,1,0,0:0:0:30:soft-hitnormal.wav
402,192,24847,1,0,0:0:0:30:soft-hitnormal.wav
256,192,25012,1,0,0:0:0:0:
36,192,25176,1,0,0:0:0:30:soft-hitnormal.wav
256,192,25176,1,0,0:0:0:30:soft-hitnormal.wav
475,192,25176,1,0,0:0:0:30:soft-hitnormal.wav
109,192,25176,1,0,0:0:0:30:soft-hitnormal.wav
182,192,25341,1,0,0:0:0:30:soft-hitnormal.wav
329,192,25341,1,0,0:0:0:30:soft-hitnormal.wav
36,192,25506,1,0,0:0:0:30:soft-hitnormal.wav
256,192,25506,1,0,0:0:0:30:soft-hitnormal.wav
475,192,25506,1,0,0:0:0:30:soft-hitnormal.wav
402,192,25506,1,0,0:0:0:30:soft-hitnormal.wav
329,192,25671,1,0,0:0:0:30:soft-hitnormal.wav
182,192,25671,1,0,0:0:0:30:soft-hitnormal.wav
402,192,25753,1,0,0:0:0:0:
36,192,25836,1,0,0:0:0:30:soft-hitnormal.wav
256,192,25836,1,0,0:0:0:30:soft-hitnormal.wav
475,192,25836,1,0,0:0:0:30:soft-hitnormal.wav
109,192,25836,1,0,0:0:0:30:soft-hitnormal.wav
182,192,26001,1,0,0:0:0:30:soft-hitnormal.wav
329,192,26001,1,0,0:0:0:30:soft-hitnormal.wav
36,192,26165,1,0,0:0:0:30:soft-hitnormal.wav
256,192,26165,1,0,0:0:0:30:soft-hitnormal.wav
475,192,26165,1,0,0:0:0:30:soft-hitnormal.wav
402,192,26165,1,0,0:0:0:30:soft-hitnormal.wav
182,192,26330,1,0,0:0:0:30:soft-hitnormal.wav
329,192,26330,1,0,0:0:0:30:soft-hitnormal.wav
402,192,26413,1,0,0:0:0:0:
36,192,26495,1,0,0:0:0:30:soft-hitnormal.wav
109,192,26495,1,0,0:0:0:30:soft-hitnormal.wav
475,192,26495,1,0,0:0:0:30:soft-hitnormal.wav
256,192,26495,1,0,0:0:0:0:
109,192,26660,1,0,0:0:0:30:soft-hitnormal.wav
182,192,26660,1,0,0:0:0:30:soft-hitnormal.wav
329,192,26660,1,0,0:0:0:30:soft-hitnormal.wav
256,192,26825,1,0,0:0:0:30:soft-hitnormal.wav
36,192,26825,1,0,0:0:0:30:soft-hitnormal.wav
402,192,26825,1,0,0:0:0:30:soft-hitnormal.wav
475,192,26825,1,0,0:0:0:30:soft-hitnormal.wav
329,192,26907,1,0,0:0:0:30:soft-hitnormal.wav
182,192,26907,1,0,0:0:0:30:soft-hitnormal.wav
475,192,26990,1,0,0:0:0:30:soft-hitnormal.wav
256,192,26990,1,0,0:0:0:30:soft-hitnormal.wav
109,192,26990,1,0,0:0:0:30:soft-hitnormal.wav
182,192,27072,1,0,0:0:0:30:soft-hitnormal.wav
329,192,27072,1,0,0:0:0:30:soft-hitnormal.wav
36,192,27154,1,0,0:0:0:30:soft-hitnormal.wav
256,192,27154,1,0,0:0:0:30:soft-hitnormal.wav
402,192,27154,1,0,0:0:0:30:soft-hitnormal.wav
475,192,27154,1,0,0:0:0:30:soft-hitnormal.wav
109,192,27154,1,0,0:0:0:30:soft-hitnormal.wav
36,192,27484,1,0,0:0:0:30:soft-hitnormal.wav
109,192,27484,1,0,0:0:0:30:soft-hitnormal.wav
256,192,27484,1,0,0:0:0:30:soft-hitnormal.wav
329,192,27484,1,0,0:0:0:30:soft-hitnormal.wav
475,192,27484,1,0,0:0:0:30:soft-hitnormal.wav
36,192,27649,1,0,0:0:0:30:soft-hitnormal.wav
182,192,27649,1,0,0:0:0:30:soft-hitnormal.wav
256,192,27649,1,0,0:0:0:30:soft-hitnormal.wav
402,192,27649,1,0,0:0:0:30:soft-hitnormal.wav
475,192,27649,1,0,0:0:0:30:soft-hitnormal.wav
36,192,27814,1,0,0:0:0:30:soft-hitnormal.wav
109,192,27814,1,0,0:0:0:30:soft-hitnormal.wav
402,192,27814,1,0,0:0:0:30:soft-hitnormal.wav
475,192,27814,1,0,0:0:0:30:soft-hitnormal.wav
256,192,27814,1,0,0:0:0:30:soft-hitnormal.wav
182,192,27979,1,0,0:0:0:30:soft-hitnormal.wav
329,192,27979,128,0,28143:0:0:0:30:soft-hitnormal.wav
36,192,28143,1,0,0:0:0:30:soft-hitnormal.wav
109,192,28143,1,0,0:0:0:30:soft-hitnormal.wav
256,192,28143,1,0,0:0:0:30:soft-hitnormal.wav
475,192,28143,1,0,0:0:0:30:soft-hitnormal.wav
402,192,28308,1,0,0:0:0:30:soft-hitnormal.wav
182,192,28308,128,0,28473:0:0:0:30:soft-hitnormal.wav
36,192,28473,1,0,0:0:0:30:soft-hitnormal.wav
109,192,28473,1,0,0:0:0:30:soft-hitnormal.wav
329,192,28473,1,0,0:0:0:30:soft-hitnormal.wav
475,192,28473,1,0,0:0:0:30:soft-hitnormal.wav
402,192,28638,1,0,0:0:0:30:soft-hitnormal.wav
256,192,28638,128,0,28803:0:0:0:30:soft-hitnormal.wav
182,192,28803,1,0,0:0:0:30:soft-hitnormal.wav
329,192,28803,1,0,0:0:0:30:soft-hitnormal.wav
36,192,28803,128,0,29132:0:0:0:30:soft-hitnormal.wav
475,192,28803,128,0,29132:0:0:0:30:soft-hitnormal.wav
109,192,28968,1,0,0:0:0:30:soft-hitnormal.wav
256,192,28968,1,0,0:0:0:30:soft-hitnormal.wav
182,192,29132,1,0,0:0:0:30:soft-hitnormal.wav
329,192,29132,1,0,0:0:0:30:soft-hitnormal.wav
402,192,29132,1,0,0:0:0:30:soft-hitnormal.wav
109,192,29297,128,0,29462:0:0:0:30:soft-hitnormal.wav
256,192,29297,1,0,0:0:0:30:soft-hitnormal.wav
182,192,29462,1,0,0:0:0:30:soft-hitnormal.wav
329,192,29462,1,0,0:0:0:30:soft-hitnormal.wav
402,192,29462,1,0,0:0:0:30:soft-hitnormal.wav
475,192,29462,1,0,0:0:0:30:soft-hitnormal.wav
36,192,29627,1,0,0:0:0:30:soft-hitnormal.wav
256,192,29627,128,0,29792:0:0:0:30:soft-hitnormal.wav
109,192,29792,1,0,0:0:0:30:soft-hitnormal.wav
182,192,29792,1,0,0:0:0:30:soft-hitnormal.wav
402,192,29792,1,0,0:0:0:30:soft-hitnormal.wav
475,192,29792,1,0,0:0:0:30:soft-hitnormal.wav
256,192,29957,1,0,0:0:0:30:soft-hitnormal.wav
329,192,29957,128,0,30121:0:0:0:30:soft-hitnormal.wav
36,192,29957,1,0,0:0:0:30:soft-hitnormal.wav
109,192,29957,1,0,0:0:0:30:soft-hitnormal.wav
36,192,30121,1,0,0:0:0:30:soft-hitnormal.wav
109,192,30121,1,0,0:0:0:30:soft-hitnormal.wav
182,192,30121,1,0,0:0:0:30:soft-hitnormal.wav
402,192,30121,128,0,30451:0:0:0:30:soft-hitnormal.wav
475,192,30121,128,0,30451:0:0:0:30:soft-hitnormal.wav
182,192,30286,1,0,0:0:0:30:soft-hitnormal.wav
256,192,30286,128,0,30451:0:0:0:0:
36,192,30451,1,0,0:0:0:30:soft-hitnormal.wav
182,192,30451,1,0,0:0:0:30:soft-hitnormal.wav
329,192,30451,1,0,0:0:0:30:soft-hitnormal.wav
109,192,30616,128,0,30781:0:0:0:30:soft-hitnormal.wav
402,192,30616,128,0,30781:0:0:0:30:soft-hitnormal.wav
182,192,30781,1,0,0:0:0:30:soft-hitnormal.wav
256,192,30781,1,0,0:0:0:30:soft-hitnormal.wav
475,192,30781,1,0,0:0:0:30:soft-hitnormal.wav
36,192,30781,1,0,0:0:0:30:soft-hitnormal.wav
329,192,30946,128,0,31111:0:0:0:30:soft-hitnormal.wav
109,192,30946,1,0,0:0:0:30:soft-hitnormal.wav
182,192,31111,1,0,0:0:0:30:soft-hitnormal.wav
402,192,31111,1,0,0:0:0:30:soft-hitnormal.wav
475,192,31111,1,0,0:0:0:30:soft-hitnormal.wav
36,192,31111,1,0,0:0:0:30:soft-hitnormal.wav
109,192,31275,128,0,31440:0:0:0:30:soft-hitnormal.wav
329,192,31275,1,0,0:0:0:30:soft-hitnormal.wav
256,192,31440,1,0,0:0:0:30:soft-hitnormal.wav
402,192,31440,1,0,0:0:0:30:soft-hitnormal.wav
475,192,31440,1,0,0:0:0:30:soft-hitnormal.wav
36,192,31440,1,0,0:0:0:30:soft-hitnormal.wav
182,192,31605,128,0,31770:0:0:0:30:soft-hitnormal.wav
329,192,31605,1,0,0:0:0:30:soft-hitnormal.wav
36,192,31770,1,0,0:0:0:30:soft-hitnormal.wav
109,192,31770,1,0,0:0:0:30:soft-hitnormal.wav
402,192,31770,1,0,0:0:0:30:soft-hitnormal.wav
475,192,31770,1,0,0:0:0:30:soft-hitnormal.wav
329,192,31935,1,0,0:0:0:30:soft-hitnormal.wav
256,192,31935,128,0,32100:0:0:0:30:soft-hitnormal.wav
402,192,32100,1,0,0:0:0:30:soft-hitnormal.wav
475,192,32100,1,0,0:0:0:30:soft-hitnormal.wav
36,192,32100,1,0,0:0:0:30:soft-hitnormal.wav
182,192,32100,1,0,0:0:0:30:soft-hitnormal.wav
36,192,32264,1,0,0:0:0:30:soft-hitnormal.wav
182,192,32264,1,0,0:0:0:30:soft-hitnormal.wav
402,192,32264,1,0,0:0:0:30:soft-hitnormal.wav
475,192,32264,1,0,0:0:0:30:soft-hitnormal.wav
36,192,32429,1,0,0:0:0:30:soft-hitnormal.wav
402,192,32429,1,0,0:0:0:30:soft-hitnormal.wav
475,192,32429,1,0,0:0:0:30:soft-hitnormal.wav
256,192,32429,1,0,0:0:0:30:soft-hitnormal.wav
182,192,32594,1,0,0:0:0:30:soft-hitnormal.wav
329,192,32594,1,0,0:0:0:30:soft-hitnormal.wav
402,192,32594,1,0,0:0:0:30:soft-hitnormal.wav
475,192,32594,1,0,0:0:0:30:soft-hitnormal.wav
402,192,32759,1,0,0:0:0:30:soft-hitnormal.wav
475,192,32759,1,0,0:0:0:30:soft-hitnormal.wav
256,192,32759,1,0,0:0:0:30:soft-hitnormal.wav
109,192,32759,1,0,0:0:0:30:soft-hitnormal.wav
36,192,32759,1,0,0:0:0:30:soft-hitnormal.wav
182,192,32924,128,0,33089:0:0:0:30:soft-hitnormal.wav
329,192,32924,1,0,0:0:0:30:soft-hitnormal.wav
36,192,33089,1,0,0:0:0:30:soft-hitnormal.wav
109,192,33089,1,0,0:0:0:30:soft-hitnormal.wav
256,192,33089,1,0,0:0:0:30:soft-hitnormal.wav
475,192,33089,1,0,0:0:0:30:soft-hitnormal.wav
329,192,33253,128,0,33418:0:0:0:30:soft-hitnormal.wav
402,192,33253,1,0,0:0:0:30:soft-hitnormal.wav
36,192,33418,1,0,0:0:0:30:soft-hitnormal.wav
475,192,33418,1,0,0:0:0:30:soft-hitnormal.wav
256,192,33418,1,0,0:0:0:30:soft-hitnormal.wav
182,192,33418,1,0,0:0:0:30:soft-hitnormal.wav
109,192,33583,128,0,33748:0:0:0:30:soft-hitnormal.wav
402,192,33583,1,0,0:0:0:30:soft-hitnormal.wav
182,192,33748,1,0,0:0:0:30:soft-hitnormal.wav
329,192,33748,1,0,0:0:0:30:soft-hitnormal.wav
475,192,33748,1,0,0:0:0:30:soft-hitnormal.wav
36,192,33748,1,0,0:0:0:30:soft-hitnormal.wav
402,192,33913,1,0,0:0:0:30:soft-hitnormal.wav
256,192,33913,128,0,34078:0:0:0:30:soft-hitnormal.wav
329,192,34078,1,0,0:0:0:30:soft-hitnormal.wav
475,192,34078,1,0,0:0:0:30:soft-hitnormal.wav
36,192,34078,128,0,34407:0:0:0:30:soft-hitnormal.wav
109,192,34078,128,0,34407:0:0:0:30:soft-hitnormal.wav
182,192,34242,1,0,0:0:0:0:
329,192,34242,1,0,0:0:0:0:
256,192,34407,1,0,0:0:0:30:soft-hitnormal.wav
402,192,34407,1,0,0:0:0:30:soft-hitnormal.wav
475,192,34407,1,0,0:0:0:30:soft-hitnormal.wav
402,192,34572,1,0,0:0:0:30:soft-hitnormal.wav
475,192,34572,1,0,0:0:0:30:soft-hitnormal.wav
256,192,34572,1,0,0:0:0:30:soft-hitnormal.wav
402,192,34737,1,0,0:0:0:30:soft-hitnormal.wav
475,192,34737,1,0,0:0:0:30:soft-hitnormal.wav
36,192,34737,128,0,35067:0:0:0:30:soft-hitnormal.wav
109,192,34737,128,0,35067:0:0:0:30:soft-hitnormal.wav
256,192,34737,1,0,0:0:0:30:soft-hitnormal.wav
329,192,34902,1,0,0:0:0:0:
402,192,34902,1,0,0:0:0:0:
182,192,35067,1,0,0:0:0:30:soft-hitnormal.wav
256,192,35067,1,0,0:0:0:30:soft-hitnormal.wav
475,192,35067,1,0,0:0:0:30:soft-hitnormal.wav
109,192,35231,1,0,0:0:0:30:soft-hitnormal.wav
402,192,35231,1,0,0:0:0:30:soft-hitnormal.wav
182,192,35231,1,0,0:0:0:30:soft-hitnormal.wav
256,192,35396,1,0,0:0:0:30:soft-hitnormal.wav
36,192,35396,1,0,0:0:0:30:soft-hitnormal.wav
329,192,35396,128,0,35726:0:0:0:30:soft-hitnormal.wav
475,192,35396,128,0,35726:0:0:0:30:soft-hitnormal.wav
182,192,35561,5,0,0:0:0:30:soft-hitnormal.wav
109,192,35561,1,0,0:0:0:0:
36,192,35726,1,0,0:0:0:30:soft-hitnormal.wav
402,192,35726,1,0,0:0:0:30:soft-hitnormal.wav
182,192,35726,1,0,0:0:0:0:
256,192,35891,128,0,36056:0:0:0:30:soft-hitnormal.wav
329,192,35891,1,0,0:0:0:30:soft-hitnormal.wav
402,192,36056,1,0,0:0:0:30:soft-hitnormal.wav
475,192,36056,1,0,0:0:0:30:soft-hitnormal.wav
36,192,36056,1,0,0:0:0:30:soft-hitnormal.wav
109,192,36056,1,0,0:0:0:30:soft-hitnormal.wav
329,192,36220,128,0,36385:0:0:0:30:soft-hitnormal.wav
182,192,36220,1,0,0:0:0:30:soft-hitnormal.wav
256,192,36385,1,0,0:0:0:30:soft-hitnormal.wav
402,192,36385,1,0,0:0:0:30:soft-hitnormal.wav
475,192,36385,1,0,0:0:0:30:soft-hitnormal.wav
36,192,36385,1,0,0:0:0:30:soft-hitnormal.wav
182,192,36550,1,0,0:0:0:30:soft-hitnormal.wav
329,192,36550,1,0,0:0:0:30:soft-hitnormal.wav
402,192,36715,1,0,0:0:0:0:
475,192,36715,1,0,0:0:0:0:
109,192,36797,1,0,0:0:0:0:
182,192,36797,1,0,0:0:0:0:
402,192,36880,1,0,0:0:0:0:
475,192,36880,1,0,0:0:0:0:
109,192,36962,1,0,0:0:0:0:
182,192,36962,1,0,0:0:0:0:
329,192,37045,1,0,0:0:0:0:
475,192,37045,1,0,0:0:0:0:
36,192,37127,1,0,0:0:0:0:
182,192,37127,1,0,0:0:0:0:
329,192,37209,1,0,0:0:0:0:
475,192,37209,1,0,0:0:0:0:
36,192,37292,1,0,0:0:0:0:
182,192,37292,1,0,0:0:0:0:
329,192,37374,1,0,0:0:0:0:
402,192,37374,1,0,0:0:0:0:
36,192,37457,1,0,0:0:0:0:
109,192,37457,1,0,0:0:0:0:
329,192,37539,1,0,0:0:0:0:
402,192,37539,1,0,0:0:0:0:
36,192,37621,1,0,0:0:0:0:
109,192,37621,1,0,0:0:0:0:
182,192,37704,1,0,0:0:0:0:
256,192,37704,1,0,0:0:0:0:
329,192,37704,1,0,0:0:0:0:
402,192,37704,1,0,0:0:0:0:
475,192,37704,1,0,0:0:0:0:
475,192,38034,5,0,0:0:0:30:soft-hitnormal.wav
256,192,38034,1,0,0:0:0:30:soft-hitnormal.wav
109,192,38034,1,0,0:0:0:30:soft-hitnormal.wav
36,192,38034,128,0,39352:0:0:0:30:soft-hitnormal.wav
329,192,38116,1,0,0:0:0:30:soft-hitnormal.wav
402,192,38198,1,0,0:0:0:30:soft-hitnormal.wav
182,192,38198,1,0,0:0:0:30:soft-hitnormal.wav
256,192,38281,1,0,0:0:0:30:soft-hitnormal.wav
329,192,38363,1,0,0:0:0:30:soft-hitnormal.wav
475,192,38363,1,0,0:0:0:30:soft-hitnormal.wav
109,192,38363,1,0,0:0:0:30:soft-hitnormal.wav
182,192,38446,1,0,0:0:0:30:soft-hitnormal.wav
256,192,38528,1,0,0:0:0:30:soft-hitnormal.wav
402,192,38528,1,0,0:0:0:30:soft-hitnormal.wav
182,192,38611,1,0,0:0:0:30:soft-hitnormal.wav
109,192,38693,1,0,0:0:0:30:soft-hitnormal.wav
329,192,38693,1,0,0:0:0:30:soft-hitnormal.wav
402,192,38693,1,0,0:0:0:30:soft-hitnormal.wav
256,192,38775,1,0,0:0:0:30:soft-hitnormal.wav
182,192,38858,1,0,0:0:0:30:soft-hitnormal.wav
475,192,38858,1,0,0:0:0:30:soft-hitnormal.wav
402,192,38940,1,0,0:0:0:30:soft-hitnormal.wav
329,192,39023,1,0,0:0:0:30:soft-hitnormal.wav
256,192,39023,1,0,0:0:0:30:soft-hitnormal.wav
109,192,39023,1,0,0:0:0:30:soft-hitnormal.wav
402,192,39105,1,0,0:0:0:30:soft-hitnormal.wav
475,192,39187,1,0,0:0:0:30:soft-hitnormal.wav
182,192,39187,1,0,0:0:0:30:soft-hitnormal.wav
256,192,39270,1,0,0:0:0:30:soft-hitnormal.wav
402,192,39352,128,0,40671:0:0:0:30:soft-hitnormal.wav
329,192,39352,1,0,0:0:0:30:soft-hitnormal.wav
475,192,39352,1,0,0:0:0:30:soft-hitnormal.wav
109,192,39352,1,0,0:0:0:30:soft-hitnormal.wav
182,192,39435,1,0,0:0:0:30:soft-hitnormal.wav
256,192,39517,1,0,0:0:0:30:soft-hitnormal.wav
36,192,39517,1,0,0:0:0:30:soft-hitnormal.wav
109,192,39600,1,0,0:0:0:30:soft-hitnormal.wav
329,192,39600,1,0,0:0:0:30:soft-hitnormal.wav
36,192,39682,1,0,0:0:0:30:soft-hitnormal.wav
182,192,39682,1,0,0:0:0:30:soft-hitnormal.wav
475,192,39682,1,0,0:0:0:30:soft-hitnormal.wav
256,192,39764,1,0,0:0:0:30:soft-hitnormal.wav
109,192,39847,1,0,0:0:0:30:soft-hitnormal.wav
329,192,39847,1,0,0:0:0:30:soft-hitnormal.wav
182,192,39929,1,0,0:0:0:30:soft-hitnormal.wav
256,192,40012,1,0,0:0:0:30:soft-hitnormal.wav
475,192,40012,1,0,0:0:0:30:soft-hitnormal.wav
36,192,40012,1,0,0:0:0:30:soft-hitnormal.wav
182,192,40094,1,0,0:0:0:30:soft-hitnormal.wav
475,192,40176,1,0,0:0:0:30:soft-hitnormal.wav
109,192,40176,1,0,0:0:0:30:soft-hitnormal.wav
329,192,40259,1,0,0:0:0:30:soft-hitnormal.wav
256,192,40341,1,0,0:0:0:30:soft-hitnormal.wav
182,192,40341,1,0,0:0:0:30:soft-hitnormal.wav
36,192,40341,1,0,0:0:0:30:soft-hitnormal.wav
109,192,40424,1,0,0:0:0:30:soft-hitnormal.wav
256,192,40506,1,0,0:0:0:30:soft-hitnormal.wav
329,192,40506,1,0,0:0:0:30:soft-hitnormal.wav
182,192,40589,1,0,0:0:0:30:soft-hitnormal.wav
109,192,40671,128,0,41990:0:0:0:30:soft-hitnormal.wav
36,192,40671,1,0,0:0:0:30:soft-hitnormal.wav
329,192,40671,1,0,0:0:0:30:soft-hitnormal.wav
475,192,40671,1,0,0:0:0:30:soft-hitnormal.wav
256,192,40753,1,0,0:0:0:30:soft-hitnormal.wav
182,192,40836,1,0,0:0:0:30:soft-hitnormal.wav
402,192,40836,1,0,0:0:0:30:soft-hitnormal.wav
329,192,40918,1,0,0:0:0:30:soft-hitnormal.wav
256,192,41001,1,0,0:0:0:30:soft-hitnormal.wav
475,192,41001,1,0,0:0:0:30:soft-hitnormal.wav
36,192,41001,1,0,0:0:0:30:soft-hitnormal.wav
182,192,41083,1,0,0:0:0:30:soft-hitnormal.wav
329,192,41165,1,0,0:0:0:30:soft-hitnormal.wav
402,192,41165,1,0,0:0:0:30:soft-hitnormal.wav
256,192,41248,1,0,0:0:0:30:soft-hitnormal.wav
36,192,41330,1,0,0:0:0:30:soft-hitnormal.wav
475,192,41330,1,0,0:0:0:30:soft-hitnormal.wav
402,192,41330,1,0,0:0:0:30:soft-hitnormal.wav
182,192,41413,1,0,0:0:0:30:soft-hitnormal.wav
256,192,41495,1,0,0:0:0:30:soft-hitnormal.wav
402,192,41495,1,0,0:0:0:30:soft-hitnormal.wav
329,192,41578,1,0,0:0:0:30:soft-hitnormal.wav
36,192,41660,1,0,0:0:0:30:soft-hitnormal.wav
475,192,41660,1,0,0:0:0:30:soft-hitnormal.wav
182,192,41660,1,0,0:0:0:30:soft-hitnormal.wav
256,192,41742,1,0,0:0:0:30:soft-hitnormal.wav
402,192,41825,1,0,0:0:0:30:soft-hitnormal.wav
329,192,41825,1,0,0:0:0:30:soft-hitnormal.wav
182,192,41907,1,0,0:0:0:30:soft-hitnormal.wav
402,192,41990,128,0,43308:0:0:0:30:soft-hitnormal.wav
475,192,41990,1,0,0:0:0:30:soft-hitnormal.wav
329,192,41990,1,0,0:0:0:30:soft-hitnormal.wav
36,192,41990,1,0,0:0:0:30:soft-hitnormal.wav
256,192,42072,1,0,0:0:0:30:soft-hitnormal.wav
182,192,42154,1,0,0:0:0:30:soft-hitnormal.wav
109,192,42154,1,0,0:0:0:30:soft-hitnormal.wav
329,192,42237,1,0,0:0:0:30:soft-hitnormal.wav
256,192,42319,1,0,0:0:0:30:soft-hitnormal.wav
36,192,42319,1,0,0:0:0:30:soft-hitnormal.wav
475,192,42319,1,0,0:0:0:30:soft-hitnormal.wav
109,192,42402,1,0,0:0:0:30:soft-hitnormal.wav
182,192,42484,1,0,0:0:0:30:soft-hitnormal.wav
329,192,42484,1,0,0:0:0:30:soft-hitnormal.wav
475,192,42567,1,0,0:0:0:30:soft-hitnormal.wav
36,192,42649,1,0,0:0:0:30:soft-hitnormal.wav
109,192,42649,1,0,0:0:0:30:soft-hitnormal.wav
256,192,42649,1,0,0:0:0:30:soft-hitnormal.wav
329,192,42731,1,0,0:0:0:30:soft-hitnormal.wav
182,192,42814,1,0,0:0:0:30:soft-hitnormal.wav
475,192,42814,1,0,0:0:0:30:soft-hitnormal.wav
256,192,42896,1,0,0:0:0:30:soft-hitnormal.wav
329,192,42979,1,0,0:0:0:30:soft-hitnormal.wav
109,192,42979,1,0,0:0:0:30:soft-hitnormal.wav
36,192,42979,1,0,0:0:0:30:soft-hitnormal.wav
182,192,43061,1,0,0:0:0:30:soft-hitnormal.wav
256,192,43143,1,0,0:0:0:30:soft-hitnormal.wav
475,192,43143,1,0,0:0:0:30:soft-hitnormal.wav
182,192,43226,1,0,0:0:0:30:soft-hitnormal.wav
329,192,43308,1,0,0:0:0:30:soft-hitnormal.wav
36,192,43308,128,0,44627:0:0:0:30:soft-hitnormal.wav
109,192,43308,1,0,0:0:0:30:soft-hitnormal.wav
475,192,43308,1,0,0:0:0:30:soft-hitnormal.wav
256,192,43391,1,0,0:0:0:30:soft-hitnormal.wav
182,192,43473,1,0,0:0:0:30:soft-hitnormal.wav
402,192,43473,1,0,0:0:0:30:soft-hitnormal.wav
329,192,43556,1,0,0:0:0:30:soft-hitnormal.wav
256,192,43638,1,0,0:0:0:30:soft-hitnormal.wav
475,192,43638,1,0,0:0:0:30:soft-hitnormal.wav
109,192,43638,1,0,0:0:0:30:soft-hitnormal.wav
402,192,43720,1,0,0:0:0:30:soft-hitnormal.wav
329,192,43803,1,0,0:0:0:30:soft-hitnormal.wav
182,192,43803,1,0,0:0:0:30:soft-hitnormal.wav
402,192,43885,1,0,0:0:0:30:soft-hitnormal.wav
475,192,43968,1,0,0:0:0:30:soft-hitnormal.wav
256,192,43968,1,0,0:0:0:30:soft-hitnormal.wav
109,192,43968,1,0,0:0:0:30:soft-hitnormal.wav
329,192,44050,1,0,0:0:0:30:soft-hitnormal.wav
182,192,44132,1,0,0:0:0:30:soft-hitnormal.wav
402,192,44132,1,0,0:0:0:30:soft-hitnormal.wav
256,192,44215,1,0,0:0:0:30:soft-hitnormal.wav
329,192,44297,1,0,0:0:0:30:soft-hitnormal.wav
475,192,44297,1,0,0:0:0:30:soft-hitnormal.wav
109,192,44297,1,0,0:0:0:30:soft-hitnormal.wav
182,192,44380,1,0,0:0:0:30:soft-hitnormal.wav
256,192,44462,1,0,0:0:0:30:soft-hitnormal.wav
402,192,44462,1,0,0:0:0:30:soft-hitnormal.wav
475,192,44545,1,0,0:0:0:30:soft-hitnormal.wav
329,192,44627,1,0,0:0:0:30:soft-hitnormal.wav
182,192,44627,1,0,0:0:0:30:soft-hitnormal.wav
109,192,44627,1,0,0:0:0:30:soft-hitnormal.wav
402,192,44627,128,0,45946:0:0:0:30:soft-hitnormal.wav
256,192,44709,1,0,0:0:0:30:soft-hitnormal.wav
109,192,44792,1,0,0:0:0:30:soft-hitnormal.wav
475,192,44792,1,0,0:0:0:30:soft-hitnormal.wav
329,192,44874,1,0,0:0:0:30:soft-hitnormal.wav
182,192,44957,1,0,0:0:0:30:soft-hitnormal.wav
36,192,44957,1,0,0:0:0:30:soft-hitnormal.wav
256,192,44957,1,0,0:0:0:30:soft-hitnormal.wav
475,192,45039,1,0,0:0:0:30:soft-hitnormal.wav
182,192,45121,1,0,0:0:0:30:soft-hitnormal.wav
329,192,45121,1,0,0:0:0:30:soft-hitnormal.wav
109,192,45204,1,0,0:0:0:30:soft-hitnormal.wav
36,192,45286,1,0,0:0:0:30:soft-hitnormal.wav
329,192,45286,1,0,0:0:0:30:soft-hitnormal.wav
475,192,45286,1,0,0:0:0:30:soft-hitnormal.wav
256,192,45369,1,0,0:0:0:30:soft-hitnormal.wav
182,192,45451,1,0,0:0:0:30:soft-hitnormal.wav
109,192,45451,1,0,0:0:0:30:soft-hitnormal.wav
329,192,45534,1,0,0:0:0:30:soft-hitnormal.wav
256,192,45616,1,0,0:0:0:30:soft-hitnormal.wav
475,192,45616,1,0,0:0:0:30:soft-hitnormal.wav
36,192,45616,1,0,0:0:0:30:soft-hitnormal.wav
182,192,45698,1,0,0:0:0:30:soft-hitnormal.wav
109,192,45781,1,0,0:0:0:30:soft-hitnormal.wav
329,192,45781,1,0,0:0:0:30:soft-hitnormal.wav
256,192,45863,1,0,0:0:0:30:soft-hitnormal.wav
329,192,45946,1,0,0:0:0:30:soft-hitnormal.wav
475,192,45946,1,0,0:0:0:30:soft-hitnormal.wav
109,192,45946,1,0,0:0:0:30:soft-hitnormal.wav
36,192,45946,1,0,0:0:0:30:soft-hitnormal.wav
182,192,46028,1,0,0:0:0:30:soft-hitnormal.wav
256,192,46111,1,0,0:0:0:30:soft-hitnormal.wav
402,192,46111,1,0,0:0:0:30:soft-hitnormal.wav
109,192,46193,1,0,0:0:0:30:soft-hitnormal.wav
36,192,46275,1,0,0:0:0:30:soft-hitnormal.wav
182,192,46275,1,0,0:0:0:30:soft-hitnormal.wav
329,192,46275,1,0,0:0:0:30:soft-hitnormal.wav
475,192,46275,1,0,0:0:0:30:soft-hitnormal.wav
256,192,46358,1,0,0:0:0:30:soft-hitnormal.wav
109,192,46440,1,0,0:0:0:30:soft-hitnormal.wav
475,192,46440,1,0,0:0:0:30:soft-hitnormal.wav
329,192,46523,1,0,0:0:0:30:soft-hitnormal.wav
36,192,46605,1,0,0:0:0:30:soft-hitnormal.wav
109,192,46605,1,0,0:0:0:30:soft-hitnormal.wav
256,192,46605,1,0,0:0:0:30:soft-hitnormal.wav
402,192,46605,1,0,0:0:0:30:soft-hitnormal.wav
182,192,46687,1,0,0:0:0:30:soft-hitnormal.wav
329,192,46770,1,0,0:0:0:30:soft-hitnormal.wav
475,192,46770,1,0,0:0:0:30:soft-hitnormal.wav
256,192,46852,1,0,0:0:0:30:soft-hitnormal.wav
182,192,46935,1,0,0:0:0:30:soft-hitnormal.wav
109,192,46935,1,0,0:0:0:30:soft-hitnormal.wav
36,192,46935,1,0,0:0:0:30:soft-hitnormal.wav
402,192,46935,1,0,0:0:0:30:soft-hitnormal.wav
329,192,47017,1,0,0:0:0:30:soft-hitnormal.wav
256,192,47100,1,0,0:0:0:30:soft-hitnormal.wav
182,192,47100,1,0,0:0:0:0:
402,192,47182,1,0,0:0:0:0:
329,192,47264,1,0,0:0:0:30:soft-hitnormal.wav
475,192,47264,1,0,0:0:0:30:soft-hitnormal.wav
36,192,47264,1,0,0:0:0:30:soft-hitnormal.wav
109,192,47264,1,0,0:0:0:0:
256,192,47264,1,0,0:0:0:0:
36,192,47512,1,0,0:0:0:30:soft-hitnormal.wav
109,192,47512,1,0,0:0:0:30:soft-hitnormal.wav
256,192,47512,1,0,0:0:0:30:soft-hitnormal.wav
329,192,47512,1,0,0:0:0:30:soft-hitnormal.wav
475,192,47512,1,0,0:0:0:30:soft-hitnormal.wav
36,192,47759,1,0,0:0:0:30:soft-hitnormal.wav
182,192,47759,1,0,0:0:0:30:soft-hitnormal.wav
256,192,47759,1,0,0:0:0:30:soft-hitnormal.wav
402,192,47759,1,0,0:0:0:30:soft-hitnormal.wav
475,192,47759,1,0,0:0:0:30:soft-hitnormal.wav
36,192,48006,1,0,0:0:0:30:soft-hitnormal.wav
109,192,48006,1,0,0:0:0:30:soft-hitnormal.wav
256,192,48006,1,0,0:0:0:30:soft-hitnormal.wav
402,192,48006,1,0,0:0:0:30:soft-hitnormal.wav
475,192,48006,1,0,0:0:0:30:soft-hitnormal.wav
36,192,48253,1,0,0:0:0:30:soft-hitnormal.wav
109,192,48253,1,0,0:0:0:30:soft-hitnormal.wav
182,192,48253,1,0,0:0:0:30:soft-hitnormal.wav
329,192,48253,1,0,0:0:0:30:soft-hitnormal.wav
402,192,48253,1,0,0:0:0:30:soft-hitnormal.wav
475,192,48253,1,0,0:0:0:30:soft-hitnormal.wav
256,192,48418,1,0,0:0:0:30:soft-hitnormal.wav
182,192,48418,1,0,0:0:0:0:
109,192,48748,1,0,0:0:0:30:soft-hitnormal.wav
402,192,48748,1,0,0:0:0:30:soft-hitnormal.wav
182,192,48748,1,0,0:0:0:0:
256,192,48913,128,0,49902:0:0:0:30:soft-hitnormal.wav
36,192,48913,1,0,0:0:0:30:soft-hitnormal.wav
329,192,48913,1,0,0:0:0:30:soft-hitnormal.wav
475,192,48913,1,0,0:0:0:30:soft-hitnormal.wav
109,192,48995,1,0,0:0:0:30:soft-hitnormal.wav
182,192,49078,1,0,0:0:0:30:soft-hitnormal.wav
402,192,49078,1,0,0:0:0:30:soft-hitnormal.wav
109,192,49160,1,0,0:0:0:30:soft-hitnormal.wav
36,192,49242,1,0,0:0:0:30:soft-hitnormal.wav
329,192,49242,1,0,0:0:0:30:soft-hitnormal.wav
475,192,49242,1,0,0:0:0:30:soft-hitnormal.wav
182,192,49325,1,0,0:0:0:30:soft-hitnormal.wav
402,192,49407,1,0,0:0:0:30:soft-hitnormal.wav
109,192,49407,1,0,0:0:0:30:soft-hitnormal.wav
329,192,49490,1,0,0:0:0:30:soft-hitnormal.wav
475,192,49572,1,0,0:0:0:30:soft-hitnormal.wav
36,192,49572,1,0,0:0:0:30:soft-hitnormal.wav
182,192,49572,1,0,0:0:0:30:soft-hitnormal.wav
109,192,49654,1,0,0:0:0:30:soft-hitnormal.wav
329,192,49737,1,0,0:0:0:30:soft-hitnormal.wav
402,192,49737,1,0,0:0:0:30:soft-hitnormal.wav
182,192,49819,1,0,0:0:0:30:soft-hitnormal.wav
109,192,49902,1,0,0:0:0:30:soft-hitnormal.wav
36,192,49902,1,0,0:0:0:30:soft-hitnormal.wav
475,192,49902,128,0,51220:0:0:0:30:soft-hitnormal.wav
402,192,49902,1,0,0:0:0:30:soft-hitnormal.wav
329,192,49984,1,0,0:0:0:30:soft-hitnormal.wav
256,192,50067,1,0,0:0:0:30:soft-hitnormal.wav
182,192,50067,1,0,0:0:0:30:soft-hitnormal.wav
109,192,50149,1,0,0:0:0:30:soft-hitnormal.wav
36,192,50231,1,0,0:0:0:30:soft-hitnormal.wav
329,192,50231,1,0,0:0:0:30:soft-hitnormal.wav
402,192,50231,1,0,0:0:0:30:soft-hitnormal.wav
256,192,50314,1,0,0:0:0:30:soft-hitnormal.wav
109,192,50396,1,0,0:0:0:30:soft-hitnormal.wav
182,192,50396,1,0,0:0:0:30:soft-hitnormal.wav
329,192,50479,1,0,0:0:0:30:soft-hitnormal.wav
36,192,50561,1,0,0:0:0:30:soft-hitnormal.wav
402,192,50561,1,0,0:0:0:30:soft-hitnormal.wav
182,192,50561,1,0,0:0:0:30:soft-hitnormal.wav
256,192,50643,1,0,0:0:0:30:soft-hitnormal.wav
329,192,50726,1,0,0:0:0:30:soft-hitnormal.wav
109,192,50726,1,0,0:0:0:30:soft-hitnormal.wav
182,192,50808,1,0,0:0:0:30:soft-hitnormal.wav
256,192,50891,1,0,0:0:0:30:soft-hitnormal.wav
402,192,50891,1,0,0:0:0:30:soft-hitnormal.wav
36,192,50891,1,0,0:0:0:30:soft-hitnormal.wav
109,192,50973,1,0,0:0:0:30:soft-hitnormal.wav
182,192,51056,1,0,0:0:0:30:soft-hitnormal.wav
256,192,51056,1,0,0:0:0:30:soft-hitnormal.wav
329,192,51138,1,0,0:0:0:30:soft-hitnormal.wav
36,192,51220,1,0,0:0:0:30:soft-hitnormal.wav
109,192,51220,1,0,0:0:0:30:soft-hitnormal.wav
402,192,51220,1,0,0:0:0:30:soft-hitnormal.wav
182,192,51220,128,0,52539:0:0:0:30:soft-hitnormal.wav
256,192,51303,1,0,0:0:0:30:soft-hitnormal.wav
329,192,51385,1,0,0:0:0:30:soft-hitnormal.wav
475,192,51385,1,0,0:0:0:30:soft-hitnormal.wav
109,192,51468,1,0,0:0:0:30:soft-hitnormal.wav
256,192,51550,1,0,0:0:0:30:soft-hitnormal.wav
402,192,51550,1,0,0:0:0:30:soft-hitnormal.wav
36,192,51550,1,0,0:0:0:30:soft-hitnormal.wav
475,192,51632,1,0,0:0:0:30:soft-hitnormal.wav
329,192,51715,1,0,0:0:0:30:soft-hitnormal.wav
109,192,51715,1,0,0:0:0:30:soft-hitnormal.wav
402,192,51797,1,0,0:0:0:30:soft-hitnormal.wav
475,192,51880,1,0,0:0:0:30:soft-hitnormal.wav
256,192,51880,1,0,0:0:0:30:soft-hitnormal.wav
36,192,51880,1,0,0:0:0:30:soft-hitnormal.wav
329,192,51962,1,0,0:0:0:30:soft-hitnormal.wav
402,192,52045,1,0,0:0:0:30:soft-hitnormal.wav
109,192,52045,1,0,0:0:0:30:soft-hitnormal.wav
256,192,52127,1,0,0:0:0:30:soft-hitnormal.wav
475,192,52209,1,0,0:0:0:30:soft-hitnormal.wav
36,192,52209,1,0,0:0:0:30:soft-hitnormal.wav
402,192,52209,1,0,0:0:0:30:soft-hitnormal.wav
329,192,52292,1,0,0:0:0:30:soft-hitnormal.wav
256,192,52374,1,0,0:0:0:30:soft-hitnormal.wav
109,192,52374,1,0,0:0:0:30:soft-hitnormal.wav
402,192,52457,1,0,0:0:0:30:soft-hitnormal.wav
475,192,52539,1,0,0:0:0:30:soft-hitnormal.wav
329,192,52539,1,0,0:0:0:30:soft-hitnormal.wav
36,192,52539,1,0,0:0:0:30:soft-hitnormal.wav
109,192,52539,128,0,53858:0:0:0:30:soft-hitnormal.wav
256,192,52621,1,0,0:0:0:30:soft-hitnormal.wav
182,192,52704,1,0,0:0:0:30:soft-hitnormal.wav
402,192,52704,1,0,0:0:0:30:soft-hitnormal.wav
329,192,52786,1,0,0:0:0:30:soft-hitnormal.wav
256,192,52869,1,0,0:0:0:30:soft-hitnormal.wav
36,192,52869,1,0,0:0:0:30:soft-hitnormal.wav
475,192,52869,1,0,0:0:0:30:soft-hitnormal.wav
329,192,52951,1,0,0:0:0:30:soft-hitnormal.wav
402,192,53034,1,0,0:0:0:30:soft-hitnormal.wav
182,192,53034,1,0,0:0:0:30:soft-hitnormal.wav
256,192,53116,1,0,0:0:0:30:soft-hitnormal.wav
329,192,53198,1,0,0:0:0:30:soft-hitnormal.wav
475,192,53198,1,0,0:0:0:30:soft-hitnormal.wav
36,192,53198,1,0,0:0:0:30:soft-hitnormal.wav
182,192,53281,1,0,0:0:0:30:soft-hitnormal.wav
256,192,53363,1,0,0:0:0:30:soft-hitnormal.wav
402,192,53363,1,0,0:0:0:30:soft-hitnormal.wav
475,192,53446,1,0,0:0:0:30:soft-hitnormal.wav
329,192,53528,1,0,0:0:0:30:soft-hitnormal.wav
182,192,53528,1,0,0:0:0:30:soft-hitnormal.wav
36,192,53528,1,0,0:0:0:30:soft-hitnormal.wav
475,192,53693,1,0,0:0:0:30:soft-hitnormal.wav
256,192,53693,1,0,0:0:0:30:soft-hitnormal.wav
402,192,53693,1,0,0:0:0:30:soft-hitnormal.wav
36,192,53858,1,0,0:0:0:30:soft-hitnormal.wav
402,192,53858,128,0,55176:0:0:0:30:soft-hitnormal.wav
182,192,53858,1,0,0:0:0:30:soft-hitnormal.wav
475,192,53858,1,0,0:0:0:30:soft-hitnormal.wav
329,192,53940,1,0,0:0:0:30:soft-hitnormal.wav
256,192,54023,1,0,0:0:0:30:soft-hitnormal.wav
109,192,54023,1,0,0:0:0:30:soft-hitnormal.wav
36,192,54105,1,0,0:0:0:30:soft-hitnormal.wav
182,192,54187,1,0,0:0:0:30:soft-hitnormal.wav
329,192,54187,1,0,0:0:0:30:soft-hitnormal.wav
475,192,54187,1,0,0:0:0:30:soft-hitnormal.wav
109,192,54270,1,0,0:0:0:30:soft-hitnormal.wav
256,192,54352,1,0,0:0:0:30:soft-hitnormal.wav
36,192,54352,1,0,0:0:0:30:soft-hitnormal.wav
329,192,54435,1,0,0:0:0:30:soft-hitnormal.wav
475,192,54517,1,0,0:0:0:30:soft-hitnormal.wav
182,192,54517,1,0,0:0:0:30:soft-hitnormal.wav
109,192,54517,1,0,0:0:0:30:soft-hitnormal.wav
256,192,54600,1,0,0:0:0:30:soft-hitnormal.wav
329,192,54682,1,0,0:0:0:30:soft-hitnormal.wav
36,192,54682,1,0,0:0:0:30:soft-hitnormal.wav
109,192,54764,1,0,0:0:0:30:soft-hitnormal.wav
182,192,54847,1,0,0:0:0:30:soft-hitnormal.wav
256,192,54847,1,0,0:0:0:30:soft-hitnormal.wav
475,192,54847,1,0,0:0:0:30:soft-hitnormal.wav
109,192,54929,1,0,0:0:0:30:soft-hitnormal.wav
36,192,55012,1,0,0:0:0:30:soft-hitnormal.wav
329,192,55012,1,0,0:0:0:30:soft-hitnormal.wav
256,192,55094,1,0,0:0:0:30:soft-hitnormal.wav
182,192,55176,1,0,0:0:0:30:soft-hitnormal.wav
475,192,55176,1,0,0:0:0:30:soft-hitnormal.wav
109,192,55176,128,0,56495:0:0:0:30:soft-hitnormal.wav
329,192,55176,1,0,0:0:0:30:soft-hitnormal.wav
36,192,55259,1,0,0:0:0:30:soft-hitnormal.wav
256,192,55341,1,0,0:0:0:30:soft-hitnormal.wav
402,192,55341,1,0,0:0:0:30:soft-hitnormal.wav
182,192,55424,1,0,0:0:0:30:soft-hitnormal.wav
36,192,55506,1,0,0:0:0:30:soft-hitnormal.wav
329,192,55506,1,0,0:0:0:30:soft-hitnormal.wav
475,192,55506,1,0,0:0:0:30:soft-hitnormal.wav
256,192,55589,1,0,0:0:0:30:soft-hitnormal.wav
182,192,55671,1,0,0:0:0:30:soft-hitnormal.wav
402,192,55671,1,0,0:0:0:30:soft-hitnormal.wav
329,192,55753,1,0,0:0:0:30:soft-hitnormal.wav
256,192,55836,1,0,0:0:0:30:soft-hitnormal.wav
36,192,55836,1,0,0:0:0:30:soft-hitnormal.wav
475,192,55836,1,0,0:0:0:30:soft-hitnormal.wav
182,192,56001,1,0,0:0:0:30:soft-hitnormal.wav
329,192,56001,1,0,0:0:0:30:soft-hitnormal.wav
402,192,56001,1,0,0:0:0:30:soft-hitnormal.wav
36,192,56165,1,0,0:0:0:30:soft-hitnormal.wav
256,192,56165,1,0,0:0:0:30:soft-hitnormal.wav
475,192,56165,1,0,0:0:0:30:soft-hitnormal.wav
329,192,56330,1,0,0:0:0:30:soft-hitnormal.wav
402,192,56330,1,0,0:0:0:30:soft-hitnormal.wav
182,192,56330,1,0,0:0:0:30:soft-hitnormal.wav
256,192,56413,1,0,0:0:0:30:soft-hitnormal.wav
36,192,56495,1,0,0:0:0:30:soft-hitnormal.wav
475,192,56495,1,0,0:0:0:30:soft-hitnormal.wav
402,192,56495,1,0,0:0:0:30:soft-hitnormal.wav
329,192,56578,1,0,0:0:0:30:soft-hitnormal.wav
256,192,56660,1,0,0:0:0:30:soft-hitnormal.wav
109,192,56660,1,0,0:0:0:30:soft-hitnormal.wav
36,192,56660,1,0,0:0:0:30:soft-hitnormal.wav
329,192,56742,1,0,0:0:0:30:soft-hitnormal.wav
182,192,56825,1,0,0:0:0:30:soft-hitnormal.wav
402,192,56825,1,0,0:0:0:30:soft-hitnormal.wav
475,192,56825,1,0,0:0:0:30:soft-hitnormal.wav
109,192,56825,1,0,0:0:0:30:soft-hitnormal.wav
256,192,56907,1,0,0:0:0:30:soft-hitnormal.wav
329,192,56990,1,0,0:0:0:30:soft-hitnormal.wav
36,192,56990,1,0,0:0:0:30:soft-hitnormal.wav
109,192,56990,1,0,0:0:0:30:soft-hitnormal.wav
182,192,57072,1,0,0:0:0:30:soft-hitnormal.wav
256,192,57154,1,0,0:0:0:30:soft-hitnormal.wav
36,192,57154,1,0,0:0:0:30:soft-hitnormal.wav
475,192,57154,1,0,0:0:0:30:soft-hitnormal.wav
402,192,57154,1,0,0:0:0:30:soft-hitnormal.wav
182,192,57237,1,0,0:0:0:30:soft-hitnormal.wav
109,192,57319,1,0,0:0:0:30:soft-hitnormal.wav
329,192,57319,1,0,0:0:0:30:soft-hitnormal.wav
475,192,57319,1,0,0:0:0:30:soft-hitnormal.wav
256,192,57402,1,0,0:0:0:30:soft-hitnormal.wav
402,192,57484,1,0,0:0:0:30:soft-hitnormal.wav
182,192,57484,1,0,0:0:0:30:soft-hitnormal.wav
36,192,57484,1,0,0:0:0:30:soft-hitnormal.wav
475,192,57484,1,0,0:0:0:30:soft-hitnormal.wav
329,192,57567,1,0,0:0:0:30:soft-hitnormal.wav
256,192,57649,1,0,0:0:0:30:soft-hitnormal.wav
109,192,57649,1,0,0:0:0:30:soft-hitnormal.wav
475,192,57649,1,0,0:0:0:30:soft-hitnormal.wav
329,192,57731,1,0,0:0:0:30:soft-hitnormal.wav
182,192,57814,1,0,0:0:0:30:soft-hitnormal.wav
36,192,57814,1,0,0:0:0:30:soft-hitnormal.wav
109,192,57814,1,0,0:0:0:30:soft-hitnormal.wav
402,192,57814,1,0,0:0:0:30:soft-hitnormal.wav
256,192,57979,1,0,0:0:0:30:soft-hitnormal.wav
475,192,57979,1,0,0:0:0:30:soft-hitnormal.wav
36,192,58143,1,0,0:0:0:30:soft-hitnormal.wav
182,192,58143,1,0,0:0:0:30:soft-hitnormal.wav
402,192,58143,1,0,0:0:0:30:soft-hitnormal.wav
329,192,58143,1,0,0:0:0:0:
109,192,58308,1,0,0:0:0:30:soft-hitnormal.wav
256,192,58308,1,0,0:0:0:30:soft-hitnormal.wav
329,192,58308,1,0,0:0:0:30:soft-hitnormal.wav
475,192,58308,1,0,0:0:0:30:soft-hitnormal.wav
36,192,58473,1,0,0:0:0:30:soft-hitnormal.wav
182,192,58473,1,0,0:0:0:30:soft-hitnormal.wav
402,192,58473,1,0,0:0:0:0:
256,192,58556,1,0,0:0:0:30:soft-hitnormal.wav
329,192,58638,1,0,0:0:0:30:soft-hitnormal.wav
475,192,58638,1,0,0:0:0:30:soft-hitnormal.wav
109,192,58638,1,0,0:0:0:30:soft-hitnormal.wav
182,192,58720,1,0,0:0:0:30:soft-hitnormal.wav
329,192,58803,1,0,0:0:0:30:soft-hitnormal.wav
475,192,58803,1,0,0:0:0:30:soft-hitnormal.wav
36,192,58803,1,0,0:0:0:30:soft-hitnormal.wav
256,192,58803,1,0,0:0:0:30:soft-hitnormal.wav
36,192,58968,1,0,0:0:0:30:soft-hitnormal.wav
109,192,58968,1,0,0:0:0:30:soft-hitnormal.wav
329,192,58968,1,0,0:0:0:30:soft-hitnormal.wav
475,192,58968,1,0,0:0:0:30:soft-hitnormal.wav
256,192,58968,1,0,0:0:0:30:soft-hitnormal.wav
182,192,59132,128,0,60451:0:0:0:30:soft-hitnormal.wav
475,192,60451,128,0,61770:0:0:0:30:soft-hitnormal.wav
329,192,61770,128,0,63089:0:0:0:30:soft-hitnormal.wav
182,192,63089,128,0,64407:0:0:0:30:soft-hitnormal.wav
36,192,64407,128,0,65726:0:0:0:30:soft-hitnormal.wav
329,192,65726,128,0,67045:0:0:0:30:soft-hitnormal.wav
109,192,67045,128,0,68363:0:0:0:30:soft-hitnormal.wav
256,192,68363,128,0,69682:0:0:0:30:soft-hitnormal.wav
109,192,69682,128,0,71001:0:0:0:30:soft-hitnormal.wav
256,192,70012,1,0,0:0:0:30:soft-hitnormal.wav
329,192,70341,1,0,0:0:0:30:soft-hitnormal.wav
475,192,70341,1,0,0:0:0:30:soft-hitnormal.wav
402,192,70671,1,0,0:0:0:30:soft-hitnormal.wav
329,192,71001,128,0,72319:0:0:0:30:soft-hitnormal.wav
256,192,71001,1,0,0:0:0:30:soft-hitnormal.wav
182,192,71165,1,0,0:0:0:30:soft-hitnormal.wav
36,192,71330,1,0,0:0:0:30:soft-hitnormal.wav
182,192,71495,1,0,0:0:0:30:soft-hitnormal.wav
475,192,71495,1,0,0:0:0:30:soft-hitnormal.wav
256,192,71825,1,0,0:0:0:30:soft-hitnormal.wav
36,192,71990,1,0,0:0:0:30:soft-hitnormal.wav
475,192,72154,1,0,0:0:0:30:soft-hitnormal.wav
109,192,72319,128,0,73638:0:0:0:30:soft-hitnormal.wav
402,192,72319,1,0,0:0:0:30:soft-hitnormal.wav
402,192,72484,1,0,0:0:0:30:soft-hitnormal.wav
329,192,72649,1,0,0:0:0:30:soft-hitnormal.wav
475,192,72649,1,0,0:0:0:30:soft-hitnormal.wav
182,192,72979,1,0,0:0:0:30:soft-hitnormal.wav
402,192,72979,1,0,0:0:0:30:soft-hitnormal.wav
256,192,73308,1,0,0:0:0:30:soft-hitnormal.wav
475,192,73308,1,0,0:0:0:30:soft-hitnormal.wav
256,192,73638,1,0,0:0:0:30:soft-hitnormal.wav
475,192,73638,1,0,0:0:0:30:soft-hitnormal.wav
36,192,73638,128,0,74957:0:0:0:30:soft-hitnormal.wav
402,192,73803,1,0,0:0:0:30:soft-hitnormal.wav
329,192,73968,1,0,0:0:0:30:soft-hitnormal.wav
182,192,74132,1,0,0:0:0:30:soft-hitnormal.wav
256,192,74132,1,0,0:0:0:30:soft-hitnormal.wav
402,192,74462,1,0,0:0:0:30:soft-hitnormal.wav
402,192,74792,1,0,0:0:0:30:soft-hitnormal.wav
256,192,74957,1,0,0:0:0:30:soft-hitnormal.wav
182,192,74957,128,0,76275:0:0:0:30:soft-hitnormal.wav
329,192,75286,1,0,0:0:0:30:soft-hitnormal.wav
36,192,75616,1,0,0:0:0:30:soft-hitnormal.wav
402,192,75616,1,0,0:0:0:30:soft-hitnormal.wav
329,192,75946,1,0,0:0:0:30:soft-hitnormal.wav
475,192,76275,128,0,77594:0:0:0:30:soft-hitnormal.wav
109,192,76275,1,0,0:0:0:30:soft-hitnormal.wav
256,192,76440,1,0,0:0:0:30:soft-hitnormal.wav
36,192,76605,1,0,0:0:0:30:soft-hitnormal.wav
182,192,76770,1,0,0:0:0:30:soft-hitnormal.wav
329,192,76770,1,0,0:0:0:30:soft-hitnormal.wav
329,192,77264,1,0,0:0:0:30:soft-hitnormal.wav
109,192,77594,128,0,78913:0:0:0:30:soft-hitnormal.wav
329,192,77594,1,0,0:0:0:30:soft-hitnormal.wav
329,192,77759,1,0,0:0:0:30:soft-hitnormal.wav
256,192,77924,1,0,0:0:0:30:soft-hitnormal.wav
475,192,77924,1,0,0:0:0:30:soft-hitnormal.wav
402,192,78253,1,0,0:0:0:30:soft-hitnormal.wav
256,192,78253,1,0,0:0:0:30:soft-hitnormal.wav
329,192,78583,1,0,0:0:0:30:soft-hitnormal.wav
402,192,78913,128,0,80231:0:0:0:30:soft-hitnormal.wav
329,192,78913,1,0,0:0:0:30:soft-hitnormal.wav
182,192,79078,1,0,0:0:0:30:soft-hitnormal.wav
36,192,79242,1,0,0:0:0:30:soft-hitnormal.wav
109,192,79242,128,0,80231:0:0:0:30:soft-hitnormal.wav
475,192,80231,1,0,0:0:0:30:soft-hitnormal.wav
36,192,80231,1,0,0:0:0:30:soft-hitnormal.wav
256,192,80231,1,0,0:0:0:0:
182,192,80396,1,0,0:0:0:30:soft-hitnormal.wav
329,192,80561,1,0,0:0:0:30:soft-hitnormal.wav
36,192,80726,1,0,0:0:0:30:soft-hitnormal.wav
256,192,80891,1,0,0:0:0:30:soft-hitnormal.wav
475,192,80891,1,0,0:0:0:30:soft-hitnormal.wav
402,192,81220,1,0,0:0:0:30:soft-hitnormal.wav
182,192,81385,1,0,0:0:0:30:soft-hitnormal.wav
36,192,81550,1,0,0:0:0:0:
329,192,81715,1,0,0:0:0:30:soft-hitnormal.wav
329,192,82374,1,0,0:0:0:30:soft-hitnormal.wav
256,192,82539,1,0,0:0:0:30:soft-hitnormal.wav
402,192,82704,1,0,0:0:0:30:soft-hitnormal.wav
329,192,82869,1,0,0:0:0:30:soft-hitnormal.wav
182,192,82869,1,0,0:0:0:30:soft-hitnormal.wav
109,192,83116,1,0,0:0:0:30:soft-hitnormal.wav
256,192,83363,1,0,0:0:0:30:soft-hitnormal.wav
329,192,83528,1,0,0:0:0:30:soft-hitnormal.wav
475,192,83528,1,0,0:0:0:30:soft-hitnormal.wav
109,192,83611,1,0,0:0:0:30:soft-hitnormal.wav
182,192,83858,1,0,0:0:0:30:soft-hitnormal.wav
256,192,84187,1,0,0:0:0:30:soft-hitnormal.wav
402,192,84187,1,0,0:0:0:30:soft-hitnormal.wav
109,192,84435,1,0,0:0:0:30:soft-hitnormal.wav
402,192,84682,1,0,0:0:0:30:soft-hitnormal.wav
182,192,84929,1,0,0:0:0:30:soft-hitnormal.wav
329,192,85176,1,0,0:0:0:30:soft-hitnormal.wav
109,192,85506,1,0,0:0:0:30:soft-hitnormal.wav
256,192,85506,1,0,0:0:0:30:soft-hitnormal.wav
402,192,85671,1,0,0:0:0:30:soft-hitnormal.wav
182,192,85836,1,0,0:0:0:30:soft-hitnormal.wav
329,192,85836,1,0,0:0:0:30:soft-hitnormal.wav
109,192,86001,1,0,0:0:0:30:soft-hitnormal.wav
256,192,86165,1,0,0:0:0:30:soft-hitnormal.wav
402,192,86165,1,0,0:0:0:30:soft-hitnormal.wav
475,192,86165,1,0,0:0:0:30:soft-hitnormal.wav
182,192,86330,1,0,0:0:0:30:soft-hitnormal.wav
109,192,86495,1,0,0:0:0:30:soft-hitnormal.wav
329,192,86495,1,0,0:0:0:30:soft-hitnormal.wav
256,192,86660,1,0,0:0:0:30:soft-hitnormal.wav
475,192,86660,1,0,0:0:0:30:soft-hitnormal.wav
36,192,86825,1,0,0:0:0:30:soft-hitnormal.wav
402,192,86825,1,0,0:0:0:30:soft-hitnormal.wav
182,192,86990,1,0,0:0:0:30:soft-hitnormal.wav
109,192,87319,1,0,0:0:0:30:soft-hitnormal.wav
182,192,87649,1,0,0:0:0:30:soft-hitnormal.wav
329,192,87814,1,0,0:0:0:30:soft-hitnormal.wav
402,192,87979,1,0,0:0:0:30:soft-hitnormal.wav
109,192,88143,1,0,0:0:0:30:soft-hitnormal.wav
256,192,88143,1,0,0:0:0:30:soft-hitnormal.wav
182,192,88473,1,0,0:0:0:30:soft-hitnormal.wav
329,192,88473,1,0,0:0:0:30:soft-hitnormal.wav
256,192,88638,1,0,0:0:0:30:soft-hitnormal.wav
402,192,88638,1,0,0:0:0:30:soft-hitnormal.wav
36,192,88803,1,0,0:0:0:30:soft-hitnormal.wav
329,192,88803,1,0,0:0:0:30:soft-hitnormal.wav
475,192,88803,1,0,0:0:0:30:soft-hitnormal.wav
182,192,88968,1,0,0:0:0:30:soft-hitnormal.wav
402,192,88968,1,0,0:0:0:0:
109,192,89132,1,0,0:0:0:30:soft-hitnormal.wav
329,192,89132,1,0,0:0:0:0:
475,192,89462,1,0,0:0:0:30:soft-hitnormal.wav
36,192,89462,1,0,0:0:0:30:soft-hitnormal.wav
256,192,89462,1,0,0:0:0:30:soft-hitnormal.wav
109,192,89627,128,0,89957:0:0:0:30:soft-hitnormal.wav
402,192,89627,128,0,89957:0:0:0:30:soft-hitnormal.wav
182,192,89627,1,0,0:0:0:0:
329,192,89627,1,0,0:0:0:0:
256,192,89957,1,0,0:0:0:30:soft-hitnormal.wav
36,192,90121,1,0,0:0:0:30:soft-hitnormal.wav
329,192,90121,1,0,0:0:0:30:soft-hitnormal.wav
182,192,90204,1,0,0:0:0:30:soft-hitnormal.wav
475,192,90204,1,0,0:0:0:30:soft-hitnormal.wav
36,192,90286,1,0,0:0:0:30:soft-hitnormal.wav
329,192,90286,1,0,0:0:0:30:soft-hitnormal.wav
109,192,90451,1,0,0:0:0:30:soft-hitnormal.wav
402,192,90451,1,0,0:0:0:30:soft-hitnormal.wav
182,192,90616,1,0,0:0:0:30:soft-hitnormal.wav
475,192,90616,1,0,0:0:0:30:soft-hitnormal.wav
36,192,90781,1,0,0:0:0:30:soft-hitnormal.wav
109,192,90781,1,0,0:0:0:30:soft-hitnormal.wav
256,192,90781,1,0,0:0:0:30:soft-hitnormal.wav
402,192,90781,1,0,0:0:0:30:soft-hitnormal.wav
475,192,90781,1,0,0:0:0:30:soft-hitnormal.wav
36,192,90946,1,0,0:0:0:30:soft-hitnormal.wav
182,192,90946,1,0,0:0:0:30:soft-hitnormal.wav
329,192,90946,1,0,0:0:0:30:soft-hitnormal.wav
475,192,90946,1,0,0:0:0:30:soft-hitnormal.wav
256,192,91111,1,0,0:0:0:30:soft-hitnormal.wav
329,192,91111,1,0,0:0:0:30:soft-hitnormal.wav
36,192,91111,1,0,0:0:0:30:soft-hitnormal.wav
475,192,91111,1,0,0:0:0:30:soft-hitnormal.wav
109,192,91111,1,0,0:0:0:30:soft-hitnormal.wav
36,192,91440,1,0,0:0:0:30:soft-hitnormal.wav
109,192,91440,1,0,0:0:0:30:soft-hitnormal.wav
256,192,91440,1,0,0:0:0:30:soft-hitnormal.wav
329,192,91440,1,0,0:0:0:30:soft-hitnormal.wav
475,192,91440,1,0,0:0:0:30:soft-hitnormal.wav
36,192,91770,1,0,0:0:0:30:soft-hitnormal.wav
182,192,91770,1,0,0:0:0:30:soft-hitnormal.wav
256,192,91770,1,0,0:0:0:30:soft-hitnormal.wav
402,192,91770,1,0,0:0:0:30:soft-hitnormal.wav
475,192,91770,1,0,0:0:0:30:soft-hitnormal.wav
36,192,91935,1,0,0:0:0:30:soft-hitnormal.wav
109,192,91935,1,0,0:0:0:30:soft-hitnormal.wav
256,192,91935,1,0,0:0:0:30:soft-hitnormal.wav
329,192,91935,1,0,0:0:0:30:soft-hitnormal.wav
475,192,91935,1,0,0:0:0:30:soft-hitnormal.wav
256,192,92264,1,0,0:0:0:30:soft-hitnormal.wav
109,192,92264,1,0,0:0:0:30:soft-hitnormal.wav
402,192,92264,1,0,0:0:0:30:soft-hitnormal.wav
329,192,92347,1,0,0:0:0:30:soft-hitnormal.wav
36,192,92347,1,0,0:0:0:30:soft-hitnormal.wav
182,192,92429,1,0,0:0:0:30:soft-hitnormal.wav
475,192,92429,1,0,0:0:0:30:soft-hitnormal.wav
402,192,92484,1,0,0:0:0:30:soft-hitnormal.wav
109,192,92512,1,0,0:0:0:30:soft-hitnormal.wav
329,192,92539,1,0,0:0:0:30:soft-hitnormal.wav
256,192,92594,1,0,0:0:0:30:soft-hitnormal.wav
36,192,92594,1,0,0:0:0:30:soft-hitnormal.wav
402,192,92676,1,0,0:0:0:30:soft-hitnormal.wav
475,192,92676,1,0,0:0:0:30:soft-hitnormal.wav
36,192,92759,1,0,0:0:0:30:soft-hitnormal.wav
182,192,92759,1,0,0:0:0:30:soft-hitnormal.wav
329,192,92841,1,0,0:0:0:30:soft-hitnormal.wav
475,192,92841,1,0,0:0:0:30:soft-hitnormal.wav
109,192,92924,1,0,0:0:0:30:soft-hitnormal.wav
256,192,92924,1,0,0:0:0:30:soft-hitnormal.wav
402,192,93006,1,0,0:0:0:30:soft-hitnormal.wav
36,192,93089,1,0,0:0:0:30:soft-hitnormal.wav
182,192,93089,1,0,0:0:0:30:soft-hitnormal.wav
329,192,93171,1,0,0:0:0:30:soft-hitnormal.wav
475,192,93171,1,0,0:0:0:30:soft-hitnormal.wav
109,192,93253,1,0,0:0:0:30:soft-hitnormal.wav
256,192,93253,1,0,0:0:0:30:soft-hitnormal.wav
402,192,93336,1,0,0:0:0:30:soft-hitnormal.wav
36,192,93418,1,0,0:0:0:30:soft-hitnormal.wav
182,192,93418,1,0,0:0:0:30:soft-hitnormal.wav
329,192,93418,1,0,0:0:0:30:soft-hitnormal.wav
475,192,93418,1,0,0:0:0:30:soft-hitnormal.wav
109,192,93418,1,0,0:0:0:30:soft-hitnormal.wav
475,192,93583,1,0,0:0:0:30:soft-hitnormal.wav
109,192,93583,1,0,0:0:0:30:soft-hitnormal.wav
256,192,93583,1,0,0:0:0:30:soft-hitnormal.wav
329,192,93583,1,0,0:0:0:30:soft-hitnormal.wav
475,192,93748,1,0,0:0:0:30:soft-hitnormal.wav
36,192,93748,1,0,0:0:0:30:soft-hitnormal.wav
182,192,93748,1,0,0:0:0:30:soft-hitnormal.wav
402,192,93748,1,0,0:0:0:30:soft-hitnormal.wav
256,192,93748,1,0,0:0:0:30:soft-hitnormal.wav
36,192,94078,1,0,0:0:0:30:soft-hitnormal.wav
182,192,94078,1,0,0:0:0:30:soft-hitnormal.wav
256,192,94078,1,0,0:0:0:30:soft-hitnormal.wav
402,192,94078,1,0,0:0:0:30:soft-hitnormal.wav
475,192,94078,1,0,0:0:0:30:soft-hitnormal.wav
36,192,94407,1,0,0:0:0:30:soft-hitnormal.wav
109,192,94407,1,0,0:0:0:30:soft-hitnormal.wav
256,192,94407,1,0,0:0:0:30:soft-hitnormal.wav
329,192,94407,1,0,0:0:0:30:soft-hitnormal.wav
475,192,94407,1,0,0:0:0:30:soft-hitnormal.wav
36,192,94572,1,0,0:0:0:30:soft-hitnormal.wav
182,192,94572,1,0,0:0:0:30:soft-hitnormal.wav
256,192,94572,1,0,0:0:0:30:soft-hitnormal.wav
402,192,94572,1,0,0:0:0:30:soft-hitnormal.wav
475,192,94572,1,0,0:0:0:30:soft-hitnormal.wav
329,192,94902,1,0,0:0:0:30:soft-hitnormal.wav
475,192,94902,1,0,0:0:0:30:soft-hitnormal.wav
36,192,94902,1,0,0:0:0:30:soft-hitnormal.wav
256,192,94984,1,0,0:0:0:30:soft-hitnormal.wav
109,192,94984,1,0,0:0:0:30:soft-hitnormal.wav
182,192,95067,1,0,0:0:0:30:soft-hitnormal.wav
402,192,95067,1,0,0:0:0:30:soft-hitnormal.wav
329,192,95149,1,0,0:0:0:30:soft-hitnormal.wav
36,192,95149,1,0,0:0:0:30:soft-hitnormal.wav
109,192,95231,1,0,0:0:0:30:soft-hitnormal.wav
475,192,95231,1,0,0:0:0:30:soft-hitnormal.wav
256,192,95314,1,0,0:0:0:30:soft-hitnormal.wav
182,192,95314,1,0,0:0:0:30:soft-hitnormal.wav
329,192,95396,1,0,0:0:0:30:soft-hitnormal.wav
475,192,95396,1,0,0:0:0:30:soft-hitnormal.wav
402,192,95396,1,0,0:0:0:0:
36,192,95479,1,0,0:0:0:30:soft-hitnormal.wav
182,192,95479,1,0,0:0:0:30:soft-hitnormal.wav
475,192,95561,1,0,0:0:0:30:soft-hitnormal.wav
329,192,95561,1,0,0:0:0:30:soft-hitnormal.wav
182,192,95643,1,0,0:0:0:30:soft-hitnormal.wav
36,192,95643,1,0,0:0:0:30:soft-hitnormal.wav
256,192,95725,1,0,0:0:0:30:soft-hitnormal.wav
402,192,95725,1,0,0:0:0:30:soft-hitnormal.wav
109,192,95808,1,0,0:0:0:30:soft-hitnormal.wav
475,192,95890,1,0,0:0:0:30:soft-hitnormal.wav
329,192,95890,1,0,0:0:0:30:soft-hitnormal.wav
182,192,95973,1,0,0:0:0:30:soft-hitnormal.wav
36,192,95973,1,0,0:0:0:30:soft-hitnormal.wav
402,192,96056,1,0,0:0:0:30:soft-hitnormal.wav
475,192,96056,1,0,0:0:0:30:soft-hitnormal.wav
256,192,96056,1,0,0:0:0:30:soft-hitnormal.wav
109,192,96056,1,0,0:0:0:30:soft-hitnormal.wav
329,192,96056,1,0,0:0:0:30:soft-hitnormal.wav
36,192,96220,1,0,0:0:0:30:soft-hitnormal.wav
182,192,96220,1,0,0:0:0:30:soft-hitnormal.wav
329,192,96220,1,0,0:0:0:30:soft-hitnormal.wav
402,192,96220,1,0,0:0:0:30:soft-hitnormal.wav
475,192,96220,1,0,0:0:0:30:soft-hitnormal.wav
36,192,96385,1,0,0:0:0:30:soft-hitnormal.wav
109,192,96385,1,0,0:0:0:30:soft-hitnormal.wav
256,192,96385,1,0,0:0:0:30:soft-hitnormal.wav
402,192,96385,1,0,0:0:0:30:soft-hitnormal.wav
475,192,96385,1,0,0:0:0:30:soft-hitnormal.wav
109,192,96715,1,0,0:0:0:30:soft-hitnormal.wav
36,192,96715,1,0,0:0:0:30:soft-hitnormal.wav
329,192,96715,1,0,0:0:0:30:soft-hitnormal.wav
402,192,96715,1,0,0:0:0:30:soft-hitnormal.wav
475,192,96715,1,0,0:0:0:30:soft-hitnormal.wav
36,192,97045,1,0,0:0:0:30:soft-hitnormal.wav
109,192,97045,1,0,0:0:0:30:soft-hitnormal.wav
182,192,97045,1,0,0:0:0:30:soft-hitnormal.wav
402,192,97045,1,0,0:0:0:30:soft-hitnormal.wav
475,192,97045,1,0,0:0:0:30:soft-hitnormal.wav
36,192,97209,1,0,0:0:0:30:soft-hitnormal.wav
109,192,97209,1,0,0:0:0:30:soft-hitnormal.wav
329,192,97209,1,0,0:0:0:30:soft-hitnormal.wav
402,192,97209,1,0,0:0:0:30:soft-hitnormal.wav
475,192,97209,1,0,0:0:0:30:soft-hitnormal.wav
182,192,97374,1,0,0:0:0:30:soft-hitnormal.wav
256,192,97374,1,0,0:0:0:30:soft-hitnormal.wav
475,192,97374,1,0,0:0:0:0:
109,192,97457,1,0,0:0:0:30:soft-hitnormal.wav
36,192,97539,1,0,0:0:0:30:soft-hitnormal.wav
329,192,97539,1,0,0:0:0:30:soft-hitnormal.wav
402,192,97539,1,0,0:0:0:30:soft-hitnormal.wav
256,192,97621,1,0,0:0:0:30:soft-hitnormal.wav
182,192,97704,1,0,0:0:0:30:soft-hitnormal.wav
402,192,97704,1,0,0:0:0:30:soft-hitnormal.wav
475,192,97704,1,0,0:0:0:30:soft-hitnormal.wav
109,192,97704,1,0,0:0:0:30:soft-hitnormal.wav
329,192,97786,1,0,0:0:0:30:soft-hitnormal.wav
36,192,97869,1,0,0:0:0:30:soft-hitnormal.wav
256,192,97869,1,0,0:0:0:30:soft-hitnormal.wav
402,192,97951,1,0,0:0:0:30:soft-hitnormal.wav
182,192,97951,1,0,0:0:0:30:soft-hitnormal.wav
109,192,98034,1,0,0:0:0:30:soft-hitnormal.wav
329,192,98034,1,0,0:0:0:30:soft-hitnormal.wav
182,192,98116,1,0,0:0:0:30:soft-hitnormal.wav
36,192,98198,1,0,0:0:0:30:soft-hitnormal.wav
402,192,98198,1,0,0:0:0:30:soft-hitnormal.wav
256,192,98198,1,0,0:0:0:30:soft-hitnormal.wav
475,192,98198,1,0,0:0:0:30:soft-hitnormal.wav
109,192,98281,1,0,0:0:0:30:soft-hitnormal.wav
182,192,98363,1,0,0:0:0:30:soft-hitnormal.wav
329,192,98363,1,0,0:0:0:30:soft-hitnormal.wav
256,192,98446,1,0,0:0:0:30:soft-hitnormal.wav
402,192,98446,1,0,0:0:0:30:soft-hitnormal.wav
36,192,98528,1,0,0:0:0:30:soft-hitnormal.wav
182,192,98528,1,0,0:0:0:30:soft-hitnormal.wav
329,192,98611,1,0,0:0:0:30:soft-hitnormal.wav
475,192,98611,1,0,0:0:0:30:soft-hitnormal.wav
36,192,98693,1,0,0:0:0:30:soft-hitnormal.wav
182,192,98693,1,0,0:0:0:30:soft-hitnormal.wav
109,192,98693,1,0,0:0:0:30:soft-hitnormal.wav
256,192,98693,1,0,0:0:0:30:soft-hitnormal.wav
402,192,98693,1,0,0:0:0:30:soft-hitnormal.wav
256,192,98858,1,0,0:0:0:30:soft-hitnormal.wav
402,192,98858,1,0,0:0:0:30:soft-hitnormal.wav
256,192,99023,1,0,0:0:0:30:soft-hitnormal.wav
402,192,99023,1,0,0:0:0:30:soft-hitnormal.wav
256,192,99352,1,0,0:0:0:30:soft-hitnormal.wav
402,192,99352,1,0,0:0:0:30:soft-hitnormal.wav
256,192,99682,1,0,0:0:0:30:soft-hitnormal.wav
402,192,99682,1,0,0:0:0:30:soft-hitnormal.wav
182,192,99847,1,0,0:0:0:30:soft-hitnormal.wav
329,192,99847,1,0,0:0:0:30:soft-hitnormal.wav
475,192,99847,1,0,0:0:0:30:soft-hitnormal.wav
182,192,100012,1,0,0:0:0:0:
36,192,100176,1,0,0:0:0:30:soft-hitnormal.wav
109,192,100176,1,0,0:0:0:30:soft-hitnormal.wav
329,192,100341,1,0,0:0:0:30:soft-hitnormal.wav
402,192,100341,1,0,0:0:0:30:soft-hitnormal.wav
256,192,100506,128,0,100671:0:0:0:30:soft-hitnormal.wav
182,192,100506,1,0,0:0:0:0:
402,192,100671,128,0,100836:0:0:0:30:soft-hitnormal.wav
475,192,100671,1,0,0:0:0:0:
109,192,100836,128,0,101001:0:0:0:30:soft-hitnormal.wav
36,192,100836,1,0,0:0:0:30:soft-hitnormal.wav
182,192,100836,1,0,0:0:0:30:soft-hitnormal.wav
329,192,101001,1,0,0:0:0:30:soft-hitnormal.wav
402,192,101001,1,0,0:0:0:30:soft-hitnormal.wav
475,192,101001,1,0,0:0:0:30:soft-hitnormal.wav
36,192,101165,1,0,0:0:0:30:soft-hitnormal.wav
109,192,101165,1,0,0:0:0:30:soft-hitnormal.wav
182,192,101165,1,0,0:0:0:30:soft-hitnormal.wav
36,192,101330,1,0,0:0:0:30:soft-hitnormal.wav
256,192,101330,1,0,0:0:0:30:soft-hitnormal.wav
475,192,101330,1,0,0:0:0:30:soft-hitnormal.wav
182,192,101330,1,0,0:0:0:30:soft-hitnormal.wav
329,192,101330,1,0,0:0:0:30:soft-hitnormal.wav
109,192,101495,1,0,0:0:0:30:soft-hitnormal.wav
475,192,101495,1,0,0:0:0:30:soft-hitnormal.wav
402,192,101495,1,0,0:0:0:30:soft-hitnormal.wav
36,192,101660,1,0,0:0:0:30:soft-hitnormal.wav
182,192,101660,1,0,0:0:0:30:soft-hitnormal.wav
256,192,101660,1,0,0:0:0:30:soft-hitnormal.wav
402,192,101660,1,0,0:0:0:30:soft-hitnormal.wav
36,192,101990,1,0,0:0:0:30:soft-hitnormal.wav
182,192,101990,1,0,0:0:0:30:soft-hitnormal.wav
256,192,101990,1,0,0:0:0:30:soft-hitnormal.wav
402,192,101990,1,0,0:0:0:30:soft-hitnormal.wav
36,192,102319,1,0,0:0:0:30:soft-hitnormal.wav
182,192,102319,1,0,0:0:0:30:soft-hitnormal.wav
256,192,102319,1,0,0:0:0:30:soft-hitnormal.wav
402,192,102319,1,0,0:0:0:30:soft-hitnormal.wav
109,192,102649,1,0,0:0:0:30:soft-hitnormal.wav
256,192,102649,1,0,0:0:0:30:soft-hitnormal.wav
329,192,102649,1,0,0:0:0:30:soft-hitnormal.wav
475,192,102649,1,0,0:0:0:30:soft-hitnormal.wav
109,192,102979,1,0,0:0:0:30:soft-hitnormal.wav
256,192,102979,1,0,0:0:0:30:soft-hitnormal.wav
329,192,102979,1,0,0:0:0:30:soft-hitnormal.wav
475,192,102979,1,0,0:0:0:30:soft-hitnormal.wav
109,192,103308,1,0,0:0:0:30:soft-hitnormal.wav
256,192,103308,1,0,0:0:0:30:soft-hitnormal.wav
329,192,103308,1,0,0:0:0:30:soft-hitnormal.wav
475,192,103308,1,0,0:0:0:30:soft-hitnormal.wav
109,192,103638,1,0,0:0:0:30:soft-hitnormal.wav
256,192,103638,1,0,0:0:0:30:soft-hitnormal.wav
329,192,103638,1,0,0:0:0:30:soft-hitnormal.wav
475,192,103638,1,0,0:0:0:30:soft-hitnormal.wav
182,192,103803,1,0,0:0:0:30:soft-hitnormal.wav
329,192,103803,1,0,0:0:0:30:soft-hitnormal.wav
109,192,103803,1,0,0:0:0:0:
475,192,103885,1,0,0:0:0:30:soft-hitnormal.wav
36,192,103968,1,0,0:0:0:30:soft-hitnormal.wav
182,192,103968,1,0,0:0:0:30:soft-hitnormal.wav
256,192,103968,1,0,0:0:0:30:soft-hitnormal.wav
402,192,103968,1,0,0:0:0:30:soft-hitnormal.wav
36,192,104297,1,0,0:0:0:30:soft-hitnormal.wav
182,192,104297,1,0,0:0:0:30:soft-hitnormal.wav
256,192,104297,1,0,0:0:0:30:soft-hitnormal.wav
402,192,104297,1,0,0:0:0:30:soft-hitnormal.wav
36,192,104627,1,0,0:0:0:30:soft-hitnormal.wav
182,192,104627,1,0,0:0:0:30:soft-hitnormal.wav
256,192,104627,1,0,0:0:0:30:soft-hitnormal.wav
402,192,104627,1,0,0:0:0:30:soft-hitnormal.wav
36,192,104957,1,0,0:0:0:30:soft-hitnormal.wav
182,192,104957,1,0,0:0:0:30:soft-hitnormal.wav
256,192,104957,1,0,0:0:0:30:soft-hitnormal.wav
402,192,104957,1,0,0:0:0:30:soft-hitnormal.wav
256,192,105286,1,0,0:0:0:30:soft-hitnormal.wav
109,192,105286,1,0,0:0:0:30:soft-hitnormal.wav
329,192,105286,1,0,0:0:0:30:soft-hitnormal.wav
475,192,105286,1,0,0:0:0:30:soft-hitnormal.wav
109,192,105616,1,0,0:0:0:30:soft-hitnormal.wav
256,192,105616,1,0,0:0:0:30:soft-hitnormal.wav
329,192,105616,1,0,0:0:0:30:soft-hitnormal.wav
475,192,105616,1,0,0:0:0:30:soft-hitnormal.wav
109,192,105946,1,0,0:0:0:30:soft-hitnormal.wav
256,192,105946,1,0,0:0:0:30:soft-hitnormal.wav
329,192,105946,1,0,0:0:0:30:soft-hitnormal.wav
475,192,105946,1,0,0:0:0:30:soft-hitnormal.wav
109,192,106275,1,0,0:0:0:30:soft-hitnormal.wav
256,192,106275,1,0,0:0:0:30:soft-hitnormal.wav
329,192,106275,1,0,0:0:0:30:soft-hitnormal.wav
475,192,106275,1,0,0:0:0:30:soft-hitnormal.wav
182,192,106440,1,0,0:0:0:30:soft-hitnormal.wav
329,192,106440,1,0,0:0:0:30:soft-hitnormal.wav
475,192,106440,1,0,0:0:0:0:
109,192,106523,1,0,0:0:0:30:soft-hitnormal.wav
36,192,106605,1,0,0:0:0:30:soft-hitnormal.wav
256,192,106605,1,0,0:0:0:30:soft-hitnormal.wav
475,192,106605,1,0,0:0:0:30:soft-hitnormal.wav
402,192,106605,1,0,0:0:0:30:soft-hitnormal.wav
36,192,106770,1,0,0:0:0:30:soft-hitnormal.wav
256,192,106770,1,0,0:0:0:30:soft-hitnormal.wav
402,192,106770,1,0,0:0:0:30:soft-hitnormal.wav
109,192,106935,1,0,0:0:0:30:soft-hitnormal.wav
329,192,106935,1,0,0:0:0:30:soft-hitnormal.wav
475,192,106935,1,0,0:0:0:30:soft-hitnormal.wav
182,192,106935,1,0,0:0:0:30:soft-hitnormal.wav
182,192,107100,1,0,0:0:0:30:soft-hitnormal.wav
329,192,107100,1,0,0:0:0:30:soft-hitnormal.wav
475,192,107100,1,0,0:0:0:30:soft-hitnormal.wav
36,192,107264,1,0,0:0:0:30:soft-hitnormal.wav
256,192,107264,1,0,0:0:0:30:soft-hitnormal.wav
402,192,107264,1,0,0:0:0:30:soft-hitnormal.wav
475,192,107264,1,0,0:0:0:30:soft-hitnormal.wav
36,192,107429,1,0,0:0:0:30:soft-hitnormal.wav
256,192,107429,1,0,0:0:0:30:soft-hitnormal.wav
402,192,107429,1,0,0:0:0:30:soft-hitnormal.wav
329,192,107594,1,0,0:0:0:30:soft-hitnormal.wav
182,192,107594,1,0,0:0:0:30:soft-hitnormal.wav
109,192,107594,1,0,0:0:0:30:soft-hitnormal.wav
475,192,107594,1,0,0:0:0:30:soft-hitnormal.wav
329,192,107759,1,0,0:0:0:30:soft-hitnormal.wav
475,192,107759,1,0,0:0:0:30:soft-hitnormal.wav
182,192,107759,1,0,0:0:0:30:soft-hitnormal.wav
109,192,107841,1,0,0:0:0:30:soft-hitnormal.wav
256,192,107924,1,0,0:0:0:30:soft-hitnormal.wav
475,192,107924,1,0,0:0:0:30:soft-hitnormal.wav
36,192,107924,1,0,0:0:0:30:soft-hitnormal.wav
402,192,107924,1,0,0:0:0:30:soft-hitnormal.wav
256,192,108089,1,0,0:0:0:30:soft-hitnormal.wav
36,192,108089,1,0,0:0:0:30:soft-hitnormal.wav
402,192,108089,1,0,0:0:0:30:soft-hitnormal.wav
109,192,108253,1,0,0:0:0:30:soft-hitnormal.wav
475,192,108253,1,0,0:0:0:30:soft-hitnormal.wav
329,192,108253,1,0,0:0:0:30:soft-hitnormal.wav
182,192,108253,1,0,0:0:0:30:soft-hitnormal.wav
182,192,108418,1,0,0:0:0:30:soft-hitnormal.wav
475,192,108418,1,0,0:0:0:30:soft-hitnormal.wav
329,192,108418,1,0,0:0:0:30:soft-hitnormal.wav
36,192,108583,1,0,0:0:0:30:soft-hitnormal.wav
402,192,108583,1,0,0:0:0:30:soft-hitnormal.wav
256,192,108583,1,0,0:0:0:30:soft-hitnormal.wav
475,192,108583,1,0,0:0:0:30:soft-hitnormal.wav
402,192,108748,1,0,0:0:0:30:soft-hitnormal.wav
36,192,108748,1,0,0:0:0:30:soft-hitnormal.wav
256,192,108748,1,0,0:0:0:30:soft-hitnormal.wav
329,192,108913,1,0,0:0:0:30:soft-hitnormal.wav
182,192,108913,1,0,0:0:0:30:soft-hitnormal.wav
109,192,108913,1,0,0:0:0:30:soft-hitnormal.wav
475,192,108913,1,0,0:0:0:30:soft-hitnormal.wav
182,192,109078,1,0,0:0:0:30:soft-hitnormal.wav
329,192,109078,1,0,0:0:0:30:soft-hitnormal.wav
475,192,109078,1,0,0:0:0:30:soft-hitnormal.wav
109,192,109160,1,0,0:0:0:30:soft-hitnormal.wav
256,192,109160,1,0,0:0:0:30:soft-hitnormal.wav
36,192,109242,1,0,0:0:0:30:soft-hitnormal.wav
182,192,109242,1,0,0:0:0:30:soft-hitnormal.wav
402,192,109242,1,0,0:0:0:30:soft-hitnormal.wav
329,192,109325,1,0,0:0:0:30:soft-hitnormal.wav
109,192,109407,1,0,0:0:0:30:soft-hitnormal.wav
256,192,109407,1,0,0:0:0:30:soft-hitnormal.wav
475,192,109407,1,0,0:0:0:30:soft-hitnormal.wav
402,192,109490,1,0,0:0:0:30:soft-hitnormal.wav
36,192,109572,1,0,0:0:0:30:soft-hitnormal.wav
182,192,109572,1,0,0:0:0:30:soft-hitnormal.wav
329,192,109572,1,0,0:0:0:30:soft-hitnormal.wav
402,192,109654,1,0,0:0:0:30:soft-hitnormal.wav
475,192,109737,1,0,0:0:0:30:soft-hitnormal.wav
109,192,109737,1,0,0:0:0:30:soft-hitnormal.wav
256,192,109737,1,0,0:0:0:30:soft-hitnormal.wav
329,192,109819,1,0,0:0:0:30:soft-hitnormal.wav
402,192,109902,1,0,0:0:0:30:soft-hitnormal.wav
182,192,109902,1,0,0:0:0:30:soft-hitnormal.wav
36,192,109902,1,0,0:0:0:30:soft-hitnormal.wav
256,192,109984,1,0,0:0:0:30:soft-hitnormal.wav
329,192,110067,1,0,0:0:0:30:soft-hitnormal.wav
475,192,110067,1,0,0:0:0:30:soft-hitnormal.wav
109,192,110067,1,0,0:0:0:30:soft-hitnormal.wav
182,192,110149,1,0,0:0:0:30:soft-hitnormal.wav
256,192,110231,1,0,0:0:0:30:soft-hitnormal.wav
402,192,110231,1,0,0:0:0:30:soft-hitnormal.wav
36,192,110231,1,0,0:0:0:30:soft-hitnormal.wav
475,192,110231,1,0,0:0:0:0:
109,192,110396,1,0,0:0:0:30:soft-hitnormal.wav
329,192,110396,1,0,0:0:0:30:soft-hitnormal.wav
182,192,110396,1,0,0:0:0:0:
402,192,110396,1,0,0:0:0:0:
256,192,110479,1,0,0:0:0:30:soft-hitnormal.wav
475,192,110561,1,0,0:0:0:30:soft-hitnormal.wav
402,192,110561,1,0,0:0:0:30:soft-hitnormal.wav
329,192,110582,1,0,0:0:0:30:soft-hitnormal.wav
36,192,110602,1,0,0:0:0:30:soft-hitnormal.wav
109,192,110623,1,0,0:0:0:30:soft-hitnormal.wav
182,192,110643,1,0,0:0:0:30:soft-hitnormal.wav
402,192,110891,1,0,0:0:0:30:soft-hitnormal.wav
329,192,110891,1,0,0:0:0:30:soft-hitnormal.wav
475,192,110891,1,0,0:0:0:30:soft-hitnormal.wav
36,192,110973,1,0,0:0:0:30:soft-hitnormal.wav
109,192,110973,1,0,0:0:0:30:soft-hitnormal.wav
182,192,110973,1,0,0:0:0:0:
256,192,111056,128,0,111138:0:0:0:0:
402,192,111056,128,0,111097:0:0:0:0:
329,192,111056,128,0,111117:0:0:0:0:
256,192,111220,128,0,111262:0:0:0:0:
402,192,111220,128,0,111303:0:0:0:0:
329,192,111220,128,0,111282:0:0:0:0:
256,192,111385,128,0,111468:0:0:0:0:
329,192,111385,128,0,111447:0:0:0:0:
402,192,111385,128,0,111426:0:0:0:0:
36,192,111550,1,0,0:0:0:30:soft-hitnormal.wav
109,192,111550,1,0,0:0:0:30:soft-hitnormal.wav
182,192,111550,1,0,0:0:0:30:soft-hitnormal.wav
402,192,111550,1,0,0:0:0:0:
329,192,111550,1,0,0:0:0:0:
475,192,111715,128,0,111880:0:0:0:30:soft-hitnormal.wav
329,192,111715,128,0,111880:0:0:0:30:soft-hitnormal.wav
36,192,111880,1,0,0:0:0:30:soft-hitnormal.wav
256,192,111880,1,0,0:0:0:30:soft-hitnormal.wav
182,192,111962,1,0,0:0:0:30:soft-hitnormal.wav
109,192,112045,1,0,0:0:0:30:soft-hitnormal.wav
402,192,112045,1,0,0:0:0:30:soft-hitnormal.wav
329,192,112127,1,0,0:0:0:30:soft-hitnormal.wav
475,192,112209,1,0,0:0:0:30:soft-hitnormal.wav
256,192,112209,1,0,0:0:0:30:soft-hitnormal.wav
182,192,112209,1,0,0:0:0:30:soft-hitnormal.wav
402,192,112292,1,0,0:0:0:30:soft-hitnormal.wav
329,192,112374,1,0,0:0:0:30:soft-hitnormal.wav
109,192,112374,1,0,0:0:0:30:soft-hitnormal.wav
182,192,112457,1,0,0:0:0:30:soft-hitnormal.wav
256,192,112539,1,0,0:0:0:30:soft-hitnormal.wav
402,192,112539,1,0,0:0:0:30:soft-hitnormal.wav
36,192,112539,1,0,0:0:0:30:soft-hitnormal.wav
109,192,112621,1,0,0:0:0:30:soft-hitnormal.wav
182,192,112704,1,0,0:0:0:30:soft-hitnormal.wav
329,192,112704,1,0,0:0:0:30:soft-hitnormal.wav
402,192,112786,1,0,0:0:0:30:soft-hitnormal.wav
475,192,112869,1,0,0:0:0:30:soft-hitnormal.wav
256,192,112869,1,0,0:0:0:30:soft-hitnormal.wav
109,192,112869,1,0,0:0:0:30:soft-hitnormal.wav
329,192,112951,1,0,0:0:0:30:soft-hitnormal.wav
402,192,113034,1,0,0:0:0:30:soft-hitnormal.wav
182,192,113034,1,0,0:0:0:30:soft-hitnormal.wav
109,192,113116,1,0,0:0:0:30:soft-hitnormal.wav
36,192,113198,1,0,0:0:0:30:soft-hitnormal.wav
256,192,113198,1,0,0:0:0:30:soft-hitnormal.wav
475,192,113198,1,0,0:0:0:30:soft-hitnormal.wav
329,192,113281,1,0,0:0:0:30:soft-hitnormal.wav
182,192,113363,1,0,0:0:0:30:soft-hitnormal.wav
402,192,113363,1,0,0:0:0:30:soft-hitnormal.wav
256,192,113446,1,0,0:0:0:30:soft-hitnormal.wav
329,192,113528,1,0,0:0:0:30:soft-hitnormal.wav
109,192,113528,1,0,0:0:0:30:soft-hitnormal.wav
475,192,113528,1,0,0:0:0:30:soft-hitnormal.wav
182,192,113611,1,0,0:0:0:30:soft-hitnormal.wav
256,192,113693,1,0,0:0:0:30:soft-hitnormal.wav
402,192,113693,1,0,0:0:0:30:soft-hitnormal.wav
109,192,113775,1,0,0:0:0:30:soft-hitnormal.wav
182,192,113858,1,0,0:0:0:30:soft-hitnormal.wav
329,192,113858,1,0,0:0:0:30:soft-hitnormal.wav
475,192,113858,1,0,0:0:0:30:soft-hitnormal.wav
36,192,113940,1,0,0:0:0:30:soft-hitnormal.wav
256,192,114023,1,0,0:0:0:30:soft-hitnormal.wav
402,192,114023,1,0,0:0:0:30:soft-hitnormal.wav
182,192,114105,1,0,0:0:0:30:soft-hitnormal.wav
109,192,114187,1,0,0:0:0:30:soft-hitnormal.wav
329,192,114187,1,0,0:0:0:30:soft-hitnormal.wav
475,192,114187,1,0,0:0:0:30:soft-hitnormal.wav
256,192,114270,1,0,0:0:0:30:soft-hitnormal.wav
182,192,114352,1,0,0:0:0:30:soft-hitnormal.wav
402,192,114352,1,0,0:0:0:30:soft-hitnormal.wav
329,192,114435,1,0,0:0:0:30:soft-hitnormal.wav
256,192,114517,1,0,0:0:0:30:soft-hitnormal.wav
475,192,114517,1,0,0:0:0:30:soft-hitnormal.wav
36,192,114517,1,0,0:0:0:30:soft-hitnormal.wav
109,192,114600,1,0,0:0:0:30:soft-hitnormal.wav
182,192,114682,1,0,0:0:0:30:soft-hitnormal.wav
329,192,114682,1,0,0:0:0:30:soft-hitnormal.wav
402,192,114764,1,0,0:0:0:30:soft-hitnormal.wav
256,192,114847,1,0,0:0:0:30:soft-hitnormal.wav
475,192,114847,1,0,0:0:0:30:soft-hitnormal.wav
109,192,114847,1,0,0:0:0:30:soft-hitnormal.wav
36,192,114929,1,0,0:0:0:30:soft-hitnormal.wav
182,192,115012,1,0,0:0:0:30:soft-hitnormal.wav
329,192,115012,1,0,0:0:0:30:soft-hitnormal.wav
109,192,115094,1,0,0:0:0:30:soft-hitnormal.wav
256,192,115176,1,0,0:0:0:30:soft-hitnormal.wav
402,192,115176,1,0,0:0:0:30:soft-hitnormal.wav
475,192,115176,1,0,0:0:0:30:soft-hitnormal.wav
182,192,115259,1,0,0:0:0:30:soft-hitnormal.wav
109,192,115341,1,0,0:0:0:30:soft-hitnormal.wav
329,192,115341,1,0,0:0:0:30:soft-hitnormal.wav
256,192,115424,1,0,0:0:0:30:soft-hitnormal.wav
182,192,115506,1,0,0:0:0:30:soft-hitnormal.wav
402,192,115506,1,0,0:0:0:30:soft-hitnormal.wav
36,192,115506,1,0,0:0:0:30:soft-hitnormal.wav
329,192,115589,1,0,0:0:0:30:soft-hitnormal.wav
256,192,115671,1,0,0:0:0:30:soft-hitnormal.wav
475,192,115671,1,0,0:0:0:30:soft-hitnormal.wav
402,192,115753,1,0,0:0:0:30:soft-hitnormal.wav
329,192,115836,1,0,0:0:0:30:soft-hitnormal.wav
182,192,115836,1,0,0:0:0:30:soft-hitnormal.wav
109,192,115836,1,0,0:0:0:30:soft-hitnormal.wav
36,192,115918,1,0,0:0:0:30:soft-hitnormal.wav
256,192,116001,1,0,0:0:0:30:soft-hitnormal.wav
402,192,116001,1,0,0:0:0:30:soft-hitnormal.wav
182,192,116083,1,0,0:0:0:30:soft-hitnormal.wav
109,192,116165,1,0,0:0:0:30:soft-hitnormal.wav
329,192,116165,1,0,0:0:0:30:soft-hitnormal.wav
475,192,116165,1,0,0:0:0:30:soft-hitnormal.wav
256,192,116248,1,0,0:0:0:30:soft-hitnormal.wav
36,192,116330,1,0,0:0:0:30:soft-hitnormal.wav
182,192,116330,1,0,0:0:0:30:soft-hitnormal.wav
402,192,116413,1,0,0:0:0:30:soft-hitnormal.wav
475,192,116495,1,0,0:0:0:30:soft-hitnormal.wav
109,192,116495,1,0,0:0:0:30:soft-hitnormal.wav
256,192,116495,1,0,0:0:0:30:soft-hitnormal.wav
329,192,116578,1,0,0:0:0:30:soft-hitnormal.wav
402,192,116660,1,0,0:0:0:30:soft-hitnormal.wav
182,192,116660,1,0,0:0:0:30:soft-hitnormal.wav
256,192,116742,1,0,0:0:0:30:soft-hitnormal.wav
329,192,116825,1,0,0:0:0:30:soft-hitnormal.wav
109,192,116825,1,0,0:0:0:30:soft-hitnormal.wav
36,192,116825,1,0,0:0:0:30:soft-hitnormal.wav
182,192,116907,1,0,0:0:0:30:soft-hitnormal.wav
256,192,116990,1,0,0:0:0:30:soft-hitnormal.wav
402,192,116990,1,0,0:0:0:30:soft-hitnormal.wav
475,192,117072,1,0,0:0:0:30:soft-hitnormal.wav
329,192,117154,1,0,0:0:0:30:soft-hitnormal.wav
182,192,117154,1,0,0:0:0:30:soft-hitnormal.wav
36,192,117154,1,0,0:0:0:30:soft-hitnormal.wav
402,192,117237,1,0,0:0:0:30:soft-hitnormal.wav
109,192,117319,1,0,0:0:0:30:soft-hitnormal.wav
475,192,117319,1,0,0:0:0:30:soft-hitnormal.wav
329,192,117402,1,0,0:0:0:30:soft-hitnormal.wav
36,192,117484,1,0,0:0:0:30:soft-hitnormal.wav
182,192,117484,1,0,0:0:0:30:soft-hitnormal.wav
256,192,117484,1,0,0:0:0:30:soft-hitnormal.wav
402,192,117567,1,0,0:0:0:30:soft-hitnormal.wav
475,192,117649,1,0,0:0:0:30:soft-hitnormal.wav
109,192,117649,1,0,0:0:0:30:soft-hitnormal.wav
182,192,117731,1,0,0:0:0:30:soft-hitnormal.wav
256,192,117814,1,0,0:0:0:30:soft-hitnormal.wav
402,192,117814,1,0,0:0:0:30:soft-hitnormal.wav
36,192,117814,1,0,0:0:0:30:soft-hitnormal.wav
109,192,117896,1,0,0:0:0:30:soft-hitnormal.wav
329,192,117979,1,0,0:0:0:30:soft-hitnormal.wav
182,192,117979,1,0,0:0:0:30:soft-hitnormal.wav
36,192,118061,1,0,0:0:0:30:soft-hitnormal.wav
402,192,118143,1,0,0:0:0:30:soft-hitnormal.wav
475,192,118143,1,0,0:0:0:30:soft-hitnormal.wav
256,192,118143,1,0,0:0:0:30:soft-hitnormal.wav
182,192,118226,1,0,0:0:0:30:soft-hitnormal.wav
109,192,118308,1,0,0:0:0:30:soft-hitnormal.wav
329,192,118308,1,0,0:0:0:30:soft-hitnormal.wav
256,192,118391,1,0,0:0:0:30:soft-hitnormal.wav
182,192,118473,1,0,0:0:0:30:soft-hitnormal.wav
402,192,118473,1,0,0:0:0:30:soft-hitnormal.wav
36,192,118473,1,0,0:0:0:30:soft-hitnormal.wav
475,192,118556,1,0,0:0:0:30:soft-hitnormal.wav
109,192,118638,1,0,0:0:0:30:soft-hitnormal.wav
256,192,118638,1,0,0:0:0:30:soft-hitnormal.wav
329,192,118720,1,0,0:0:0:30:soft-hitnormal.wav
402,192,118803,1,0,0:0:0:30:soft-hitnormal.wav
182,192,118803,1,0,0:0:0:30:soft-hitnormal.wav
475,192,118803,1,0,0:0:0:30:soft-hitnormal.wav
256,192,118885,1,0,0:0:0:30:soft-hitnormal.wav
329,192,118968,1,0,0:0:0:30:soft-hitnormal.wav
109,192,118968,1,0,0:0:0:30:soft-hitnormal.wav
182,192,119050,1,0,0:0:0:30:soft-hitnormal.wav
256,192,119132,1,0,0:0:0:30:soft-hitnormal.wav
36,192,119132,1,0,0:0:0:30:soft-hitnormal.wav
402,192,119132,1,0,0:0:0:30:soft-hitnormal.wav
475,192,119215,1,0,0:0:0:30:soft-hitnormal.wav
182,192,119297,1,0,0:0:0:30:soft-hitnormal.wav
329,192,119297,1,0,0:0:0:30:soft-hitnormal.wav
109,192,119380,1,0,0:0:0:30:soft-hitnormal.wav
36,192,119462,1,0,0:0:0:30:soft-hitnormal.wav
256,192,119462,1,0,0:0:0:30:soft-hitnormal.wav
475,192,119462,1,0,0:0:0:30:soft-hitnormal.wav
329,192,119545,1,0,0:0:0:30:soft-hitnormal.wav
402,192,119627,1,0,0:0:0:30:soft-hitnormal.wav
182,192,119627,1,0,0:0:0:30:soft-hitnormal.wav
329,192,119709,1,0,0:0:0:30:soft-hitnormal.wav
109,192,119709,1,0,0:0:0:30:soft-hitnormal.wav
475,192,119792,1,0,0:0:0:30:soft-hitnormal.wav
36,192,119792,1,0,0:0:0:30:soft-hitnormal.wav
256,192,119792,1,0,0:0:0:30:soft-hitnormal.wav
402,192,119792,1,0,0:0:0:30:soft-hitnormal.wav
36,192,120121,1,0,0:0:0:30:soft-hitnormal.wav
256,192,120121,1,0,0:0:0:30:soft-hitnormal.wav
402,192,120121,1,0,0:0:0:30:soft-hitnormal.wav
475,192,120121,1,0,0:0:0:30:soft-hitnormal.wav
36,192,120286,1,0,0:0:0:30:soft-hitnormal.wav
182,192,120286,1,0,0:0:0:30:soft-hitnormal.wav
329,192,120286,1,0,0:0:0:30:soft-hitnormal.wav
402,192,120286,1,0,0:0:0:30:soft-hitnormal.wav
109,192,120286,1,0,0:0:0:0:
36,192,120616,1,0,0:0:0:30:soft-hitnormal.wav
475,192,120616,1,0,0:0:0:30:soft-hitnormal.wav
329,192,120616,1,0,0:0:0:30:soft-hitnormal.wav
256,192,120616,1,0,0:0:0:30:soft-hitnormal.wav
475,192,120781,1,0,0:0:0:30:soft-hitnormal.wav
36,192,120781,1,0,0:0:0:30:soft-hitnormal.wav
329,192,120781,1,0,0:0:0:30:soft-hitnormal.wav
182,192,120781,1,0,0:0:0:30:soft-hitnormal.wav
402,192,120781,1,0,0:0:0:30:soft-hitnormal.wav
36,192,121111,1,0,0:0:0:30:soft-hitnormal.wav
109,192,121111,1,0,0:0:0:30:soft-hitnormal.wav
329,192,121111,1,0,0:0:0:30:soft-hitnormal.wav
402,192,121111,1,0,0:0:0:30:soft-hitnormal.wav
109,192,121275,1,0,0:0:0:30:soft-hitnormal.wav
182,192,121275,1,0,0:0:0:30:soft-hitnormal.wav
475,192,121275,1,0,0:0:0:30:soft-hitnormal.wav
402,192,121275,1,0,0:0:0:30:soft-hitnormal.wav
256,192,121275,1,0,0:0:0:0:
109,192,121605,1,0,0:0:0:30:soft-hitnormal.wav
36,192,121605,1,0,0:0:0:30:soft-hitnormal.wav
329,192,121605,1,0,0:0:0:30:soft-hitnormal.wav
402,192,121605,1,0,0:0:0:30:soft-hitnormal.wav
109,192,121770,1,0,0:0:0:30:soft-hitnormal.wav
182,192,121770,1,0,0:0:0:30:soft-hitnormal.wav
402,192,121770,1,0,0:0:0:30:soft-hitnormal.wav
475,192,121770,1,0,0:0:0:30:soft-hitnormal.wav
256,192,121852,1,0,0:0:0:30:soft-hitnormal.wav
329,192,121935,1,0,0:0:0:30:soft-hitnormal.wav
109,192,121935,1,0,0:0:0:30:soft-hitnormal.wav
36,192,121935,1,0,0:0:0:30:soft-hitnormal.wav
182,192,122017,1,0,0:0:0:30:soft-hitnormal.wav
256,192,122100,1,0,0:0:0:30:soft-hitnormal.wav
402,192,122100,1,0,0:0:0:30:soft-hitnormal.wav
475,192,122100,1,0,0:0:0:30:soft-hitnormal.wav
36,192,122100,1,0,0:0:0:30:soft-hitnormal.wav
109,192,122182,1,0,0:0:0:30:soft-hitnormal.wav
182,192,122264,1,0,0:0:0:30:soft-hitnormal.wav
329,192,122264,1,0,0:0:0:30:soft-hitnormal.wav
475,192,122264,1,0,0:0:0:30:soft-hitnormal.wav
109,192,122347,1,0,0:0:0:30:soft-hitnormal.wav
36,192,122429,1,0,0:0:0:30:soft-hitnormal.wav
256,192,122429,1,0,0:0:0:30:soft-hitnormal.wav
402,192,122429,1,0,0:0:0:30:soft-hitnormal.wav
475,192,122429,1,0,0:0:0:30:soft-hitnormal.wav
182,192,122512,1,0,0:0:0:30:soft-hitnormal.wav
109,192,122594,1,0,0:0:0:30:soft-hitnormal.wav
329,192,122594,1,0,0:0:0:30:soft-hitnormal.wav
256,192,122676,1,0,0:0:0:30:soft-hitnormal.wav
182,192,122759,1,0,0:0:0:30:soft-hitnormal.wav
402,192,122759,1,0,0:0:0:30:soft-hitnormal.wav
36,192,122759,1,0,0:0:0:30:soft-hitnormal.wav
329,192,122841,1,0,0:0:0:30:soft-hitnormal.wav
256,192,122924,1,0,0:0:0:30:soft-hitnormal.wav
475,192,122924,1,0,0:0:0:30:soft-hitnormal.wav
402,192,123006,1,0,0:0:0:30:soft-hitnormal.wav
329,192,123089,1,0,0:0:0:30:soft-hitnormal.wav
182,192,123089,1,0,0:0:0:30:soft-hitnormal.wav
36,192,123089,1,0,0:0:0:30:soft-hitnormal.wav
402,192,123171,1,0,0:0:0:30:soft-hitnormal.wav
475,192,123253,1,0,0:0:0:30:soft-hitnormal.wav
109,192,123253,1,0,0:0:0:30:soft-hitnormal.wav
182,192,123336,1,0,0:0:0:30:soft-hitnormal.wav
256,192,123418,1,0,0:0:0:30:soft-hitnormal.wav
402,192,123418,1,0,0:0:0:30:soft-hitnormal.wav
36,192,123418,1,0,0:0:0:0:
109,192,123501,1,0,0:0:0:30:soft-hitnormal.wav
329,192,123583,1,0,0:0:0:30:soft-hitnormal.wav
475,192,123583,1,0,0:0:0:30:soft-hitnormal.wav
36,192,123665,1,0,0:0:0:30:soft-hitnormal.wav
256,192,123748,1,0,0:0:0:30:soft-hitnormal.wav
402,192,123748,1,0,0:0:0:30:soft-hitnormal.wav
109,192,123748,1,0,0:0:0:30:soft-hitnormal.wav
475,192,123830,1,0,0:0:0:30:soft-hitnormal.wav
182,192,123913,1,0,0:0:0:30:soft-hitnormal.wav
329,192,123913,1,0,0:0:0:30:soft-hitnormal.wav
402,192,123995,1,0,0:0:0:30:soft-hitnormal.wav
36,192,124078,1,0,0:0:0:30:soft-hitnormal.wav
256,192,124078,1,0,0:0:0:30:soft-hitnormal.wav
475,192,124078,1,0,0:0:0:30:soft-hitnormal.wav
329,192,124160,1,0,0:0:0:30:soft-hitnormal.wav
402,192,124242,1,0,0:0:0:30:soft-hitnormal.wav
109,192,124242,1,0,0:0:0:30:soft-hitnormal.wav
182,192,124325,1,0,0:0:0:30:soft-hitnormal.wav
256,192,124407,1,0,0:0:0:30:soft-hitnormal.wav
329,192,124407,1,0,0:0:0:30:soft-hitnormal.wav
475,192,124407,1,0,0:0:0:30:soft-hitnormal.wav
182,192,124490,1,0,0:0:0:30:soft-hitnormal.wav
109,192,124572,1,0,0:0:0:30:soft-hitnormal.wav
402,192,124572,1,0,0:0:0:30:soft-hitnormal.wav
329,192,124654,1,0,0:0:0:30:soft-hitnormal.wav
256,192,124737,1,0,0:0:0:30:soft-hitnormal.wav
475,192,124737,1,0,0:0:0:30:soft-hitnormal.wav
36,192,124737,1,0,0:0:0:30:soft-hitnormal.wav
329,192,124819,1,0,0:0:0:30:soft-hitnormal.wav
402,192,124902,1,0,0:0:0:30:soft-hitnormal.wav
182,192,124902,1,0,0:0:0:30:soft-hitnormal.wav
256,192,124984,1,0,0:0:0:30:soft-hitnormal.wav
329,192,125067,1,0,0:0:0:30:soft-hitnormal.wav
109,192,125067,1,0,0:0:0:30:soft-hitnormal.wav
475,192,125067,1,0,0:0:0:30:soft-hitnormal.wav
182,192,125149,1,0,0:0:0:30:soft-hitnormal.wav
256,192,125231,1,0,0:0:0:30:soft-hitnormal.wav
402,192,125231,1,0,0:0:0:30:soft-hitnormal.wav
36,192,125314,1,0,0:0:0:30:soft-hitnormal.wav
182,192,125396,1,0,0:0:0:30:soft-hitnormal.wav
329,192,125396,1,0,0:0:0:30:soft-hitnormal.wav
475,192,125396,1,0,0:0:0:30:soft-hitnormal.wav
109,192,125479,1,0,0:0:0:30:soft-hitnormal.wav
36,192,125561,1,0,0:0:0:30:soft-hitnormal.wav
256,192,125561,1,0,0:0:0:30:soft-hitnormal.wav
182,192,125643,1,0,0:0:0:30:soft-hitnormal.wav
109,192,125726,1,0,0:0:0:30:soft-hitnormal.wav
329,192,125726,1,0,0:0:0:30:soft-hitnormal.wav
402,192,125726,1,0,0:0:0:30:soft-hitnormal.wav
256,192,125808,1,0,0:0:0:30:soft-hitnormal.wav
182,192,125891,1,0,0:0:0:30:soft-hitnormal.wav
475,192,125891,1,0,0:0:0:30:soft-hitnormal.wav
402,192,125973,1,0,0:0:0:30:soft-hitnormal.wav
329,192,126056,1,0,0:0:0:30:soft-hitnormal.wav
109,192,126056,1,0,0:0:0:30:soft-hitnormal.wav
36,192,126056,1,0,0:0:0:30:soft-hitnormal.wav
182,192,126138,1,0,0:0:0:30:soft-hitnormal.wav
256,192,126220,1,0,0:0:0:30:soft-hitnormal.wav
402,192,126220,1,0,0:0:0:30:soft-hitnormal.wav
475,192,126303,1,0,0:0:0:30:soft-hitnormal.wav
182,192,126385,1,0,0:0:0:30:soft-hitnormal.wav
329,192,126385,1,0,0:0:0:30:soft-hitnormal.wav
36,192,126385,1,0,0:0:0:30:soft-hitnormal.wav
402,192,126468,1,0,0:0:0:30:soft-hitnormal.wav
109,192,126550,1,0,0:0:0:30:soft-hitnormal.wav
256,192,126550,1,0,0:0:0:30:soft-hitnormal.wav
329,192,126632,1,0,0:0:0:30:soft-hitnormal.wav
402,192,126715,1,0,0:0:0:30:soft-hitnormal.wav
475,192,126715,1,0,0:0:0:30:soft-hitnormal.wav
182,192,126715,1,0,0:0:0:30:soft-hitnormal.wav
256,192,126797,1,0,0:0:0:30:soft-hitnormal.wav
329,192,126880,1,0,0:0:0:30:soft-hitnormal.wav
109,192,126880,1,0,0:0:0:30:soft-hitnormal.wav
182,192,126962,1,0,0:0:0:30:soft-hitnormal.wav
256,192,127045,1,0,0:0:0:30:soft-hitnormal.wav
36,192,127045,1,0,0:0:0:30:soft-hitnormal.wav
475,192,127045,1,0,0:0:0:30:soft-hitnormal.wav
402,192,127127,1,0,0:0:0:30:soft-hitnormal.wav
329,192,127209,1,0,0:0:0:30:soft-hitnormal.wav
182,192,127209,1,0,0:0:0:30:soft-hitnormal.wav
109,192,127292,1,0,0:0:0:30:soft-hitnormal.wav
36,192,127374,1,0,0:0:0:30:soft-hitnormal.wav
256,192,127374,1,0,0:0:0:30:soft-hitnormal.wav
402,192,127374,1,0,0:0:0:30:soft-hitnormal.wav
182,192,127457,1,0,0:0:0:30:soft-hitnormal.wav
109,192,127539,1,0,0:0:0:30:soft-hitnormal.wav
329,192,127539,1,0,0:0:0:30:soft-hitnormal.wav
256,192,127621,1,0,0:0:0:30:soft-hitnormal.wav
182,192,127704,1,0,0:0:0:30:soft-hitnormal.wav
402,192,127704,1,0,0:0:0:30:soft-hitnormal.wav
475,192,127704,1,0,0:0:0:30:soft-hitnormal.wav
329,192,127786,1,0,0:0:0:30:soft-hitnormal.wav
256,192,127869,1,0,0:0:0:30:soft-hitnormal.wav
109,192,127869,1,0,0:0:0:30:soft-hitnormal.wav
329,192,127951,1,0,0:0:0:30:soft-hitnormal.wav
182,192,128034,1,0,0:0:0:30:soft-hitnormal.wav
36,192,128034,1,0,0:0:0:30:soft-hitnormal.wav
402,192,128034,1,0,0:0:0:30:soft-hitnormal.wav
256,192,128116,1,0,0:0:0:30:soft-hitnormal.wav
329,192,128198,1,0,0:0:0:30:soft-hitnormal.wav
475,192,128198,1,0,0:0:0:30:soft-hitnormal.wav
256,192,128281,1,0,0:0:0:30:soft-hitnormal.wav
182,192,128363,1,0,0:0:0:30:soft-hitnormal.wav
36,192,128363,1,0,0:0:0:30:soft-hitnormal.wav
329,192,128446,1,0,0:0:0:30:soft-hitnormal.wav
256,192,128528,1,0,0:0:0:30:soft-hitnormal.wav
109,192,128528,1,0,0:0:0:30:soft-hitnormal.wav
402,192,128611,1,0,0:0:0:30:soft-hitnormal.wav
182,192,128693,1,0,0:0:0:30:soft-hitnormal.wav
329,192,128693,1,0,0:0:0:30:soft-hitnormal.wav
36,192,128693,1,0,0:0:0:30:soft-hitnormal.wav
475,192,128775,1,0,0:0:0:30:soft-hitnormal.wav
109,192,128858,1,0,0:0:0:30:soft-hitnormal.wav
256,192,128858,1,0,0:0:0:30:soft-hitnormal.wav
329,192,128940,1,0,0:0:0:30:soft-hitnormal.wav
402,192,129023,1,0,0:0:0:30:soft-hitnormal.wav
475,192,129023,1,0,0:0:0:30:soft-hitnormal.wav
182,192,129023,1,0,0:0:0:30:soft-hitnormal.wav
36,192,129023,1,0,0:0:0:0:
256,192,129105,1,0,0:0:0:30:soft-hitnormal.wav
329,192,129187,1,0,0:0:0:30:soft-hitnormal.wav
109,192,129187,1,0,0:0:0:30:soft-hitnormal.wav
182,192,129270,1,0,0:0:0:30:soft-hitnormal.wav
256,192,129352,1,0,0:0:0:30:soft-hitnormal.wav
36,192,129352,1,0,0:0:0:30:soft-hitnormal.wav
402,192,129352,1,0,0:0:0:0:
475,192,129352,1,0,0:0:0:0:
109,192,129435,1,0,0:0:0:30:soft-hitnormal.wav
182,192,129517,1,0,0:0:0:30:soft-hitnormal.wav
329,192,129517,1,0,0:0:0:0:
402,192,129600,1,0,0:0:0:30:soft-hitnormal.wav
109,192,129682,1,0,0:0:0:30:soft-hitnormal.wav
36,192,129682,1,0,0:0:0:30:soft-hitnormal.wav
475,192,129682,1,0,0:0:0:0:
256,192,129682,1,0,0:0:0:0:
329,192,129764,1,0,0:0:0:0:
182,192,129847,1,0,0:0:0:30:soft-hitnormal.wav
402,192,129847,1,0,0:0:0:30:soft-hitnormal.wav
256,192,129929,1,0,0:0:0:0:
475,192,130012,1,0,0:0:0:30:soft-hitnormal.wav
36,192,130012,1,0,0:0:0:30:soft-hitnormal.wav
329,192,130012,1,0,0:0:0:0:
109,192,130012,1,0,0:0:0:0:
182,192,130094,1,0,0:0:0:0:
402,192,130094,1,0,0:0:0:0:
256,192,130176,1,0,0:0:0:0:
329,192,130176,1,0,0:0:0:0:
402,192,130259,1,0,0:0:0:30:soft-hitnormal.wav
182,192,130259,1,0,0:0:0:0:
475,192,130341,1,0,0:0:0:30:soft-hitnormal.wav
109,192,130341,1,0,0:0:0:30:soft-hitnormal.wav
36,192,130341,1,0,0:0:0:30:soft-hitnormal.wav
256,192,130341,1,0,0:0:0:0:
109,192,130589,1,0,0:0:0:30:soft-hitnormal.wav
182,192,130589,1,0,0:0:0:30:soft-hitnormal.wav
329,192,130589,1,0,0:0:0:30:soft-hitnormal.wav
402,192,130589,1,0,0:0:0:30:soft-hitnormal.wav
36,192,130836,1,0,0:0:0:30:soft-hitnormal.wav
182,192,130836,1,0,0:0:0:30:soft-hitnormal.wav
475,192,130836,1,0,0:0:0:30:soft-hitnormal.wav
402,192,130836,1,0,0:0:0:30:soft-hitnormal.wav
256,192,130918,1,0,0:0:0:30:soft-hitnormal.wav
329,192,131001,1,0,0:0:0:30:soft-hitnormal.wav
36,192,131083,1,0,0:0:0:30:soft-hitnormal.wav
182,192,131083,1,0,0:0:0:30:soft-hitnormal.wav
109,192,131083,1,0,0:0:0:30:soft-hitnormal.wav
402,192,131083,1,0,0:0:0:30:soft-hitnormal.wav
109,192,131330,1,0,0:0:0:30:soft-hitnormal.wav
182,192,131330,1,0,0:0:0:30:soft-hitnormal.wav
256,192,131330,1,0,0:0:0:30:soft-hitnormal.wav
475,192,131330,1,0,0:0:0:30:soft-hitnormal.wav
36,192,131578,1,0,0:0:0:30:soft-hitnormal.wav
329,192,131578,1,0,0:0:0:30:soft-hitnormal.wav
402,192,131578,1,0,0:0:0:30:soft-hitnormal.wav
109,192,131578,1,0,0:0:0:30:soft-hitnormal.wav
256,192,131660,1,0,0:0:0:30:soft-hitnormal.wav
182,192,131742,1,0,0:0:0:30:soft-hitnormal.wav
109,192,131825,1,0,0:0:0:30:soft-hitnormal.wav
402,192,131825,1,0,0:0:0:30:soft-hitnormal.wav
475,192,131825,1,0,0:0:0:30:soft-hitnormal.wav
329,192,131825,1,0,0:0:0:30:soft-hitnormal.wav
329,192,132072,1,0,0:0:0:30:soft-hitnormal.wav
402,192,132072,1,0,0:0:0:30:soft-hitnormal.wav
475,192,132072,1,0,0:0:0:30:soft-hitnormal.wav
256,192,132072,1,0,0:0:0:30:soft-hitnormal.wav
109,192,132154,1,0,0:0:0:30:soft-hitnormal.wav
182,192,132154,1,0,0:0:0:30:soft-hitnormal.wav
36,192,132154,1,0,0:0:0:30:soft-hitnormal.wav
256,192,132319,1,0,0:0:0:30:soft-hitnormal.wav
475,192,132319,1,0,0:0:0:30:soft-hitnormal.wav
329,192,132402,1,0,0:0:0:30:soft-hitnormal.wav
402,192,132484,1,0,0:0:0:30:soft-hitnormal.wav
182,192,132484,1,0,0:0:0:30:soft-hitnormal.wav
109,192,132484,1,0,0:0:0:30:soft-hitnormal.wav
36,192,132484,1,0,0:0:0:30:soft-hitnormal.wav
182,192,132649,1,0,0:0:0:30:soft-hitnormal.wav
256,192,132649,1,0,0:0:0:30:soft-hitnormal.wav
475,192,132649,1,0,0:0:0:30:soft-hitnormal.wav
36,192,132649,1,0,0:0:0:30:soft-hitnormal.wav
329,192,132814,1,0,0:0:0:30:soft-hitnormal.wav
402,192,132814,1,0,0:0:0:30:soft-hitnormal.wav
109,192,132814,1,0,0:0:0:30:soft-hitnormal.wav
256,192,132979,1,0,0:0:0:30:soft-hitnormal.wav
402,192,132979,1,0,0:0:0:30:soft-hitnormal.wav
475,192,132979,1,0,0:0:0:30:soft-hitnormal.wav
36,192,132979,1,0,0:0:0:30:soft-hitnormal.wav
329,192,133143,1,0,0:0:0:30:soft-hitnormal.wav
402,192,133143,1,0,0:0:0:30:soft-hitnormal.wav
182,192,133143,1,0,0:0:0:0:
36,192,133308,1,0,0:0:0:30:soft-hitnormal.wav
109,192,133308,1,0,0:0:0:30:soft-hitnormal.wav
256,192,133308,1,0,0:0:0:30:soft-hitnormal.wav
475,192,133308,1,0,0:0:0:30:soft-hitnormal.wav
109,192,133473,1,0,0:0:0:30:soft-hitnormal.wav
182,192,133473,1,0,0:0:0:30:soft-hitnormal.wav
329,192,133473,1,0,0:0:0:0:
36,192,133638,1,0,0:0:0:30:soft-hitnormal.wav
256,192,133638,1,0,0:0:0:30:soft-hitnormal.wav
402,192,133638,1,0,0:0:0:30:soft-hitnormal.wav
475,192,133638,1,0,0:0:0:30:soft-hitnormal.wav
329,192,133803,1,0,0:0:0:30:soft-hitnormal.wav
402,192,133803,1,0,0:0:0:30:soft-hitnormal.wav
182,192,133803,1,0,0:0:0:0:
36,192,133968,1,0,0:0:0:30:soft-hitnormal.wav
256,192,133968,1,0,0:0:0:30:soft-hitnormal.wav
475,192,133968,1,0,0:0:0:30:soft-hitnormal.wav
109,192,133968,1,0,0:0:0:30:soft-hitnormal.wav
329,192,134132,128,0,135616:0:0:0:30:soft-hitnormal.wav
