osu file format v14

[General]
AudioFilename: jioyi - Platinum.mp3
AudioLeadIn: 0
PreviewTime: 27237
Countdown: 0
SampleSet: Soft
StackLeniency: 0.2
Mode: 0
LetterboxInBreaks: 0
WidescreenStoryboard: 0

[Editor]
Bookmarks: 58226,59050
DistanceSpacing: 1
BeatDivisor: 4
GridSize: 4
TimelineZoom: 2.199999

[Metadata]
Title:Platinum
TitleUnicode:Platinum
Artist:jioyi
ArtistUnicode:jioyi
Creator:09kami
Version:yf's Extra
Source:VOEZ
Tags:AD:Nearly 120 seconds rrtyui IamKwaN Mei z1085684963 DreaM117er yf_bmp m1223961117 pw384 384059043
BeatmapID:988197
BeatmapSetID:449225

[Difficulty]
HPDrainRate:5
CircleSize:4.5
OverallDifficulty:8
ApproachRate:9.4
SliderMultiplier:1.6
SliderTickRate:1

[Events]
//Background and Video events
0,0,"1.png",0,0
//Break Periods
2,59250,69046
//Storyboard Layer 0 (Background)
//Storyboard Layer 1 (Fail)
//Storyboard Layer 2 (Pass)
//Storyboard Layer 3 (Foreground)
//Storyboard Sound Samples

[TimingPoints]
1029,329.67032967033,4,2,90,60,1,0
1029,-133.333333333333,4,2,0,60,0,0
6138,-100,4,2,90,20,0,0
6303,-66.6666666666667,4,2,90,60,0,0
7292,-100,4,2,90,60,0,0
7622,-66.6666666666667,4,2,90,60,0,0
8611,-100,4,2,90,60,0,0
8941,-58.8235294117647,4,2,90,60,0,0
9435,-66.6666666666667,4,2,90,60,0,0
9930,-100,4,2,90,60,0,0
10259,-66.6666666666667,4,2,90,60,0,0
11248,-100,4,2,90,60,0,0
11578,-66.6666666666667,4,2,90,60,0,0
12237,-62.5,4,2,90,60,0,0
12897,-58.8235294117647,4,2,90,60,0,0
13556,-55.5555555555556,4,2,90,60,0,0
14875,-50,4,2,90,60,0,0
15534,-50,4,2,90,60,0,0
15864,-50,4,2,90,60,0,0
16358,-66.6666666666667,4,2,90,60,0,0
16523,-133.333333333333,4,2,90,60,0,0
16853,-66.6666666666667,4,2,90,60,0,0
18171,-83.3333333333333,4,2,90,60,0,0
18501,-66.6666666666667,4,2,90,60,0,0
18831,-58.8235294117647,4,2,90,60,0,0
19490,-66.6666666666667,4,2,90,60,0,0
20149,-66.6666666666667,4,2,90,60,0,0
20809,-100,4,2,90,60,0,0
22127,-66.6666666666667,4,2,90,60,0,0
23116,-55.5555555555556,4,2,90,60,0,0
23446,-83.3333333333333,4,2,90,60,0,0
23776,-66.6666666666667,4,2,90,60,0,0
24270,-71.4285714285714,4,2,90,60,0,0
24435,-76.9230769230769,4,2,90,60,0,0
24600,-83.3333333333333,4,2,90,60,0,0
24765,-200,4,2,90,60,0,0
26743,-200,4,2,0,60,0,0
27402,-66.6666666666667,4,2,90,60,0,0
34655,-66.6666666666667,4,2,90,60,0,0
34779,-66.6666666666667,4,2,90,70,0,0
34861,-66.6666666666667,4,2,90,80,0,0
34902,-66.6666666666667,4,2,90,90,0,0
34985,-66.6666666666667,4,2,90,60,0,0
36592,-200,4,2,90,20,0,0
36757,-133.333333333333,4,2,90,30,0,0
36921,-100,4,2,90,40,0,0
37086,-83.3333333333333,4,2,90,50,0,0
37251,-66.6666666666667,4,2,90,60,0,0
37416,-57.1428571428571,4,2,90,60,0,0
37622,-55.5555555555556,4,2,90,60,0,0
37952,-66.6666666666667,4,2,90,60,0,1
40259,-100,4,2,90,60,0,1
40589,-66.6666666666667,4,2,90,60,0,1
45616,-66.6666666666667,4,2,0,60,0,1
46523,-66.6666666666667,4,2,90,60,0,1
48336,-133.333333333333,4,2,90,60,0,0
48831,-66.6666666666667,4,2,90,60,0,1
50809,-100,4,2,90,60,0,1
51138,-66.6666666666667,4,2,90,60,0,1
56413,-66.6666666666667,4,2,90,40,0,1
56908,-66.6666666666667,4,2,90,50,0,1
57402,-66.6666666666667,4,2,90,60,0,1
57732,-66.6666666666667,4,2,90,60,0,0
58226,-83.3333333333333,4,2,90,60,0,0
58721,-66.6666666666667,4,2,90,60,0,0
69600,-200,4,2,0,60,0,0
80149,-200,4,2,0,30,0,0
85424,-200,4,2,0,50,0,0
88556,-133.333333333333,4,2,90,60,0,0
89050,-100,4,2,90,60,0,0
89545,-76.9230769230769,4,2,90,60,0,0
90699,-76.9230769230769,4,2,90,60,0,0
91358,-133.333333333333,4,2,90,60,0,0
91688,-66.6666666666667,4,2,90,60,0,0
91853,-100,4,2,90,60,0,0
93666,-76.9230769230769,4,2,90,60,0,0
93996,-133.333333333333,4,2,90,60,0,0
94325,-66.6666666666667,4,2,90,60,0,0
94490,-100,4,2,90,60,0,0
94820,-100,4,2,0,60,0,0
95479,-66.6666666666667,4,2,0,60,0,0
95974,-76.9230769230769,4,2,90,60,0,0
96633,-133.333333333333,4,2,90,60,0,0
96963,-66.6666666666667,4,2,90,60,0,0
97292,-100,4,2,90,60,0,0
98611,-133.333333333333,4,2,90,60,0,0
99765,-200,4,2,90,60,0,0
100094,-200,4,2,0,60,0,0
100177,-200,4,2,90,60,0,0
100919,-100,4,2,90,60,0,0
101248,-100,4,2,90,60,0,0
110809,-76.9230769230769,4,2,90,60,0,0
111468,-133.333333333333,4,2,90,60,0,0
111798,-149.253731343284,4,2,90,60,0,1
113116,-83.3333333333333,4,2,90,60,0,1
113446,-66.6666666666667,4,2,90,60,0,1
113776,-58.8235294117647,4,2,90,60,0,1
114105,-100,4,2,90,60,0,1
116743,-76.9230769230769,4,2,90,60,0,1
117402,-149.253731343284,4,2,90,60,0,1
118391,-100,4,2,90,60,0,1
118721,-76.9230769230769,4,2,90,60,0,1
119050,-66.6666666666667,4,2,90,60,0,1
119710,-66.6666666666667,4,2,90,60,0,0
121688,-100,4,2,90,60,0,0
122347,-100,4,2,90,60,0,1
122677,-149.253731343284,4,2,90,60,0,1
123007,-100,4,2,90,60,0,1
123666,-83.3333333333333,4,2,90,60,0,1
123996,-66.6666666666667,4,2,90,60,0,1
124325,-58.8235294117647,4,2,90,60,0,1
124985,-100,4,2,90,60,0,1
127292,-76.9230769230769,4,2,90,60,0,1
127622,-100,4,2,0,60,0,1
130754,-66.6666666666667,4,2,90,60,0,1
131248,-55.5555555555556,4,2,90,60,0,1
131743,-50,4,2,90,60,0,1
132897,-50,4,2,90,60,0,0

[Colours]
Combo1 : 174,0,87
Combo2 : 188,188,188
Combo3 : 81,81,81
Combo4 : 128,128,255

[HitObjects]
352,340,1029,5,4,0:0:0:0:
424,320,1193,1,0,0:0:0:0:
352,188,1358,2,0,P|348:154|356:120,1,60.0000022888184,0|0,3:0|0:0,0:0:0:0:
368,264,1688,1,0,0:0:0:0:
352,128,1853,2,0,P|294:142|247:108,1,120.000004577637,0|2,3:0|0:0,0:0:0:0:
136,20,2347,5,0,0:0:0:0:
64,44,2511,1,0,0:0:0:0:
136,172,2677,2,0,P|139:205|132:240,1,60.0000022888184,0|0,3:0|0:0,0:0:0:0:
120,96,3006,1,0,0:0:0:0:
134,231,3171,2,0,B|174:224|174:224|208:243|208:243|247:237,1,120.000004577637,0|2,3:0|0:0,0:0:0:0:
460,248,3666,5,0,0:0:0:0:
436,176,3830,1,0,0:0:0:0:
307,240,3995,2,0,B|275:242|275:242|248:237,1,60.0000022888184,0|0,3:0|0:0,0:0:0:0:
384,232,4325,1,0,0:0:0:0:
247,237,4490,2,0,B|260:298|260:298|233:348,1,120.000004577637,0|2,3:0|0:0,0:0:0:0:
256,192,4985,12,0,6138,0:0:0:0:
88,56,6303,6,0,L|76:180,1,120.000004577637,2|0,3:1|0:0,0:0:0:0:
76,284,6550,2,0,L|64:160,1,120.000004577637,2|0,3:1|0:0,0:0:0:0:
180,56,6798,2,0,P|200:120|168:160,1,120.000004577637,2|0,3:1|0:0,0:0:0:0:
172,276,7045,2,0,P|152:212|184:172,1,120.000004577637,2|0,3:1|0:0,0:0:0:0:
330,152,7292,2,2,B|426:164,1,80,2|0,3:1|3:0,0:1:0:0:
409,161,7539,1,0,3:0:0:0:
409,161,7622,6,0,L|285:173,1,120.000004577637,2|0,3:1|0:0,0:0:0:0:
181,173,7869,2,0,L|305:185,1,120.000004577637,2|0,3:1|0:0,0:0:0:0:
392,268,8117,2,0,P|328:248|288:280,1,120.000004577637,2|0,3:1|0:0,0:0:0:0:
172,276,8364,2,0,P|236:296|276:264,1,120.000004577637,2|0,3:1|0:0,0:0:0:0:
284,96,8611,2,2,B|272:0,1,80,2|0,3:1|3:1,0:1:0:0:
274,17,8858,1,0,3:1:0:0:
274,17,8941,6,0,B|376:8|376:8|348:44,1,136.000002593994,2|0,3:1|0:0,0:0:0:0:
284,96,9188,2,0,B|182:105|182:105|210:69,1,136.000002593994,2|0,3:1|0:0,0:0:0:0:
360,52,9435,2,0,L|488:60,1,120.000004577637,2|0,3:1|0:0,0:0:0:0:
421,177,9682,2,0,L|293:185,1,120.000004577637,2|0,3:1|0:0,0:0:0:0:
202,78,9930,2,2,B|108:68,1,80,2|0,3:1|3:1,0:1:0:0:
122,69,10177,1,0,3:1:0:0:
122,69,10259,6,0,B|100:144|100:144|112:183,1,120.000004577637,2|0,3:1|0:0,0:0:0:0:
176,268,10507,2,0,B|198:193|198:193|185:153,1,120.000004577637,2|0,3:1|0:0,0:0:0:0:
0,196,10754,2,0,L|128:200,1,120.000004577637,2|0,3:1|0:0,0:0:0:0:
300,132,11001,2,0,L|172:136,1,120.000004577637,2|0,3:1|0:0,0:0:0:0:
96,280,11248,2,2,B|84:372,1,80,2|0,3:1|3:1,0:1:0:0:
85,359,11496,1,0,3:0:0:0:
85,359,11578,6,0,B|152:332|140:384|201:359,1,120.000004577637,2|0,3:1|0:0,0:0:0:0:
272,311,11825,2,0,P|292:256|268:203,1,120.000004577637,2|0,3:1|0:0,0:0:0:0:
156,236,12072,2,0,L|208:292,1,60.0000022888184,2|0,3:1|3:0,0:0:0:0:
340,367,12237,6,0,P|403:363|467:370,1,128,2|0,3:1|2:0,0:0:0:0:
432,280,12485,2,0,P|426:224|436:148,1,128,2|0,3:1|0:0,0:0:0:0:
512,36,12732,2,0,L|500:112,1,64,2|0,3:1|3:0,0:0:0:0:
352,132,12897,6,0,B|282:109|294:173|224:154,1,136.000002593994,2|0,3:1|0:0,0:0:0:0:
148,120,13144,2,0,P|116:64|140:0,1,136.000002593994,2|0,3:1|0:0,0:0:0:0:
264,20,13391,2,0,L|208:80,1,68.0000012969971,2|0,3:1|3:1,0:0:0:0:
12,208,13556,6,0,P|83:212|154:205,1,143.999995605469,2|0,3:1|0:0,0:0:0:0:
248,252,13803,2,0,P|224:284|248:384,1,143.999995605469,2|0,3:1|0:0,0:0:0:0:
392,264,14050,2,0,L|332:204,1,71.9999978027344,2|0,3:1|3:0,0:0:0:0:
216,69,14215,6,0,P|204:102|209:137,1,71.9999978027344,0|0,3:0|0:0,0:0:0:0:
240,320,14380,2,0,P|252:286|247:251,1,71.9999978027344,0|0,1:0|0:0,0:0:0:0:
229,17,14545,6,0,P|216:50|221:85,1,71.9999978027344,0|0,1:0|0:0,0:0:0:0:
252,267,14710,2,0,P|264:233|259:198,1,71.9999978027344,0|0,1:0|0:0,0:0:0:0:
124,88,14875,6,0,L|136:168,1,80,0|0,1:0|0:0,0:0:0:0:
329,292,15039,2,0,L|341:212,1,80,0|0,1:0|1:0,0:0:0:0:
112,72,15204,6,0,L|124:152,1,80,0|0,1:0|0:0,0:0:0:0:
340,308,15369,2,0,L|352:228,1,80,0|0,1:0|1:0,0:0:0:0:
92,292,15534,6,0,B|112:296|112:296|128:285,1,40,2|2,2:0|0:0,0:0:0:0:
128,285,15864,5,0,1:0:0:0:
132,309,15946,1,8,1:3:0:0:
136,333,16029,6,0,B|172:352|172:352|184:224,1,160,4|0,1:2|0:0,0:0:0:0:
312,172,16276,1,8,0:3:0:0:
244,152,16358,6,0,B|240:172|240:172|252:224,1,60.0000022888184,4|0,0:3|0:0,0:0:0:0:
408,344,16523,6,0,P|450:353|488:330,1,90.0000034332277,0|0,1:0|0:0,0:0:0:0:
500,312,16853,6,0,B|472:232|520:168|520:168|484:200|438:182,1,240.000009155274,4|0,0:1|0:0,0:0:0:0:
468,104,17347,1,0,3:0:0:0:
468,104,17430,1,0,3:0:0:0:
468,104,17512,2,0,B|412:0|412:0|384:118,1,240.000009155274,0|0,1:0|3:0,0:0:0:0:
408,344,18007,1,0,3:0:0:0:
320,324,18171,6,0,L|316:348,1,23.9999992675781,0|0,3:0|0:0,0:0:0:0:
288,316,18254,2,0,L|284:340,1,23.9999992675781,0|0,3:0|0:0,0:0:0:0:
252,304,18336,6,0,L|248:280,1,23.9999992675781,0|0,3:0|0:0,0:0:0:0:
220,312,18419,2,0,L|216:288,1,23.9999992675781,0|0,3:0|0:0,0:0:0:0:
182,323,18501,6,0,B|132:308|100:344|100:344|72:304|20:316,1,180.000006866455,0|0,3:0|0:0,0:0:0:0:
12,332,18831,2,0,P|0:303|3:267,1,68.0000012969971,8|0,1:0|0:0,0:0:0:0:
159,171,18996,2,0,P|163:204|151:235,1,68.0000012969971,0|0,3:0|0:0,0:0:0:0:
0,184,19160,2,0,B|12:40|12:40|30:96,1,204.000003890991,0|0,3:0|0:0,0:0:0:0:
83,190,19490,6,0,B|122:171|175:190|175:190|159:183|159:170,1,120.000004577637,0|0,3:0|0:0,0:0:0:0:
352,116,19737,2,0,L|228:128,1,120.000004577637,0|0,3:0|0:0,0:0:0:0:
128,32,19985,2,0,L|160:88,1,60.0000022888184,0|0,3:0|0:0,0:0:0:0:
252,208,20149,6,0,B|268:248|268:248|260:296,1,90.0000034332277,8|0,1:0|0:0,0:0:0:0:
220,364,20314,2,0,B|328:368,1,90.0000034332277,2|0,0:0|0:0,0:0:0:0:
388,360,20479,2,0,B|372:320|372:320|380:272,1,90.0000034332277,0|0,3:0|0:0,0:0:0:0:
420,204,20644,2,0,B|312:200,1,90.0000034332277,8|0,1:0|0:0,0:0:0:0:
252,208,20809,5,2,1:2:0:0:
288,136,21138,5,2,1:2:0:0:
296,276,21303,2,0,L|280:316,1,40,2|0,1:2|0:0,0:0:0:0:
176,220,21468,1,2,1:2:0:0:
273,98,21633,6,0,L|289:138,1,40,10|8,1:2|0:2,0:0:0:0:
224,16,21798,2,0,L|208:56,1,40,2|8,1:2|1:2,0:0:0:0:
176,220,21963,1,8,0:0:0:0:
312,20,22127,6,0,B|164:-8|224:88|84:60,1,240.000009155274,4|2,0:1|1:2,0:0:0:0:
0,60,22622,2,0,P|4:90|20:116,1,60.0000022888184,2|2,0:0|0:0,0:0:0:0:
16,284,22787,2,0,P|59:244|66:186,1,120.000004577637,0|0,0:0|3:0,0:0:0:0:
85,60,23116,6,0,B|217:34|163:120|289:95,1,215.999993408203,8|0,1:0|0:2,0:0:0:0:
404,80,23446,6,0,L|428:84,1,23.9999992675781,0|0,3:0|0:0,0:0:0:0:
396,112,23529,2,0,L|420:116,1,23.9999992675781,0|0,3:0|0:0,0:0:0:0:
384,148,23611,6,0,L|360:152,1,23.9999992675781,0|0,3:0|0:0,0:0:0:0:
392,180,23694,2,0,L|368:184,1,23.9999992675781,0|0,3:0|0:0,0:0:0:0:
403,218,23776,6,0,L|468:232,1,60.0000022888184,8|0,1:0|0:0,0:0:0:0:
446,304,23941,2,0,L|388:292,1,60.0000022888184,4|0,0:3|0:0,0:0:0:0:
313,380,24105,6,0,L|372:368,1,60.0000022888184,2|0,0:2|0:0,0:0:0:0:
388,292,24270,6,0,L|333:303,1,55.9999982910157,2|0,3:2|0:0,0:0:0:0:
352,228,24435,6,0,L|403:218,1,51.999997619629,0|0,1:0|0:0,0:0:0:0:
416,144,24600,6,0,L|351:158,1,47.9999985351563,2|0,0:2|0:0,0:0:0:0:
256,92,24765,5,8,0:0:0:0:
256,112,25094,1,8,0:0:0:0:
256,132,25424,1,8,0:0:0:0:
256,152,25754,1,8,0:0:0:0:
256,172,26083,6,0,L|256:264,1,80,8|8,0:0|0:0,1:1:0:0:
256,252,26578,1,2,0:0:0:0:
224,80,26743,2,0,L|224:108,1,20,0|0,3:2|3:2,0:0:0:0:
332,184,26908,2,0,L|332:212,1,20,0|0,3:0|3:0,0:0:0:0:
248,332,27072,1,8,1:3:0:0:
256,352,27402,5,4,3:1:0:0:
164,272,27567,2,0,L|168:212,1,60.0000022888184,2|0,3:1|0:0,0:0:0:0:
64,272,27732,5,8,1:2:0:0:
156,192,27897,2,0,L|152:132,1,60.0000022888184,2|0,0:1|0:0,0:0:0:0:
256,192,28061,5,0,3:0:0:0:
164,112,28226,2,0,P|160:76|168:52,1,60.0000022888184,2|0,0:1|0:0,0:0:0:0:
68,112,28391,5,8,1:2:0:0:
160,32,28556,2,0,L|100:24,1,60.0000022888184,2|0,0:1|0:0,0:0:0:0:
256,32,28721,5,0,3:0:0:0:
4,120,28886,2,0,P|30:132|60:130,1,60.0000022888184,2|0,0:1|0:0,0:0:0:0:
248,8,29050,5,8,1:2:0:0:
68,156,29215,2,0,P|55:182|57:212,1,60.0000022888184,2|0,0:1|0:0,0:0:0:0:
248,320,29380,5,0,3:0:0:0:
72,236,29545,2,0,L|0:240,1,60.0000022888184,2|0,0:1|0:0,0:0:0:0:
240,344,29710,6,0,P|248:316|244:284,1,60.0000022888184,8|0,1:2|0:0,0:0:0:0:
84,260,29875,2,0,P|76:288|79:319,1,60.0000022888184,8|0,0:3|0:0,0:0:0:0:
252,364,30039,5,0,3:0:0:0:
344,284,30204,2,0,L|340:224,1,60.0000022888184,2|0,0:1|0:0,0:0:0:0:
444,284,30369,5,8,1:2:0:0:
352,204,30534,2,0,L|356:144,1,60.0000022888184,2|0,0:1|0:0,0:0:0:0:
252,204,30698,5,0,3:0:0:0:
344,124,30863,2,0,P|348:88|340:64,1,60.0000022888184,2|0,0:1|0:0,0:0:0:0:
440,124,31028,5,8,1:2:0:0:
348,44,31193,2,0,L|408:36,1,60.0000022888184,2|0,0:1|0:0,0:0:0:0:
252,44,31358,5,0,3:0:0:0:
504,132,31523,2,0,P|478:144|448:142,1,60.0000022888184,2|0,0:1|0:0,0:0:0:0:
260,20,31687,5,8,1:2:0:0:
440,168,31852,2,0,P|453:194|451:224,1,60.0000022888184,2|0,0:1|0:0,0:0:0:0:
260,332,32017,5,0,3:0:0:0:
436,248,32182,2,0,P|465:245|492:257,1,60.0000022888184,0|0,3:1|0:0,0:0:0:0:
267,355,32347,6,0,P|239:272|260:185,1,180.000006866455,8|0,1:2|0:0,0:0:0:0:
280,168,32677,5,4,3:1:0:0:
452,328,32842,2,0,P|422:330|395:318,1,60.0000022888184,2|0,0:1|0:0,0:0:0:0:
272,140,33007,5,8,1:2:0:0:
100,300,33172,2,0,P|129:302|156:290,1,60.0000022888184,2|0,0:1|0:0,0:0:0:0:
276,108,33336,5,0,3:0:0:0:
436,248,33501,2,0,P|413:228|402:201,1,60.0000022888184,2|0,0:1|0:0,0:0:0:0:
276,80,33666,5,8,1:2:0:0:
116,220,33831,2,0,P|138:200|149:173,1,60.0000022888184,2|0,0:1|0:0,0:0:0:0:
272,52,33996,5,0,3:0:0:0:
440,128,34161,2,0,P|469:133|496:122,1,60.0000022888184,2|0,0:1|0:0,0:0:0:0:
280,24,34325,5,8,1:2:0:0:
111,100,34490,2,0,P|81:105|54:94,1,60.0000022888184,2|0,3:1|0:0,0:0:0:0:
256,192,34655,6,0,L|264:224,7,30.0000011444092,0|0|0|0|0|0|0|0,3:0|0:0|0:0|0:0|0:0|0:0|0:0|0:0,0:0:0:0:
256,252,34985,1,8,1:2:0:0:
48,320,35149,1,8,0:3:0:0:
256,252,35314,5,0,3:0:0:0:
464,320,35479,2,0,L|404:320,1,60.0000022888184,2|0,0:1|0:0,0:0:0:0:
256,112,35644,5,8,1:2:0:0:
48,180,35809,2,0,L|108:180,1,60.0000022888184,2|0,0:1|0:0,0:0:0:0:
256,84,35974,5,0,3:0:0:0:
464,16,36139,2,0,L|404:16,1,60.0000022888184,2|0,0:1|0:0,0:0:0:0:
256,224,36304,5,8,1:2:0:0:
48,156,36469,2,0,L|108:156,1,60.0000022888184,2|0,3:1|0:0,0:0:0:0:
424,168,36633,6,0,L|396:156,1,20,0|0,3:0|1:0,0:0:0:0:
172,212,36798,6,0,L|168:248,1,30.0000011444092,0|0,1:0|1:0,0:0:0:0:
340,136,36963,6,0,L|298:140,1,40,0|0,1:0|1:0,0:0:0:0:
124,300,37127,6,0,L|140:348,1,47.9999985351563,0|0,1:0|1:0,0:0:0:0:
352,208,37292,5,0,1:0:0:0:
405,160,37375,1,0,1:0:0:0:
396,92,37457,1,0,1:0:0:0:
336,60,37539,1,0,1:0:0:0:
268,78,37622,6,0,B|246:31|174:47|170:103|170:103|146:143|104:128,1,215.999993408203,8|0,1:2|0:0,0:0:0:0:
32,120,37952,70,0,P|32:144|52:180,1,60.0000022888184,4|0,3:1|0:0,0:0:0:0:
100,256,38116,2,0,P|114:229|115:200,1,60.0000022888184,2|0,0:1|0:0,0:0:0:0:
32,284,38281,5,8,1:2:0:0:
88,328,38364,2,0,P|117:327|144:313,1,60.0000022888184,2|0,0:1|0:0,0:0:0:0:
256,172,38529,1,2,0:2:0:0:
256,172,38611,70,0,L|260:236,1,60.0000022888184,0|0,3:2|0:0,0:0:0:0:
380,320,38776,2,0,L|384:256,1,60.0000022888184,2|0,0:1|0:0,0:0:0:0:
192,256,38941,5,8,1:2:0:0:
248,304,39023,2,0,L|312:300,1,60.0000022888184,2|0,0:1|0:0,0:0:0:0:
444,212,39188,1,2,0:0:0:0:
444,212,39270,70,0,P|457:240|456:284,1,60.0000022888184,0|0,3:2|0:0,0:0:0:0:
376,188,39435,5,2,0:2:0:0:
388,120,39518,2,0,L|400:48,1,60.0000022888184,2|8,0:1|1:2,0:0:0:0:
156,92,39682,5,0,0:0:0:0:
172,108,39765,2,0,P|205:111|236:96,1,60.0000022888184,2|0,0:0|0:0,0:0:0:0:
344,16,39930,5,2,3:1:0:0:
272,0,40012,2,0,P|272:27|288:64,1,60.0000022888184,2|2,0:1|0:0,0:0:0:0:
376,188,40177,5,0,0:1:0:0:
320,144,40259,2,0,B|290:144|290:144|238:179|238:179|209:179,1,120,10|0,1:2|0:0,0:0:0:0:
158,230,40589,70,0,P|143:205|140:176,1,60.0000022888184,0|2,3:2|0:0,0:0:0:0:
108,68,40754,2,0,P|104:97|89:122,1,60.0000022888184,2|2,0:1|0:0,0:0:0:0:
8,260,40919,5,8,1:2:0:0:
11,192,41001,2,0,L|16:130,1,60.0000022888184,2|0,0:1|0:0,0:0:0:0:
108,284,41166,1,2,0:2:0:0:
124,300,41248,6,0,P|164:308|196:296,1,60.0000022888184,0|0,3:0|0:0,0:0:0:0:
240,256,41413,1,2,0:1:0:0:
254,328,41496,6,0,P|241:355|240:385,2,60.0000022888184,0|8|2,0:1|1:2|0:0,0:0:0:0:
364,351,41743,2,0,P|341:370|312:371,1,60.0000022888184,2|2,0:2|0:2,0:0:0:0:
211,179,41908,5,2,3:2:0:0:
208,156,41991,1,0,0:0:0:0:
204,132,42073,1,2,0:0:0:0:
280,144,42155,5,2,0:0:0:0:
276,120,42237,1,8,1:2:0:0:
272,96,42320,1,2,0:0:0:0:
348,112,42402,5,0,0:0:0:0:
348,112,42485,1,2,0:0:0:0:
340,184,42567,5,2,3:2:0:0:
337,207,42650,1,0,0:0:0:0:
333,231,42732,1,0,3:3:0:0:
409,219,42814,5,2,0:0:0:0:
405,243,42896,1,8,1:2:0:0:
401,267,42979,1,2,0:0:0:0:
477,251,43061,5,0,3:2:0:0:
477,251,43144,1,2,3:2:0:0:
472,180,43226,70,0,P|477:147|501:123,1,60.0000022888184,4|0,3:1|0:0,0:0:0:0:
392,52,43391,2,0,P|412:73|418:102,1,60.0000022888184,2|0,0:1|0:0,0:0:0:0:
401,267,43556,5,8,1:2:0:0:
401,267,43638,2,0,L|392:336,1,60.0000022888184,2|0,0:1|0:0,0:0:0:0:
184,268,43803,1,2,0:2:0:0:
204,282,43885,70,0,P|231:288|268:278,1,60.0000022888184,0|0,3:2|0:0,0:0:0:0:
352,158,44050,2,0,L|288:154,1,60.0000022888184,2|0,0:1|0:0,0:0:0:0:
288,346,44215,5,8,1:2:0:0:
332,288,44297,2,0,L|328:224,1,60.0000022888184,2|0,0:1|0:0,0:0:0:0:
244,94,44462,1,2,0:0:0:0:
244,94,44544,70,0,P|272:81|316:82,1,60.0000022888184,0|0,3:2|0:0,0:0:0:0:
220,162,44709,5,2,0:2:0:0:
152,150,44792,2,0,L|80:138,1,60.0000022888184,2|8,0:1|1:2,0:0:0:0:
124,382,44956,5,0,0:0:0:0:
140,366,45039,2,0,P|143:333|128:302,1,60.0000022888184,2|0,0:0|0:0,0:0:0:0:
48,194,45204,5,2,3:1:0:0:
32,266,45286,2,0,P|59:266|96:250,1,60.0000022888184,2|2,0:1|0:0,0:0:0:0:
176,84,45451,1,2,0:2:0:0:
152,150,45534,5,8,1:2:0:0:
152,150,45616,1,0,3:0:0:0:
152,150,45699,1,0,3:0:0:0:
152,150,45781,1,0,3:0:0:0:
176,216,45864,5,0,1:0:0:0:
212,232,45946,1,0,3:0:0:0:
252,228,46029,1,0,3:0:0:0:
284,200,46111,1,0,3:0:0:0:
292,160,46193,5,0,1:0:0:0:
336,192,46276,1,0,3:0:0:0:
388,196,46358,1,0,3:0:0:0:
432,164,46441,1,2,3:2:0:0:
444,96,46523,5,2,1:1:0:0:
432,164,46605,1,0,1:0:0:0:
452,232,46688,1,2,1:2:0:0:
500,284,46770,1,2,1:1:0:0:
488,356,46853,5,0,1:0:0:0:
488,356,46935,1,2,1:2:0:0:
488,356,47018,6,0,L|428:365,1,60.0000022888184,2|2,1:1|1:2,0:0:0:0:
188,360,47182,6,0,L|240:356,1,30.0000011444092,4|0,1:2|0:0,0:0:0:0:
180,212,47430,6,0,L|232:208,1,30.0000011444092,4|0,1:2|0:0,0:0:0:0:
292,332,47677,6,0,L|344:328,1,30.0000011444092,4|0,1:2|0:0,0:0:0:0:
284,184,47925,6,0,L|336:180,1,30.0000011444092,4|0,1:2|0:0,0:0:0:0:
396,300,48171,6,0,L|448:296,1,30.0000011444092,4|0,1:2|0:0,0:0:0:0:
430,162,48336,6,0,B|396:161|380:137|380:105|408:85|408:85|405:75,1,120.000004577637,8|0,0:3|3:3,0:0:0:0:
405,75,48831,70,0,P|381:81|341:71,1,60.0000022888184,12|0,1:2|0:0,0:0:0:0:
256,44,48995,2,0,P|278:23|306:15,1,60.0000022888184,2|0,0:1|0:0,0:0:0:0:
246,117,49160,5,0,3:0:0:0:
189,74,49243,2,0,P|182:45|188:16,1,60.0000022888184,2|0,0:1|0:0,0:0:0:0:
296,168,49408,1,0,0:0:0:0:
296,168,49490,6,0,P|320:180|352:176,1,60.0000022888184,8|2,1:2|0:1,0:0:0:0:
180,144,49655,2,0,P|152:141|124:153,1,60.0000022888184,2|0,0:0|0:0,0:0:0:0:
96,272,49820,6,0,L|80:200,1,60.0000022888184,0|0,3:2|0:0,0:0:0:0:
148,328,49985,1,0,0:0:0:0:
76,344,50067,2,0,L|4:360,1,60.0000022888184,2|8,0:2|1:2,0:0:0:0:
52,148,50232,101,0,0:0:0:0:
14,86,50314,2,0,P|10:58|29:13,1,60.0000022888184,2|0,0:0|0:0,0:0:0:0:
123,153,50479,5,0,3:0:0:0:
191,169,50561,2,0,L|263:183,1,60.0000022888184,2|0,0:0|0:0,0:0:0:0:
384,244,50726,5,2,0:2:0:0:
384,244,50809,2,0,P|421:199|415:141,1,120.000004577637,10|0,1:2|0:0,0:0:0:0:
402,81,51138,102,0,L|417:154,1,60.0000022888184,0|0,3:0|0:0,0:0:0:0:
384,244,51303,2,0,L|399:317,1,60.0000022888184,2|0,0:1|0:0,0:0:0:0:
272,296,51468,5,8,1:2:0:0:
244,316,51550,2,0,P|212:324|171:301,1,60.0000022888184,2|0,0:1|0:0,0:0:0:0:
88,220,51715,101,0,0:0:0:0:
156,236,51798,2,0,L|229:251,1,60.0000022888184,2|0,3:1|0:0,0:0:0:0:
324,204,51963,6,0,P|292:208|268:196,1,60.0000022888184,2|2,0:0|0:0,0:0:0:0:
216,52,52127,2,0,P|202:78|206:107,1,60.0000022888184,8|2,1:2|0:1,0:0:0:0:
324,204,52292,2,0,P|353:207|378:193,1,60.0000022888184,2|2,0:0|0:0,0:0:0:0:
206,107,52457,5,2,3:1:0:0:
183,134,52539,2,0,P|156:148|125:147,1,60.0000022888184,2|0,0:0|0:0,0:0:0:0:
63,126,52704,5,2,0:1:0:0:
18,181,52786,2,0,P|44:195|73:194,1,60.0000022888184,10|0,1:2|0:0,0:0:0:0:
183,255,52952,2,0,P|157:242|140:217,1,60.0000022888184,2|2,0:1|0:0,0:0:0:0:
140,79,53116,5,0,3:0:0:0:
116,16,53199,2,0,P|91:30|73:65,1,60.0000022888184,2|0,0:1|3:0,0:0:0:0:
76,300,53364,1,0,0:0:0:0:
84,264,53446,5,10,1:2:0:0:
140,217,53529,1,2,3:2:0:0:
212,224,53611,1,0,3:0:0:0:
256,280,53693,1,0,3:1:0:0:
252,352,53776,6,0,P|284:348|308:328,1,60.0000022888184,4|0,3:2|0:0,0:0:0:0:
327,264,53941,2,0,P|323:235|336:208,2,60.0000022888184,2|2|8,0:1|0:0|1:2,0:0:0:0:
446,331,54188,5,2,0:1:0:0:
388,376,54270,2,0,P|375:349|374:319,1,60.0000022888184,2|2,0:0|0:0,0:0:0:0:
468,96,54435,1,0,3:0:0:0:
432,156,54518,1,2,0:1:0:0:
395,215,54600,6,0,L|331:207,1,60.0000022888184,2|0,0:0|0:0,0:0:0:0:
332,76,54765,1,8,1:2:0:0:
390,36,54847,2,0,P|401:62|396:97,1,60.0000022888184,2|2,0:1|0:2,0:0:0:0:
268,100,55012,1,0,0:0:0:0:
200,84,55094,102,0,L|141:72,1,60.0000022888184,2|0,3:2|0:0,0:0:0:0:
32,164,55259,1,0,0:0:0:0:
100,180,55341,2,0,P|101:145|84:116,1,60.0000022888184,2|8,0:0|1:2,0:0:0:0:
36,0,55506,5,0,0:0:0:0:
32,36,55589,2,0,L|24:112,1,60.0000022888184,2|0,0:0|0:0,0:0:0:0:
52,232,55753,1,0,3:0:0:0:
52,232,55836,2,0,P|80:248|116:248,1,60.0000022888184,2|0,0:0|1:0,0:0:0:0:
216,148,56001,101,0,0:0:0:0:
195,214,56083,2,0,L|176:271,1,60.0000022888184,8|0,1:2|0:0,0:0:0:0:
142,382,56248,1,0,1:0:0:0:
124,316,56330,1,0,1:0:0:0:
107,249,56413,5,0,1:0:0:0:
145,245,56495,1,0,1:0:0:0:
179,222,56578,1,0,1:0:0:0:
192,181,56660,1,0,1:0:0:0:
179,142,56742,5,0,1:0:0:0:
233,149,56825,1,0,1:0:0:0:
280,126,56907,1,0,1:0:0:0:
302,77,56990,1,0,1:2:0:0:
278,12,57072,5,0,1:1:0:0:
302,77,57154,1,0,1:0:0:0:
353,125,57237,1,0,1:2:0:0:
421,146,57319,1,0,1:1:0:0:
448,212,57402,1,0,1:0:0:0:
412,272,57484,1,0,1:2:0:0:
404,288,57567,2,0,L|396:348,1,60.0000022888184,0|0,1:1|1:2,0:0:0:0:
126,343,57732,6,0,B|163:337|171:297|171:297|211:265|262:280|262:280|283:313|328:308,1,240.000009155274,4|0,2:1|2:0,0:0:0:0:
420,145,58226,6,0,P|332:148|322:236,1,191.999994140625,4|0,3:1|2:0,0:0:0:0:
464,372,58721,6,0,P|495:342|482:271,1,120.000004577637,0|0,1:0|1:0,0:0:0:0:
256,132,59050,5,4,3:1:0:0:
80,120,69600,5,0,0:0:0:0:
72,208,69930,1,2,0:0:0:0:
152,176,70259,2,0,P|177:205|216:211,1,80,0|2,3:0|0:0,0:0:0:0:
80,120,70919,5,0,0:0:0:0:
216,211,71083,1,2,0:0:0:0:
217,212,71413,2,0,P|178:217|152:247,1,80,0|2,3:0|0:0,0:0:0:0:
168,332,71908,2,0,P|175:350|190:363,1,40,0|2,0:0|0:0,0:0:0:0:
276,344,72237,5,0,0:0:0:0:
364,352,72567,1,2,0:0:0:0:
332,272,72896,2,0,P|361:246|367:207,1,80,0|2,3:0|0:0,0:0:0:0:
276,344,73556,5,0,0:0:0:0:
367,208,73720,1,2,0:0:0:0:
368,207,74050,2,0,P|373:245|403:271,1,80,0|2,3:0|0:0,0:0:0:0:
480,232,74545,2,0,P|498:224|511:209,1,40,0|2,0:0|0:0,0:0:0:0:
488,124,74875,5,0,0:0:0:0:
508,40,75204,1,0,0:0:0:0:
424,64,75534,2,0,L|305:45,1,120,2|0,3:2|0:0,0:0:0:0:
305,45,76193,5,0,0:0:0:0:
404,148,76358,1,0,0:1:0:0:
404,148,76688,2,0,L|324:160,1,80,2|0,3:2|0:0,0:0:0:0:
256,204,77182,2,0,L|216:196,1,40,2|0,0:0|0:0,0:0:0:0:
168,128,77512,5,0,0:0:0:0:
180,272,77677,1,0,0:0:0:0:
100,252,77842,2,0,L|20:258,2,80,0|0|0,0:0|3:0|0:0,0:0:0:0:
100,252,78831,5,0,0:0:0:0:
88,108,78996,2,0,P|84:64|72:28,1,80
148,12,79490,2,0,L|212:16,1,60
224,28,79820,2,0,L|288:32,1,60
304,20,80149,5,4,0:0:0:0:
380,32,80314,1,0,0:0:0:0:
456,48,80479,2,0,L|460:128,1,80
416,276,81138,1,0,0:0:0:0:
416,276,81303,2,0,L|412:236,1,40
340,208,81633,5,0,0:0:0:0:
340,208,81963,1,0,0:0:0:0:
340,208,82292,1,0,0:0:0:0:
272,240,82457,1,0,0:0:0:0:
272,240,82622,1,0,0:0:0:0:
88,92,82787,5,0,0:0:0:0:
164,84,83034,1,0,0:0:0:0:
204,148,83281,1,0,0:0:0:0:
172,216,83529,1,0,0:0:0:0:
96,224,83776,1,0,0:0:0:0:
52,156,84105,5,0,0:0:0:0:
128,152,84353,1,0,0:0:0:0:
204,148,84600,1,0,0:0:0:0:
280,144,84847,1,0,0:0:0:0:
356,140,85094,1,0,0:0:0:0:
432,136,85424,5,0,0:0:0:0:
356,140,85589,1,0,0:0:0:0:
280,144,85754,2,0,P|270:106|272:72,1,60
280,64,86083,1,0,0:0:0:0:
316,252,86413,1,0,0:0:0:0:
316,251,86578,2,0,P|320:232|321:212,1,40
192,328,86908,5,0,0:0:0:0:
192,328,87237,1,0,0:0:0:0:
500,328,87567,1,0,0:0:0:0:
424,324,87732,1,0,0:0:0:0:
348,320,87897,1,2,0:0:0:0:
316,251,88061,6,0,B|312:220|312:220|328:172,1,80,0|2,0:0|0:0,0:0:0:0:
396,136,88556,6,0,B|401:90|401:90|378:21,1,120.000004577637,0|2,0:0|0:0,0:0:0:0:
298,4,89050,6,0,B|256:24|256:24|216:0|172:24|172:64,1,160,0|2,0:0|0:0,0:0:0:0:
0,92,89545,6,0,B|52:56|102:101|102:101|124:148|182:141,1,207.999990478516,2|2,0:0|0:0,0:0:0:0:
60,232,90039,1,2,0:0:0:0:
36,196,90122,1,2,0:0:0:0:
44,156,90204,1,2,0:0:0:0:
120,292,90369,1,2,0:0:0:0:
276,308,90534,1,2,0:0:0:0:
380,192,90699,5,0,3:0:0:0:
204,84,90864,1,0,3:0:0:0:
380,192,91029,2,0,B|340:160|300:188|300:188|284:220|244:220,1,155.999992858887,0|0,3:0|0:0,0:0:0:0:
168,212,91358,6,0,P|144:184|148:128,1,90.0000034332277,0|0,3:0|0:0,0:0:0:0:
196,24,91688,6,0,L|204:84,1,60.0000022888184,0|0,3:0|0:0,0:0:0:0:
194,287,91853,6,0,B|131:275|147:327|82:313,1,120,0|0,3:0|0:0,0:0:0:0:
32,260,92182,5,0,1:0:0:0:
28,240,92265,1,0,1:0:0:0:
64,176,92347,5,0,1:0:0:0:
68,156,92430,1,0,0:0:0:0:
20,100,92512,5,0,0:0:0:0:
16,80,92595,1,0,0:0:0:0:
76,32,92677,5,0,1:0:0:0:
85,50,92760,1,0,1:0:0:0:
160,48,92842,5,0,1:0:0:0:
183,63,92925,1,0,0:0:0:0:
256,40,93007,5,2,0:0:0:0:
296,60,93089,1,2,0:0:0:0:
340,60,93171,1,2,0:0:0:0:
380,40,93254,1,0,0:0:0:0:
404,4,93336,5,0,3:0:0:0:
254,146,93501,1,0,3:0:0:0:
404,4,93666,2,0,B|362:34|379:80|379:80|406:103|395:142,1,155.999992858887,0|0,3:0|0:0,0:0:0:0:
368,213,93996,6,0,P|334:228|281:210,1,90.0000034332277,0|0,3:0|0:0,0:0:0:0:
194,138,94325,6,0,L|254:145,1,60.0000022888184,0|0,3:0|0:0,0:0:0:0:
447,208,94490,6,0,B|419:265|473:263|443:323,1,120,8|0,3:2|0:0,0:0:0:0:
380,364,94820,5,8,3:3:0:0:
360,368,94903,1,8,3:3:0:0:
288,328,94985,5,0,3:0:0:0:
288,328,95068,1,0,3:0:0:0:
380,292,95150,5,0,3:0:0:0:
360,296,95233,1,0,3:0:0:0:
244,268,95314,5,8,1:3:0:0:
244,268,95397,1,8,1:3:0:0:
288,328,95479,6,0,P|268:340|224:340,1,60.0000022888184,0|0,3:0|3:0,0:0:0:0:
272,200,95644,2,0,P|292:211|314:249,1,60.0000022888184,0|0,3:0|3:0,0:0:0:0:
172,244,95809,1,8,1:3:0:0:
208,256,95891,1,0,1:0:0:0:
244,268,95974,5,0,3:0:0:0:
296,132,96138,1,0,3:0:0:0:
95,83,96303,2,0,P|169:81|191:11,1,155.999992858887,0|0,3:0|0:0,0:0:0:0:
184,32,96633,6,0,P|214:64|258:67,1,90.0000034332277,0|0,3:0|0:0,0:0:0:0:
336,68,96963,6,0,P|360:54|376:20,1,60.0000022888184,0|0,3:0|0:0,0:0:0:0:
504,80,97127,2,0,P|479:63|449:64,1,60.0000022888184,0|0,3:0|0:0,0:0:0:0:
296,132,97292,5,0,1:0:0:0:
396,196,97457,1,2,1:3:0:0:
404,168,97539,1,2,1:3:0:0:
412,140,97622,2,0,L|452:140,1,40,0|0,1:2|0:0,0:0:0:0:
512,216,97787,2,0,L|472:216,1,40,0|2,1:2|0:3,0:0:0:0:
320,204,97952,5,0,1:0:0:0:
312,236,98034,1,2,1:3:0:0:
304,268,98116,2,0,L|352:268,1,40,0|0,1:0|0:3,0:0:0:0:
452,140,98281,2,0,L|412:140,1,40,0|0,1:2|0:0,0:0:0:0:
492,295,98446,1,2,1:0:0:0:
500,340,98529,1,0,1:0:0:0:
508,384,98611,5,0,0:0:0:0:
424,352,98776,1,0,0:0:0:0:
492,295,98941,2,0,P|509:261|504:212,1,90.0000034332277
488,192,99270,2,0,L|424:200,1,60.0000022888184
428,199,99600,1,0,0:0:0:0:
308,108,99765,6,0,P|292:77|297:33,1,80,8|0,0:0|3:0,0:0:0:0:
372,60,100259,1,2,0:3:0:0:
380,140,100424,1,0,0:0:0:0:
356,172,100507,1,2,0:3:0:0:
320,184,100589,1,2,0:1:0:0:
280,180,100671,1,2,0:1:0:0:
248,156,100754,1,0,3:3:0:0:
228,80,100919,2,2,L|168:76,1,40,2|0,0:1|0:3,0:1:0:0:
172,184,101083,2,2,L|104:200,1,40,2|0,0:3|0:3,0:1:0:0:
128,300,101248,5,4,1:2:0:0:
184,348,101578,1,2,1:2:0:0:
256,364,101908,1,2,1:2:0:0:
328,348,102237,1,2,1:2:0:0:
384,300,102567,5,2,1:2:0:0:
328,348,102897,1,2,1:2:0:0:
256,364,103226,1,2,1:2:0:0:
184,348,103556,1,2,1:2:0:0:
128,300,103721,1,0,1:0:0:0:
128,300,103804,1,0,1:0:0:0:
128,300,103886,5,0,1:0:0:0:
184,252,104216,1,2,1:2:0:0:
256,236,104546,1,2,1:2:0:0:
328,252,104875,1,2,1:2:0:0:
384,300,105205,5,2,1:2:0:0:
328,252,105535,1,2,1:2:0:0:
256,236,105864,1,2,1:2:0:0:
184,252,106194,1,2,1:2:0:0:
128,300,106358,2,0,L|144:344,1,40,0|0,1:0|1:0,0:0:0:0:
112,224,106523,6,0,B|93:203|93:203|41:198,1,80,0|0,1:0|1:0,0:0:0:0:
144,312,106853,2,0,B|162:360|162:360|187:373,1,80,0|0,1:0|1:0,0:0:0:0:
324,373,107182,2,0,B|349:360|349:360|368:312,1,80,0|0,1:0|1:0,0:0:0:0:
470,198,107512,2,0,B|418:203|418:203|400:224,1,80,0|0,1:0|1:0,0:0:0:0:
384,268,107759,1,0,1:0:0:0:
368,312,107842,5,0,1:0:0:0:
496,324,108007,1,0,1:0:0:0:
470,198,108171,5,0,1:0:0:0:
196,76,108336,1,0,1:0:0:0:
256,192,108501,5,0,1:0:0:0:
256,8,108666,1,0,1:0:0:0:
316,76,108831,5,0,1:0:0:0:
42,198,108996,1,0,1:0:0:0:
148,372,109160,5,0,1:0:0:0:
180,348,109243,1,0,1:0:0:0:
212,324,109325,2,0,L|208:272,1,40,0|0,1:0|1:0,0:0:0:0:
184,100,109490,5,0,1:0:0:0:
157,130,109572,1,0,1:0:0:0:
169,170,109655,2,0,L|184:221,1,40,0|0,1:0|1:0,0:0:0:0:
303,284,109820,5,0,1:0:0:0:
300,324,109902,1,0,1:0:0:0:
332,348,109985,2,0,L|372:378,1,40,0|0,1:0|1:0,0:0:0:0:
331,208,110149,6,0,L|343:170,1,40,0|0,1:0|0:0,0:0:0:0:
256,24,110314,2,0,L|256:64,1,40
184,88,110479,6,0,L|184:56,1,20,2|0,0:0|0:0,0:0:0:0:
184,88,110809,6,0,B|120:78,1,51.999997619629,8|8,0:3|0:3,0:0:0:0:
52,16,110974,2,0,B|62:80,1,51.999997619629,4|12,0:3|0:3,0:0:0:0:
164,156,111138,1,0,3:3:0:0:
200,156,111221,1,0,3:3:0:0:
232,172,111303,1,0,3:3:0:0:
252,204,111386,1,0,3:3:0:0:
256,240,111468,6,0,L|360:240,1,90.0000034332277,0|0,1:0|0:0,0:0:0:0:
424,240,111798,5,4,3:1:0:0:
256,316,111963,1,2,0:1:0:0:
480,292,112127,2,0,P|500:252|492:208,1,80.3999961968996,8|0,1:2|0:0,0:0:0:0:
444,168,112457,5,2,3:1:0:0:
346,240,112622,1,0,0:0:0:0:
452,360,112787,5,8,1:2:0:0:
256,316,112952,1,2,0:1:0:0:
76,376,113116,6,0,P|16:341|12:272,1,143.999995605469,4|0,1:2|0:2,0:0:0:0:
85,298,113446,6,0,B|183:262|159:346|256:315,1,180.000006866455,12|0,1:2|0:2,0:0:0:0:
347,169,113776,6,0,P|340:266|256:315,1,204.000003890991,4|0,1:2|0:2,0:0:0:0:
85,298,114105,5,12,1:2:0:0:
4,160,114270,1,2,0:0:0:0:
161,112,114435,2,2,P|185:77|173:0,1,120,2|0,3:1|0:0,0:1:0:0:
36,56,114765,2,0,L|115:53,1,80,8|2,1:2|0:1,0:0:0:0:
256,96,115094,5,0,3:0:0:0:
96,164,115259,1,2,0:2:0:0:
88,148,115342,1,2,0:1:0:0:
80,132,115424,1,8,1:2:0:0:
220,164,115589,1,2,0:1:0:0:
12,196,115754,5,0,3:0:0:0:
172,264,115919,1,2,0:2:0:0:
180,248,116002,1,2,0:1:0:0:
188,232,116084,1,8,1:2:0:0:
48,264,116249,1,2,0:1:0:0:
284,248,116413,6,0,B|252:312|252:312|220:320|212:352,1,120,0|0,3:0|0:0,0:0:0:0:
280,384,116743,6,0,L|448:372,1,155.999992858887,8|0,1:2|0:0,0:0:0:0:
480,312,117072,5,4,3:1:0:0:
284,248,117237,1,2,0:1:0:0:
488,168,117402,2,0,P|492:200|468:244,1,80.3999961968996,8|0,1:2|0:0,0:0:0:0:
420,192,117732,5,2,3:1:0:0:
284,248,117897,1,0,0:0:0:0:
360,72,118061,5,8,1:2:0:0:
404,260,118226,1,2,0:1:0:0:
252,379,118391,6,0,P|194:370|159:323,1,120,4|0,1:2|0:0,0:0:0:0:
213,177,118721,6,0,P|259:236|232:306,1,155.999992858887,4|0,1:2|0:0,0:0:0:0:
58,240,119050,6,0,L|178:248,1,120.000004577637,4|2,1:2|1:2,0:0:0:0:
404,260,119380,1,4,1:2:0:0:
260,96,119545,1,0,1:0:0:0:
220,100,119627,1,0,1:0:0:0:
180,104,119710,6,0,B|60:114,1,120.000004577637,4|0,1:2|0:0,0:0:0:0:
4,60,120039,1,0,1:0:0:0:
213,177,120204,6,0,B|332:187,1,120.000004577637,4|0,1:2|0:0,0:0:0:0:
389,133,120533,1,0,1:0:0:0:
208,364,120699,6,0,B|180:388|180:388|97:376,1,120.000004577637,4|0,1:2|0:0,0:0:0:0:
68,304,121029,1,0,1:0:0:0:
304,364,121193,6,0,B|332:388|332:388|414:376,1,120.000004577637,4|0,1:2|0:0,0:0:0:0:
444,304,121523,1,0,1:0:0:0:
456,64,121688,6,0,L|432:96,1,40,0|2,1:0|0:1,0:0:0:0:
480,168,121853,2,0,L|504:136,1,40,0|2,1:0|0:0,0:0:0:0:
296,220,122018,5,0,1:0:0:0:
88,144,122182,1,0,3:0:0:0:
88,144,122265,1,2,0:0:0:0:
88,144,122347,5,4,3:1:0:0:
256,280,122512,1,2,0:1:0:0:
31,92,122677,2,0,P|12:126|15:166,1,80.3999961968996,8|0,1:2|0:0,0:0:0:0:
68,216,123006,5,2,3:1:0:0:
166,144,123171,1,0,0:0:0:0:
60,24,123336,5,8,1:2:0:0:
256,68,123501,1,2,0:1:0:0:
436,8,123666,6,0,P|496:43|500:112,1,143.999995605469,4|0,1:2|0:2,0:0:0:0:
427,86,123996,6,0,B|329:122|353:38|256:69,1,180.000006866455,4|0,1:2|0:2,0:0:0:0:
165,215,124325,6,0,P|172:118|256:69,1,204.000003890991,4|0,1:2|0:2,0:0:0:0:
427,86,124654,5,4,1:2:0:0:
508,224,124819,1,2,0:0:0:0:
376,348,124985,6,2,B|376:256|376:256|391:279,1,120,2|0,3:1|0:0,0:1:0:0:
400,297,125314,2,0,L|480:297,1,80,8|2,1:2|0:1,0:0:0:0:
427,103,125644,5,0,3:0:0:0:
359,263,125809,1,2,0:2:0:0:
375,271,125892,1,2,0:1:0:0:
391,279,125974,1,8,1:2:0:0:
359,139,126139,1,2,0:1:0:0:
244,236,126304,5,0,3:0:0:0:
312,76,126469,1,2,0:2:0:0:
296,68,126550,1,2,0:1:0:0:
280,60,126634,1,8,1:2:0:0:
312,200,126799,1,2,0:1:0:0:
188,288,126963,6,0,B|124:320|124:320|116:352|84:360,1,120,0|0,3:0|0:0,0:0:0:0:
51,295,127293,6,0,L|51:139,1,155.999992858887,8|0,1:2|0:0,0:0:0:0:
52,140,127622,6,0,L|112:140,1,40,0|0,1:0|3:0,0:0:0:0:
256,192,127787,2,0,L|312:192,1,40,2|0,3:1|3:0,0:0:0:0:
88,56,127952,6,0,L|32:56,1,40,0|0,1:0|3:0,0:0:0:0:
256,192,128116,2,0,L|256:232,1,40,0|0,3:0|3:0,0:0:0:0:
172,24,128281,6,0,L|172:72,1,40,2|0,1:0|0:0,0:0:0:0:
256,192,128446,2,0,L|212:192,1,40,0|0,3:0|3:0,0:0:0:0:
256,40,128611,6,0,L|256:-4,1,40,0|0,1:0|3:0,0:0:0:0:
256,192,128776,2,0,L|256:144,1,40,2|0,3:1|3:0,0:0:0:0:
460,244,128941,6,0,L|400:244,1,40,0|0,1:0|3:0,0:0:0:0:
256,192,129105,2,0,L|200:192,1,40,2|0,3:1|3:0,0:0:0:0:
424,328,129270,6,0,L|480:328,1,40,0|0,1:0|3:0,0:0:0:0:
256,192,129435,2,0,L|256:152,1,40,2|0,3:1|3:0,0:0:0:0:
340,360,129600,6,0,L|340:312,1,40,0|0,1:0|3:0,0:0:0:0:
256,192,129765,2,0,L|300:192,1,40,2|0,3:1|1:0,0:0:0:0:
256,344,129930,6,0,L|256:388,1,40,0|0,1:0|3:0,0:0:0:0:
256,192,130095,2,0,L|256:240,1,40,2|0,1:1|3:0,0:0:0:0:
164,352,130259,6,0,P|164:313|148:277,1,80,4|0,1:2|0:0,0:0:0:0:
8,248,130507,2,0,P|44:232|83:234,1,80,4|0,0:2|0:0,0:0:0:0:
249,304,130754,6,0,P|199:265|130:294,1,120.000004577637,4|0,1:2|0:0,0:0:0:0:
22,150,131001,2,0,P|77:184|73:259,1,120.000004577637,4|0,1:2|0:0,0:0:0:0:
256,192,131248,6,0,P|191:220|148:277,1,143.999995605469,4|0,1:2|0:0,0:0:0:0:
121,103,131496,2,0,P|120:175|84:236,1,143.999995605469,4|0,1:2|0:0,0:0:0:0:
296,4,131743,6,0,L|200:132,1,160,4|0,1:2|0:0,0:0:0:0:
80,308,131990,6,0,L|32:372,1,80,0|0,1:0|1:0,0:0:0:0:
256,192,132237,5,2,0:0:0:0:
256,192,132320,1,2,0:1:0:0:
256,192,132402,1,2,0:1:0:0:
80,308,132567,5,8,1:2:0:0:
121,103,132732,1,2,0:0:0:0:
121,103,132814,1,2,0:0:0:0:
121,103,132897,5,4,0:0:0:0:
256,192,133062,1,0,3:3:0:0:
147,277,133226,5,0,1:0:0:0:
84,235,133391,1,0,3:3:0:0:
22,150,133556,5,0,1:1:0:0:
249,304,133721,1,0,3:3:0:0:
80,308,133886,5,0,1:0:0:0:
296,4,134051,1,8,0:2:0:0:
