osu file format v14

[General]
AudioFilename: jioyi - Platinum.mp3
AudioLeadIn: 0
PreviewTime: 27237
Countdown: 0
SampleSet: Soft
StackLeniency: 0.2
Mode: 0
LetterboxInBreaks: 0
WidescreenStoryboard: 0

[Editor]
Bookmarks: 14133,50067
DistanceSpacing: 1.46
BeatDivisor: 4
GridSize: 32
TimelineZoom: 1.299999

[Metadata]
Title:Platinum
TitleUnicode:Platinum
Artist:jioyi
ArtistUnicode:jioyi
Creator:09kami
Version:tyui's Extra
Source:VOEZ
Tags:AD:Nearly 120 seconds rrtyui IamKwaN Mei z1085684963 DreaM117er yf_bmp m1223961117 pw384 384059043
BeatmapID:1093629
BeatmapSetID:449225

[Difficulty]
HPDrainRate:5
CircleSize:4
OverallDifficulty:8
ApproachRate:9.5
SliderMultiplier:3.1
SliderTickRate:1

[Events]
//Background and Video events
0,0,"1.png",0,0
//Break Periods
2,59250,69075
//Storyboard Layer 0 (Background)
//Storyboard Layer 1 (Fail)
//Storyboard Layer 2 (Pass)
//Storyboard Layer 3 (Foreground)
//Storyboard Sound Samples

[TimingPoints]
1029,329.67032967033,4,2,1,50,1,0
1193,-100,4,2,1,70,0,0
1358,-100,4,2,1,50,0,0
1523,-100,4,2,1,70,0,0
2018,-200,4,2,1,70,0,0
2182,-200,4,2,0,50,0,0
2265,-200,4,2,1,70,0,0
2347,-100,4,2,1,50,0,0
2512,-100,4,2,1,70,0,0
2677,-100,4,2,1,50,0,0
2842,-100,4,2,1,70,0,0
3336,-200,4,2,1,70,0,0
3501,-200,4,2,0,50,0,0
3583,-200,4,2,1,70,0,0
3666,-200,4,2,1,50,0,0
3831,-200,4,2,1,70,0,0
3996,-100,4,2,1,50,0,0
4160,-100,4,2,1,70,0,0
4325,-133.333333333333,4,2,1,50,0,0
4408,-133.333333333333,4,2,1,70,0,0
4490,-133.333333333333,4,2,1,50,0,0
4572,-133.333333333333,4,2,1,70,0,0
4655,-200,4,2,1,50,0,0
4820,-200,4,2,0,50,0,0
4902,-200,4,2,1,70,0,0
4985,-100,4,2,1,50,0,0
5067,-100,4,2,1,10,0,0
5314,-100,4,2,1,15,0,0
5397,-100,4,2,1,18,0,0
5479,-100,4,2,1,20,0,0
5561,-100,4,2,1,23,0,0
5644,-100,4,2,1,25,0,0
5685,-100,4,2,1,30,0,0
5726,-100,4,2,1,35,0,0
5768,-100,4,2,1,40,0,0
5809,-100,4,2,1,70,0,0
5974,-83.3333333333333,4,2,1,40,0,0
6303,-100,4,2,1,60,0,0
7292,-66.6666666666667,4,2,1,60,0,0
7622,-100,4,2,1,60,0,0
9930,-66.6666666666667,4,2,1,60,0,0
10259,-100,4,2,1,60,0,0
11578,-83.3333333333333,4,2,1,60,0,0
11825,-80,4,2,1,60,0,0
12072,-83.3333333333333,4,2,1,60,0,0
12237,-66.6666666666667,4,2,1,60,0,0
12485,-83.3333333333333,4,2,1,60,0,0
12732,-66.6666666666667,4,2,1,60,0,0
12897,-76.9230769230769,4,2,1,60,0,0
13061,-76.9230769230769,4,2,1,60,0,0
13556,-74.0740740740741,4,2,1,60,0,0
13803,-76.9230769230769,4,2,1,60,0,0
14050,-74.0740740740741,4,2,1,60,0,0
14215,-100,4,2,1,60,0,0
15699,-100,4,2,1,40,0,0
15864,-133.333333333333,4,2,1,60,0,0
16193,-100,4,2,1,60,0,0
16523,-80,4,2,0,70,0,0
16770,-80,4,2,0,60,0,0
16853,-100,4,1,0,80,0,0
17347,-80,4,1,1,80,0,0
17512,-66.6666666666667,4,1,1,80,0,0
17842,-100,4,1,1,80,0,0
18171,-133.333333333333,4,1,0,80,0,0
18501,-90.9090909090909,4,1,1,80,0,0
18831,-100,4,1,1,80,0,0
19160,-90.9090909090909,4,1,1,80,0,0
19490,-90.9090909090909,4,1,1,80,0,0
20479,-100,4,1,1,80,0,0
20809,-200,4,1,1,80,0,0
21633,-200,4,1,1,70,0,0
21798,-200,4,1,1,80,0,0
21880,-200,4,1,1,70,0,0
21963,-200,4,1,1,80,0,0
22127,-95.2380952380952,4,1,1,80,0,0
22457,-100,4,1,1,80,0,0
22622,-100,4,1,0,80,0,0
23034,-100,4,1,0,90,0,0
23116,-63.6942675159236,4,1,1,80,0,0
23281,-133.333333333333,4,1,1,80,0,0
23446,-133.333333333333,4,1,0,80,0,0
23776,-200,4,1,1,60,0,0
23858,-200,4,1,1,80,0,0
24105,-95.2380952380952,4,1,1,80,0,0
24435,-100,4,1,1,80,0,0
24765,-400,4,1,1,80,0,0
25094,-333.333333333333,4,1,1,80,0,0
25424,-285.714285714286,4,1,1,80,0,0
25754,-250,4,1,1,80,0,0
26083,-222.222222222222,4,2,1,80,0,0
26413,-200,4,2,1,80,0,0
27072,-133.333333333333,4,2,1,80,0,0
27402,-66.6666666666667,4,1,0,80,0,1
27485,-66.6666666666667,4,1,0,60,0,1
32347,-133.333333333333,4,1,0,60,0,1
32677,-66.6666666666667,4,1,0,60,0,1
36633,-66.6666666666667,4,1,0,35,0,1
36715,-66.6666666666667,4,1,0,25,0,1
36798,-66.6666666666667,4,1,0,30,0,1
36880,-66.6666666666667,4,1,0,35,0,1
36963,-66.6666666666667,4,1,0,40,0,1
37045,-66.6666666666667,4,1,0,45,0,1
37127,-66.6666666666667,4,1,0,50,0,1
37210,-66.6666666666667,4,1,0,55,0,1
37292,-66.6666666666667,4,1,0,60,0,1
37375,-66.6666666666667,4,1,0,65,0,1
37457,-66.6666666666667,4,1,0,70,0,1
37539,-66.6666666666667,4,1,0,75,0,1
37622,-66.6666666666667,4,1,0,60,0,1
37952,-100,4,2,5,80,0,0
39270,-76.9230769230769,4,2,5,80,0,0
40589,-100,4,2,5,80,0,0
41908,-76.9230769230769,4,2,5,80,0,0
42402,-76.9230769230769,4,2,5,80,0,0
42897,-100,4,2,5,80,0,0
43226,-100,4,2,5,80,0,0
44545,-71.4285714285714,4,2,5,80,0,0
44792,-76.9230769230769,4,2,5,80,0,0
45534,-76.9230769230769,4,2,5,80,0,0
45864,-76.9230769230769,4,2,5,80,0,0
47182,-76.9230769230769,4,2,0,80,0,0
48336,-66.6666666666667,4,2,0,80,0,0
48501,-66.6666666666667,4,2,5,80,0,0
48831,-76.9230769230769,4,2,0,80,0,0
48913,-76.9230769230769,4,2,5,80,0,0
50314,-83.3333333333333,4,2,5,80,0,0
50561,-76.9230769230769,4,2,5,80,0,0
53776,-80,4,2,5,80,0,0
56248,-80,4,2,5,70,0,0
56743,-80,4,2,5,65,0,0
57072,-80,4,2,5,60,0,0
57402,-80,4,2,5,55,0,0
57732,-100,4,2,0,80,0,0
57897,-100,4,2,5,80,0,0
58061,-100,4,2,5,60,0,0
58226,-133.333333333333,4,2,0,80,0,0
58556,-133.333333333333,4,2,5,80,0,0
69600,-200,4,2,5,80,0,0
70218,-200,4,2,5,30,0,0
70589,-200,4,2,5,80,0,0
71413,-200,4,2,5,30,0,0
71454,-200,4,2,5,80,0,0
72237,-200,4,2,0,18,0,0
72567,-200,4,2,5,80,0,0
72855,-200,4,2,5,30,0,0
73185,-200,4,2,5,80,0,0
74050,-200,4,2,5,30,0,0
74092,-200,4,2,5,80,0,0
75534,-188.679245283019,4,2,5,30,0,0
75575,-188.679245283019,4,2,5,80,0,0
76688,-200,4,2,5,30,0,0
76729,-200,4,2,5,80,0,0
77512,-200,4,2,0,18,0,0
77553,-200,4,2,5,80,0,0
78171,-200,4,2,5,30,0,0
78213,-200,4,2,5,80,0,0
79490,-133.333333333333,4,1,0,30,0,0
79655,-133.333333333333,4,2,5,80,0,0
79820,-133.333333333333,4,1,0,30,0,0
79985,-133.333333333333,4,2,5,80,0,0
80149,-200,4,2,0,40,0,0
91029,-133.333333333333,4,2,0,40,0,0
91688,-133.333333333333,4,2,0,40,0,0
91853,-100,4,2,0,40,0,0
93336,-133.333333333333,4,2,0,40,0,0
94325,-100,4,2,0,40,0,0
94490,-100,4,2,0,40,0,0
96303,-133.333333333333,4,2,0,40,0,0
96633,-200,4,2,0,40,0,0
96963,-133.333333333333,4,2,0,40,0,0
97292,-200,4,2,0,40,0,0
100919,-133.333333333333,4,2,0,40,0,0
101248,-100,4,2,0,40,0,0
101743,-100,4,2,0,5,0,0
101908,-111.111111111111,4,1,0,40,0,0
102072,-111.111111111111,4,1,0,5,0,0
102237,-125,4,1,0,40,0,0
102402,-125,4,1,0,5,0,0
102485,-100,4,1,0,40,0,0
102732,-100,4,1,0,5,0,0
102897,-111.111111111111,4,1,0,40,0,0
103061,-111.111111111111,4,1,0,5,0,0
103226,-125,4,1,0,40,0,0
103391,-125,4,1,0,5,0,0
103556,-100,4,1,0,40,0,0
103721,-100,4,1,0,5,0,0
103803,-100,4,1,0,40,0,0
104050,-100,4,1,0,10,0,0
104215,-111.111111111111,4,1,0,40,0,0
104380,-111.111111111111,4,1,0,10,0,0
104545,-125,4,1,0,40,0,0
104710,-125,4,1,0,10,0,0
104875,-142.857142857143,4,1,0,40,0,0
105039,-142.857142857143,4,1,0,10,0,0
105204,-100,4,1,0,40,0,0
105369,-100,4,1,0,10,0,0
105534,-111.111111111111,4,1,0,40,0,0
105699,-111.111111111111,4,1,0,10,0,0
105864,-125,4,1,0,40,0,0
106029,-125,4,1,0,10,0,0
106193,-142.857142857143,4,1,0,40,0,0
106358,-142.857142857143,4,1,0,10,0,0
106441,-100,4,2,0,40,0,0
107677,-100,4,2,0,30,0,0
107759,-100,4,2,0,40,0,0
108501,-133.333333333333,4,1,0,40,0,0
108996,-133.333333333333,4,1,0,30,0,0
109078,-133.333333333333,4,1,0,40,0,0
110479,-100,4,2,0,70,0,0
111138,-100,4,2,0,70,0,0
111468,-200,4,2,0,70,0,0
111798,-100,4,2,0,50,0,0
111963,-100,4,1,0,60,0,0
112127,-100,4,1,0,70,0,0
113776,-133.333333333333,4,1,0,70,0,0
114682,-133.333333333333,4,1,0,50,0,0
114765,-100,4,1,0,70,0,0
115094,-100,4,1,0,70,0,0
115671,-100,4,1,0,50,0,0
115754,-100,4,1,0,70,0,0
116825,-100,4,1,0,50,0,0
117072,-100,4,1,0,70,0,0
119050,-133.333333333333,4,1,0,70,0,0
119710,-200,4,1,0,70,0,0
120039,-100,4,1,0,70,0,0
120204,-133.333333333333,4,1,0,70,0,0
120534,-80,4,1,0,70,0,0
120699,-100,4,1,0,70,0,0
121029,-66.6666666666667,4,1,0,70,0,0
121193,-80,4,1,0,70,0,0
121523,-57.1428571428571,4,1,0,70,0,0
121688,-80,4,1,0,70,0,0
122347,-100,4,2,0,50,0,0
122512,-100,4,1,0,60,0,0
122677,-100,4,1,0,70,0,0
124078,-100,4,1,0,50,0,0
124160,-100,4,1,0,70,0,0
125232,-100,4,1,0,50,0,0
125314,-100,4,1,0,70,0,0
125974,-119.047619047619,4,1,0,70,0,0
126303,-100,4,1,0,70,0,0
126550,-100,4,1,0,50,0,0
126633,-119.047619047619,4,1,0,70,0,0
126715,-100,4,1,0,70,0,0
127787,-100,4,1,0,50,0,0
127869,-100,4,1,0,70,0,0
128116,-100,4,1,0,50,0,0
128281,-100,4,1,0,70,0,0
128446,-100,4,1,0,50,0,0
128611,-100,4,1,0,70,0,0
128858,-100,4,1,0,50,0,0
128941,-100,4,1,0,70,0,0
129023,-100,4,1,0,32,0,0
129105,-100,4,1,0,40,0,0
129188,-100,4,1,0,37,0,0
129270,-100,4,1,0,70,0,0
129353,-100,4,1,0,42,0,0
129435,-100,4,1,0,60,0,0
129518,-100,4,1,0,47,0,0
129600,-100,4,1,0,70,0,0
129682,-100,4,1,0,52,0,0
129765,-100,4,1,0,55,0,0
129847,-100,4,1,0,57,0,0
129930,-100,4,1,0,70,0,0
130012,-100,4,1,0,62,0,0
130094,-100,4,1,0,60,0,0
130177,-100,4,1,0,67,0,0
130259,-100,4,1,0,70,0,0
132237,-100,4,1,1,55,0,0
132567,-100,4,1,0,70,0,0
134050,-100,4,1,0,60,0,0

[Colours]
Combo1 : 114,114,114
Combo2 : 188,188,188

[HitObjects]
74,174,1029,5,4,1:0:0:0:
74,174,1193,1,0,0:0:0:0:
61,19,1358,2,0,L|73:173,1,155,4|0,0:0|0:0,0:0:0:0:
60,6,1688,1,0,0:0:0:0:
75,188,1853,1,0,0:0:0:0:
209,42,2018,5,0,0:0:0:0:
205,38,2100,1,0,0:0:0:0:
201,34,2182,2,0,B|191:51|191:51|196:76,1,38.75,2|0,2:0|0:0,0:0:0:0:
304,233,2347,5,4,1:0:0:0:
304,233,2511,1,0,0:0:0:0:
317,78,2677,2,0,L|305:232,1,155,4|0,0:0|0:0,0:0:0:0:
318,65,3007,1,0,0:0:0:0:
303,247,3171,1,0,0:0:0:0:
169,101,3336,5,0,0:0:0:0:
173,97,3418,1,0,0:0:0:0:
177,93,3500,2,0,B|187:110|187:110|182:135,1,38.75,2|0,2:0|0:0,0:0:0:0:
74,291,3666,5,4,1:0:0:0:
74,291,3831,1,0,0:0:0:0:
61,136,3996,2,0,L|73:290,1,155,4|0,0:0|0:0,0:0:0:0:
60,122,4325,6,0,P|86:110|115:107,1,58.1250022172929,4|0,0:0|0:0,0:0:0:0:
298,142,4490,2,0,P|273:126|246:121,1,58.1250022172929,4|0,0:0|0:0,0:0:0:0:
175,176,4655,1,4,0:0:0:0:
176,169,4737,1,4,0:0:0:0:
177,162,4820,2,0,L|172:204,1,38.75,2|0,2:0|0:0,0:0:0:0:
158,347,4985,5,4,1:0:0:0:
256,192,5067,12,0,5809,0:0:0:0:
397,162,5974,6,0,B|246:115|278:231|128:194,1,278.999991485596,10|0,1:0|0:0,0:0:0:0:
90,124,6303,6,0,P|125:113|169:124,1,77.5,0|0,1:0|0:0,0:0:0:0:
331,226,6468,1,0,0:0:0:0:
329,246,6550,2,0,L|320:344,1,77.5,0|0,1:0|0:0,0:0:0:0:
228,7,6715,1,0,0:0:0:0:
230,26,6797,2,0,L|239:124,1,77.5,0|0,1:0|0:0,0:0:0:0:
481,135,6963,1,0,0:0:0:0:
470,151,7045,2,0,P|434:165|396:162,1,77.5,0|0,1:0|0:0,0:0:0:0:
310,14,7210,1,0,0:0:0:0:
320,0,7292,6,0,P|390:22|394:164,1,232.500008869171,0|0,1:0|1:0,0:0:0:0:
331,226,7539,1,0,1:0:0:0:
345,240,7622,6,0,P|380:255|422:252,1,77.5,0|0,1:0|0:0,0:0:0:0:
106,135,7787,1,0,0:0:0:0:
90,124,7869,2,0,P|51:121|16:137,1,77.5,0|0,1:0|0:0,0:0:0:0:
274,356,8034,1,0,0:0:0:0:
271,337,8116,2,0,L|260:261,1,77.5,0|0,1:0|0:0,0:0:0:0:
201,16,8281,1,0,0:0:0:0:
199,35,8363,2,0,L|188:111,1,77.5,0|0,1:0|0:0,0:0:0:0:
478,134,8529,1,0,0:0:0:0:
470,152,8611,6,0,P|434:166|397:162,1,77.5,0|0,1:0|1:0,0:0:0:0:
136,188,8776,2,0,P|174:183|209:197,1,77.5,0|0,1:0|1:0,0:0:0:0:
448,309,8941,6,0,P|466:275|467:234,1,77.5,0|0,1:0|0:0,0:0:0:0:
330,9,9105,1,0,0:0:0:0:
332,28,9188,2,0,L|340:105,1,77.5,0|0,1:0|0:0,0:0:0:0:
212,364,9353,1,0,0:0:0:0:
214,345,9436,2,0,L|222:268,1,77.5,0|0,1:0|0:0,0:0:0:0:
88,75,9600,1,0,0:0:0:0:
101,61,9682,2,0,P|134:45|174:45,1,77.5,0|0,1:0|0:0,0:0:0:0:
396,162,9847,1,0,0:0:0:0:
407,176,9930,6,0,L|175:197,1,232.500008869171,0|0,1:0|1:0,1:0:0:0:
109,150,10177,1,0,1:0:0:0:
99,167,10259,6,0,P|92:205|105:240,1,77.5,0|0,1:0|0:0,0:0:0:0:
442,288,10424,1,0,0:0:0:0:
431,271,10507,2,0,P|395:256|356:258,1,77.5,0|0,1:0|0:0,1:0:0:0:
171,24,10671,1,0,0:0:0:0:
174,45,10754,2,0,L|183:128,1,77.5,0|0,1:0|0:0,0:0:0:0:
449,85,10919,1,0,0:0:0:0:
440,104,11002,2,0,L|407:175,1,77.5,0|0,1:0|0:0,0:0:0:0:
260,333,11166,1,0,0:0:0:0:
269,354,11248,6,0,P|286:313|279:276,1,77.5,0|0,1:0|1:0,0:0:0:0:
173,101,11413,2,0,P|156:142|163:179,1,77.5,0|0,1:0|1:0,0:0:0:0:
357,257,11578,6,0,P|386:272|362:249,1,92.9999971618653,0|0,1:0|0:0,0:0:0:0:
423,0,11743,1,0,0:0:0:0:
402,3,11825,2,0,P|384:90|426:186,1,193.75,0|0,1:0|0:0,0:0:0:0:
455,333,12072,2,0,P|460:284|474:242,1,92.9999971618653,0|0,1:0|0:0,0:0:0:0:
345,62,12237,6,0,P|294:46|303:84,1,116.250004434586,0|0,1:0|0:0,0:0:0:0:
118,147,12402,1,0,0:0:0:0:
132,130,12485,2,0,P|256:78|380:130,1,185.999994323731,0|0,1:0|0:0,0:0:0:0:
405,122,12732,2,0,B|412:110|435:108|435:146|397:166|348:155,1,116.250004434586,0|0,1:0|0:0,0:0:0:0:
376,332,12897,6,0,P|353:284|365:241,1,100.749995388031,0|0,1:0|0:0,0:0:0:0:
287,63,13061,1,0,0:0:0:0:
303,84,13144,2,0,P|187:85|129:17,1,201.499990776062,0|0,1:0|0:0,0:0:0:0:
54,1,13391,2,0,P|34:41|68:77,1,100.749995388031,0|0,1:0|0:0,0:0:0:0:
272,270,13556,6,0,B|310:247|263:212|218:241,1,104.625000399113,0|0,1:0|0:0,0:0:0:0:
150,11,13721,1,0,0:0:0:0:
133,27,13804,2,0,P|101:106|145:207,1,201.499990776062,0|0,1:0|0:0,0:0:0:0:
272,270,14050,2,0,B|227:299|180:264|218:241,1,104.625000399113,0|0,1:0|0:0,0:0:0:0:
478,34,14215,6,0,P|480:72|467:108,1,77.5,0|0,1:0|0:0,0:0:0:0:
440,349,14380,2,0,P|442:311|429:275,1,77.5,0|0,1:0|0:0,0:0:0:0:
398,56,14545,6,0,P|387:92|362:122,1,77.5,0|0,1:0|0:0,0:0:0:0:
360,327,14710,2,0,P|349:291|324:261,1,77.5,0|0,1:0|0:0,0:0:0:0:
303,69,14875,6,0,P|270:87|232:91,1,77.5,0|0,1:0|0:0,0:0:0:0:
265,314,15040,2,0,P|232:296|194:292,1,77.5,0|0,1:0|0:0,0:0:0:0:
178,30,15204,6,0,P|154:60|149:98,1,77.5,0|0,1:0|0:0,0:0:0:0:
140,354,15369,2,0,P|116:323|111:285,1,77.5,0|0,1:0|0:0,0:0:0:0:
339,155,15534,6,2,B|390:124|387:203|305:200|239:153,1,155,2|0,1:0|0:0,0:0:0:0:
452,58,15864,5,2,0:0:0:0:
442,85,15946,1,2,0:0:0:0:
442,114,16029,2,0,P|452:147|451:171,1,58.1250022172929,2|0,0:0|0:0,0:0:0:0:
330,340,16193,6,0,P|323:301|319:263,1,77.5,0|0,1:0|1:0,0:0:0:0:
207,18,16358,2,0,P|202:56|196:94,1,77.5,0|0,1:0|1:0,0:0:0:0:
45,268,16523,6,2,P|91:177|76:278,1,290.625,4|0,1:0|0:0,0:0:0:0:
45,268,16853,6,2,B|149:247|149:247|195:264,1,155,4|0,2:0|2:0,0:0:0:0:
294,322,17100,2,0,P|257:318|243:351,1,77.5,2|0,1:0|2:0,1:0:0:0:
118,27,17347,2,0,B|146:57|146:57|134:133,1,96.875
283,110,17512,6,2,B|214:199|66:182|31:69|31:69|44:81|61:85,1,348.750013303757,4|0,1:0|2:0,1:0:0:0:
327,35,17842,6,0,B|292:19|292:19|248:28,1,77.5,0|0,1:0|0:0,0:0:0:0:
392,256,18007,2,0,B|428:240|428:240|466:246,1,77.5,0|0,1:0|0:0,0:0:0:0:
487,34,18171,5,2,2:0:0:0:
423,90,18254,1,2,2:0:0:0:
398,170,18336,1,2,2:0:0:0:
392,256,18419,1,2,2:0:0:0:
426,334,18501,6,2,P|375:211|257:173,1,255.750007804871,0|0,0:0|2:0,0:0:0:0:
191,202,18831,6,0,P|187:164|203:124,1,77.5,2|0,2:0|0:0,0:0:0:0:
349,359,18996,2,0,P|310:359|273:347,1,77.5,2|0,2:0|0:0,0:0:0:0:
246,58,19160,6,2,B|179:159|63:111|63:111|76:59,1,255.750007804871,0|0,0:0|2:0,0:0:0:0:
316,11,19490,6,0,B|338:51|320:94|320:94|301:138|317:176,1,170.500005203247,0|0,1:0|2:0,0:0:0:0:
491,212,19737,2,0,B|466:120|466:120|392:138,1,170.500005203247,0|0,1:0|2:0,0:0:0:0:
443,280,19985,2,0,B|475:296|475:296|526:289,1,85.2500026016236,0|0,1:0|2:0,0:0:0:0:
443,280,20149,6,2,P|406:261|360:263,1,85.2500026016236,0|0,1:0|1:0,1:0:0:0:
213,110,20314,2,2,P|250:91|296:93,1,85.2500026016236,0|0,1:0|1:0,1:0:0:0:
319,326,20479,2,2,B|189:269|222:354|89:302,1,232.5,0|0,1:0|2:0,1:0:0:0:
41,248,20809,5,0,0:0:0:0:
49,172,21138,1,0,1:0:0:0:
170,311,21303,6,0,L|176:273,1,38.75,0|0,1:0|0:0,0:0:0:0:
57,96,21468,1,0,1:0:0:0:
176,272,21633,2,0,L|182:234,1,38.75,8|8,1:0|0:0,0:0:0:0:
65,20,21798,2,0,L|71:-18,1,38.75,0|8,0:0|0:0,0:0:0:0:
182,233,21963,1,0,0:0:0:0:
270,5,22127,6,0,B|209:77|249:168|249:168|281:151|292:114,1,244.124992549896,4|0,1:0|0:0,0:0:0:0:
441,89,22457,2,0,B|407:73|407:73|365:80,1,77.5,8|0,0:0|2:0,0:0:0:0:
277,239,22622,1,0,1:0:0:0:
274,255,22704,1,0,1:0:0:0:
344,325,22787,5,2,2:0:0:0:
341,309,22869,2,0,P|269:282|182:290,1,155,2|2,2:0|2:0,0:0:0:0:
118,239,23116,6,2,B|161:273|158:353|115:387|66:381|40:338|63:298,1,243.350000928307,0|0,1:0|2:0,0:0:0:0:
206,106,23447,5,2,2:0:0:0:
285,115,23529,1,2,2:0:0:0:
367,108,23611,1,2,2:0:0:0:
446,117,23693,1,2,2:0:0:0:
398,181,23776,6,2,P|395:207|399:227,1,38.75,0|0,1:0|2:0,0:0:0:0:
315,0,23941,2,2,P|319:26|316:47,1,38.75,0|0,2:0|2:0,0:0:0:0:
160,248,24105,6,2,B|60:216|60:216|114:196,1,162.749995033264,0|0,0:0|2:0,1:0:0:0:
240,212,24435,2,2,B|260:292|212:280|232:368,1,155,0|0,0:0|2:0,1:0:0:0:
68,130,24765,6,0,L|63:92,1,38.75,8|0,0:0|2:0,0:0:0:0:
147,123,25094,2,0,L|140:76,1,46.4999985809327,8|0,0:0|2:0,0:0:0:0:
226,116,25424,2,0,L|215:43,1,54.2499983444214,8|0,0:0|2:0,0:0:0:0:
305,109,25754,2,0,L|294:36,1,62,8|0,0:0|2:0,0:0:0:0:
384,102,26083,2,0,L|373:29,1,69.749997871399,8|0,1:0|0:0,0:0:0:0:
463,95,26413,2,0,L|452:17,1,77.5,8|0,1:0|0:0,0:0:0:0:
317,184,26743,5,8,1:0:0:0:
309,204,26825,1,0,1:0:0:0:
307,226,26908,1,0,1:0:0:0:
313,247,26990,1,0,1:0:0:0:
376,303,27072,6,0,B|272:279|300:327|200:307,1,174.375006651879,8|0,1:0|0:0,0:0:0:0:
150,247,27402,6,0,B|128:192|128:192|144:128,1,116.250004434586,4|0,2:0|2:0,0:0:0:0:
368,112,27567,2,2,B|412:105|438:77|438:77|414:46,1,116.250004434586,2|0,0:0|2:0,0:0:0:0:
96,62,27732,2,2,B|160:48|160:48|214:102|292:124|368:112|368:112|408:160,1,348.750013303757,8|0,1:0|2:0,0:0:0:0:
472,192,28061,6,0,B|463:211|445:223|445:223|464:264|448:312,1,116.250004434586,0|0,0:0|2:0,0:0:0:0:
339,37,28226,2,0,P|280:32|216:-8,1,116.250004434586,2|0,0:0|2:0,0:0:0:0:
224,224,28391,2,0,P|283:219|347:179,1,116.250004434586,8|0,0:0|2:0,0:0:0:0:
96,62,28556,1,2,0:0:0:0:
200,208,28721,6,2,B|146:264|153:367|153:367|126:268|32:248,1,348.750013303757,4|0,0:0|2:0,0:0:0:0:
88,80,29050,2,0,P|108:127|112:200,1,116.250004434586,8|0,0:0|2:0,0:0:0:0:
344,104,29215,2,0,P|324:151|276:205,1,116.250004434586,2|0,0:0|2:0,0:0:0:0:
464,328,29380,6,2,B|272:360|336:240|128:272,1,348.750013303757,0|0,0:0|0:0,0:0:0:0:
0,178,29710,2,2,B|55:166|113:191,1,116.250004434586,8|0,0:0|2:0,0:0:0:0:
344,104,29875,2,2,B|285:129|230:117,1,116.250004434586,8|0,0:0|2:0,0:0:0:0:
24,40,30039,6,0,B|88:48|88:48|176:16|176:16|125:77,1,232.500008869171,4|2,1:0|0:0,0:0:0:0:
208,346,30369,2,0,B|225:245|225:245|216:206|216:206|230:117,1,232.500008869171,8|2,0:0|0:0,0:0:0:0:
328,376,30616,1,2,2:0:0:0:
440,319,30699,6,0,P|463:267|463:209,1,116.250004434586,0|0,0:0|2:0,0:0:0:0:
399,111,30864,2,0,P|379:58|338:16,1,116.250004434586,2|0,0:0|2:0,0:0:0:0:
215,31,31029,2,0,P|163:8|105:7,1,116.250004434586,8|0,0:0|2:0,0:0:0:0:
0,64,31193,1,2,0:0:0:0:
232,16,31358,6,0,B|224:56|224:56|232:88|232:88|216:184,1,116.250004434586,0|0,0:0|2:0,0:0:0:0:
463,209,31523,2,0,B|455:169|455:169|463:137|463:137|447:41,1,116.250004434586,2|0,0:0|2:0,0:0:0:0:
104,104,31688,2,2,B|248:72|372:127|372:127|328:136|299:151,1,348.750013303757,8|0,0:0|2:0,0:0:0:0:
463,209,32018,6,0,P|344:224|280:288,1,116.250004434586,0|0,0:0|2:0,0:0:0:0:
232,376,32182,2,0,P|278:265|255:178,1,116.250004434586,0|0,0:0|2:0,0:0:0:0:
216,72,32347,2,0,L|208:16,6,29.0625011086464
152,128,32677,6,0,P|129:75|130:17,1,116.250004434586,0|0,0:0|2:0,0:0:0:0:
296,56,32842,2,2,P|319:108|317:166,1,116.250004434586,2|0,0:0|2:0,0:0:0:0:
264,276,33007,6,0,P|164:219|49:214,1,232.500008869171,8|2,0:0|0:0,0:0:0:0:
0,276,33254,1,2,2:0:0:0:
0,276,33336,6,0,P|64:248|120:248,1,116.250004434586,0|0,0:0|2:0,0:0:0:0:
128,40,33501,2,0,P|184:81|212:129,1,116.250004434586,2|0,0:0|2:0,0:0:0:0:
406,77,33666,2,0,P|398:146|370:194,1,116.250004434586,8|0,0:0|2:0,0:0:0:0:
264,276,33831,2,0,P|238:331|234:389,1,116.250004434586,2|0,0:0|2:0,0:0:0:0:
480,364,33996,6,2,P|380:290|352:64,1,348.750013303757,4|0,0:0|2:0,0:0:0:0:
408,24,34325,2,0,B|464:40|464:40|448:100,1,116.250004434586,8|0,0:0|2:0,0:0:0:0:
292,316,34490,2,0,B|244:304|232:328|176:312,1,116.250004434586,2|0,0:0|2:0,0:0:0:0:
48,80,34655,6,2,B|68:16|112:-8|172:-4|208:24|248:100|220:192,1,348.750013303757,0|0,0:0|2:0,0:0:0:0:
177,312,34985,2,0,P|125:280|97:232,1,116.250004434586,0|0,0:0|2:0,0:0:0:0:
346,79,35149,2,0,P|376:132|376:188,1,116.250004434586,2|0,0:0|2:0,0:0:0:0:
460,340,35314,6,0,B|520:308|520:308|352:284,1,232.500008869171,4|2,0:0|0:0,0:0:0:0:
115,16,35644,2,0,B|66:63|66:63|234:40,1,232.500008869171,8|2,0:0|0:0,0:0:0:0:
360,28,35891,1,2,2:0:0:0:
306,148,35974,6,0,P|236:148|192:120,1,116.250004434586,0|0,1:0|2:0,0:0:0:0:
372,4,36138,2,0,P|407:64|404:116,1,116.250004434586,2|0,1:0|2:0,0:0:0:0:
488,176,36303,2,0,P|453:236|406:260,1,116.250004434586,8|0,0:0|2:0,0:0:0:0:
448,379,36468,2,0,P|378:379|334:350,1,116.250004434586,2|0,1:0|2:0,0:0:0:0:
197,125,36633,5,4,2:0:0:0:
224,91,36715,1,0,0:0:0:0:
264,74,36797,1,0,0:0:0:0:
307,74,36880,1,0,0:0:0:0:
346,92,36962,1,0,0:0:0:0:
386,110,37045,1,0,0:0:0:0:
429,109,37127,1,0,0:0:0:0:
466,87,37209,1,0,0:0:0:0:
486,49,37292,1,4,2:0:0:0:
456,79,37375,1,0,0:0:0:0:
447,120,37457,1,0,0:0:0:0:
459,160,37539,1,0,0:0:0:0:
511,223,37622,6,2,P|481:357|399:244,1,348.750013303757,12|0,1:0|2:0,0:0:0:0:
465,282,37952,6,0,P|436:258|400:244,1,77.5,8|0,0:0|0:0,0:0:0:0:
447,88,38116,2,0,P|440:126|446:164,1,77.5,2|0,0:0|0:0,0:0:0:0:
294,190,38281,1,4,0:0:0:0:
288,205,38364,2,0,P|324:191|353:167,2,77.5,2|0|0,0:0|0:0|0:0,0:0:0:0:
171,46,38611,6,0,P|205:29|244:28,1,77.5,8|0,0:0|0:0,0:0:0:0:
288,205,38776,2,0,P|324:217|352:244,1,77.5,2|0,0:0|0:0,0:0:0:0:
129,322,38941,1,4,0:0:0:0:
119,340,39023,2,0,P|117:301|101:266,2,77.5,2|0|0,0:0|0:0|0:0,0:0:0:0:
12,163,39270,6,0,P|91:221|189:213,1,201.499990776062,10|0,0:0|0:0,0:0:0:0:
239,146,39518,2,0,P|230:107|189:129,2,100.749995388031,2|4|0,2:0|2:0|2:0,2:0:0:0:
258,262,39765,6,0,B|360:278|343:198|448:221,1,201.499990776062,2|8,0:0|0:0,0:0:0:0:
417,379,40012,2,0,P|439:338|410:297,1,100.749995388031,2|0,0:0|0:0,0:0:0:0:
399,4,40259,6,0,B|443:32|443:113|376:148|376:148|355:108|311:93|311:93|341:68,1,302.249986164094,6|0,0:0|0:0,0:0:0:0:
488,152,40589,6,0,P|463:187|435:210,1,77.5,8|0,0:0|0:0,0:0:0:0:
436,360,40754,2,0,P|418:320|412:285,1,77.5,2|0,0:0|0:0,0:0:0:0:
292,192,40919,1,4,0:0:0:0:
281,210,41001,2,0,P|324:214|357:226,2,77.5,2|0|0,0:0|0:0|0:0,0:0:0:0:
488,283,41248,6,0,P|451:292|411:287,1,77.5,8|0,0:0|0:0,0:0:0:0:
433,53,41413,2,0,P|416:88|393:118,1,77.5,2|0,0:0|0:0,0:0:0:0:
176,16,41578,1,4,0:0:0:0:
185,1,41660,2,0,P|199:36|204:75,2,77.5,2|0|0,0:0|0:0|0:0,0:0:0:0:
282,123,41908,6,0,B|222:115|222:115|190:99|190:99|154:107|154:107|82:95,1,201.499990776062,10|0,0:0|0:0,0:0:0:0:
338,58,42155,2,0,P|365:101|348:178,1,100.749995388031,2|4,0:0|0:0,0:0:0:0:
256,251,42320,1,0,0:0:0:0:
238,247,42402,6,0,P|316:190|410:215,1,201.499990776062,2|8,0:0|0:0,0:0:0:0:
511,247,42649,2,0,P|491:290|443:291,1,100.749995388031,2|0,0:0|0:0,0:0:0:0:
232,24,42897,6,0,B|256:180,1,155,6|0,0:0|0:0,0:0:0:0:
278,255,43144,1,0,0:0:0:0:
259,258,43226,6,0,P|216:247|189:224,1,77.5,8|0,0:0|0:0,0:0:0:0:
127,90,43391,2,0,P|138:132|132:166,1,77.5,2|0,0:0|0:0,0:0:0:0:
45,306,43556,1,4,0:0:0:0:
48,288,43638,2,0,P|79:256|111:244,2,77.5,2|0|0,0:0|0:0|0:0,0:0:0:0:
259,258,43886,6,0,P|216:247|189:224,1,77.5,8|0,0:0|0:0,0:0:0:0:
252,32,44050,2,0,P|254:70|275:104,1,77.5,2|0,0:0|0:0,0:0:0:0:
511,37,44215,1,4,0:0:0:0:
491,28,44298,2,0,P|452:33|420:54,2,77.5,2|0|0,0:0|0:0|0:0,0:0:0:0:
489,263,44545,6,0,B|468:242|468:242|430:247|430:247|412:271|412:271|328:284|328:284|301:263,1,216.999993377686,10|0,0:0|0:0,0:0:0:0:
239,207,44792,2,0,B|245:156|245:156|287:182,2,100.749995388031,2|4|0,0:0|0:0|0:0,0:0:0:0:
411,18,45039,6,0,B|366:42|366:42|358:142|358:142|400:170,1,201.499990776062,2|8,0:0|0:0,0:0:0:0:
489,263,45287,2,0,B|501:204|501:204|481:169,1,100.749995388031,2|0,0:0|0:0,0:0:0:0:
128,16,45534,6,0,B|170:50|171:113|132:152|132:152|133:190|161:208|161:208|139:246|161:286,1,302.249986164094,6|0,0:0|0:0,0:0:0:0:
230,247,45864,5,8,0:0:0:0:
240,297,45946,1,0,0:0:0:0:
217,343,46028,1,2,0:0:0:0:
170,365,46111,1,0,0:0:0:0:
120,352,46193,1,4,0:0:0:0:
88,311,46276,1,2,0:0:0:0:
90,259,46358,1,0,0:0:0:0:
123,220,46440,1,0,0:0:0:0:
152,180,46523,1,10,0:0:0:0:
160,132,46605,1,0,0:0:0:0:
148,84,46688,1,0,0:0:0:0:
116,48,46770,1,2,0:0:0:0:
67,35,46853,6,0,P|113:57|161:72,1,100.749995388031,4|0,0:0|0:0,0:0:0:0:
260,82,47018,2,0,P|310:76|358:64,1,100.749995388031,10|0,0:0|0:0,0:0:0:0:
456,20,47182,6,0,B|444:240,1,201.499990776062,4|0,0:0|0:0,0:0:0:0:
467,33,47430,2,0,B|455:253,1,201.499990776062,4|0,0:0|0:0,0:0:0:0:
478,46,47677,2,0,B|466:266,1,201.499990776062,4|0,0:0|0:0,0:0:0:0:
172,8,47924,2,0,B|184:228,1,201.499990776062,4|0,0:0|0:0,0:0:0:0:
188,12,48171,2,0,B|193:112,1,100.749995388031,4|0,0:0|0:0,0:0:0:0:
68,344,48336,6,0,P|-8:268|152:260,1,348.750013303757,4|0,0:0|0:0,0:0:0:0:
144,318,48666,1,8,0:0:0:0:
330,265,48831,6,0,B|229:248|243:335|143:317,1,201.499990776062,8|0,0:0|0:0,0:0:0:0:
76,268,49078,1,2,0:0:0:0:
72,264,49160,6,0,P|52:228|48:168,1,100.749995388031,8|0,0:0|0:0,0:0:0:0:
212,104,49325,2,0,P|177:140|162:188,1,100.749995388031,2|0,0:0|0:0,0:0:0:0:
278,197,49490,1,4,0:0:0:0:
278,197,49572,2,0,P|323:174|373:173,2,100.749995388031,2|0|0,0:0|0:0|0:0,0:0:0:0:
458,255,49820,6,0,B|405:254|376:208|376:208|329:180|278:197,1,201.499990776062,10|0,0:0|0:0,0:0:0:0:
493,91,50067,2,0,P|456:123|454:172,1,100.749995388031,2|4,0:0|0:0,0:0:0:0:
215,9,50314,6,0,P|301:27|318:114,1,185.999994323731,2|8,0:0|0:0,0:0:0:0:
278,197,50561,2,0,B|260:140|204:112|141:124|141:124|159:151,1,201.499990776062,2|0,0:0|0:0,0:0:0:0:
106,346,50809,2,0,B|175:301|175:301|196:222|196:222|159:245,1,201.499990776062,6|0,0:0|0:0,0:0:0:0:
378,311,51056,1,0,0:0:0:0:
354,320,51138,6,0,P|305:312|268:280,1,100.749995388031,8|0,0:0|0:0,0:0:0:0:
483,154,51303,2,0,P|466:200|428:231,1,100.749995388031,2|0,0:0|0:0,0:0:0:0:
320,10,51468,1,4,0:0:0:0:
344,14,51550,2,0,P|387:38|411:81,2,100.749995388031,2|0|0,0:0|0:0|0:0,0:0:0:0:
296,206,51798,6,0,P|318:160|316:111,1,100.749995388031,8|0,0:0|0:0,0:0:0:0:
185,24,51963,2,0,P|211:68|214:117,1,100.749995388031,2|0,0:0|0:0,0:0:0:0:
73,73,52127,1,4,0:0:0:0:
97,78,52210,2,0,P|69:37|26:13,2,100.749995388031,2|0|0,0:0|0:0|0:0,0:0:0:0:
214,116,52457,6,0,B|201:165|201:165|161:185|161:185|134:287,1,201.499990776062,10|0,0:0|0:0,0:0:0:0:
298,350,52704,2,0,B|275:316|275:316|217:303,1,100.749995388031,2|4,0:0|0:0,0:0:0:0:
25,12,52952,6,0,B|47:59|47:59|194:33,1,201.499990776062,2|8,0:0|0:0,0:0:0:0:
406,0,53199,2,0,B|274:21|274:21|286:89,1,201.499990776062,2|0,0:0|0:0,0:0:0:0:
331,156,53446,6,0,P|240:117|145:142,1,201.499990776062,6|0,0:0|0:0,0:0:0:0:
36,140,53693,1,0,0:0:0:0:
36,140,53776,6,0,B|64:132|64:132|52:200,1,96.875,8|0,0:0|0:0,0:0:0:0:
232,303,53941,2,0,B|260:311|260:311|248:244,1,96.875,2|0,0:0|0:0,0:0:0:0:
150,120,54105,1,4,0:0:0:0:
145,143,54188,2,0,B|133:207|133:207|155:259|155:259|141:329,1,193.75,2|0,0:0|0:0,0:0:0:0:
224,167,54435,6,0,P|271:165|310:192,1,96.875,8|0,0:0|0:0,0:0:0:0:
477,219,54600,2,0,P|448:200|388:204,1,96.875,2|0,0:0|0:0,0:0:0:0:
320,344,54765,1,4,0:0:0:0:
328,368,54847,2,0,L|340:271,2,96.875,2|0|0,0:0|0:0|0:0,0:0:0:0:
264,52,55094,6,0,P|352:19|408:92,1,193.75,10|0,0:0|0:0,0:0:0:0:
508,131,55342,2,0,P|468:148|496:180,2,96.875,2|4|0,0:0|0:0|0:0,0:0:0:0:
323,186,55589,2,0,P|316:136|344:76,1,96.875,2|0,0:0|0:0,0:0:0:0:
462,266,55754,6,0,L|342:254,1,96.875,8|2,0:0|0:0,0:0:0:0:
169,237,55919,2,0,L|265:246,1,96.875,8|0,0:0|0:0,0:0:0:0:
323,186,56083,1,6,0:0:0:0:
304,359,56248,1,4,0:0:0:0:
306,338,56331,1,4,0:0:0:0:
308,317,56413,5,8,0:0:0:0:
295,275,56495,1,0,1:0:0:0:
265,246,56577,1,2,0:0:0:0:
222,236,56660,1,0,1:0:0:0:
181,248,56743,5,4,0:0:0:0:
135,304,56825,1,2,0:0:0:0:
66,283,56907,1,0,1:0:0:0:
40,215,56990,1,0,0:0:0:0:
93,166,57072,5,10,0:0:0:0:
110,128,57155,1,0,0:0:0:0:
106,87,57236,1,0,1:0:0:0:
87,49,57320,1,2,0:0:0:0:
53,25,57402,5,4,0:0:0:0:
106,87,57485,1,0,1:0:0:0:
186,97,57567,1,2,0:0:0:0:
264,76,57649,1,0,0:0:0:0:
318,14,57732,6,0,B|259:-13|259:-13|304:152,1,232.5,4|0,0:0|0:0,0:0:0:0:
382,166,58061,1,0,1:0:0:0:
128,120,58226,6,0,B|172:98|172:98|139:219,1,174.375006651879,4|0,0:0|0:0,0:0:0:0:
64,228,58555,1,0,1:0:0:0:
277,201,58721,6,0,B|253:185|253:185|217:197,1,58.1250022172929,4|0,0:0|0:0,0:0:0:0:
204,341,58886,2,0,B|228:357|228:357|264:345,1,58.1250022172929,4|0,0:0|0:0,0:0:0:0:
241,270,59050,5,4,1:0:0:0:
128,256,69600,5,0,0:0:0:0:
63,77,69930,1,0,0:0:0:0:
115,143,70259,1,0,1:0:0:0:
147,64,70589,1,0,0:0:0:0:
399,350,70919,5,0,0:0:0:0:
399,350,71083,2,0,P|405:309|406:272,1,77.5
448,36,71413,2,0,P|450:120|466:189,2,155,0|0|0,1:0|0:0|0:0,0:0:0:0:
215,82,72237,5,8,0:0:0:0:
263,317,72567,1,0,0:0:0:0:
271,231,72897,1,0,1:0:0:0:
341,280,73226,1,0,0:0:0:0:
110,143,73556,5,0,0:0:0:0:
110,142,73721,2,0,P|108:104|101:66,1,77.5
288,128,74050,2,0,P|275:197|269:283,2,155,0|0|0,1:0|0:0|0:0,0:0:0:0:
459,183,74875,6,0,P|389:215|313:208,1,155
195,26,75534,2,0,P|292:99|414:107,1,246.450000376053,0|0,1:0|0:0,0:0:0:0:
474,58,76193,5,0,0:0:0:0:
413,107,76358,1,0,0:0:0:0:
394,183,76523,1,0,0:0:0:0:
418,257,76688,2,0,P|342:266|263:248,1,155,0|0,1:0|0:0,0:0:0:0:
113,126,77182,2,0,P|157:113|190:120,1,77.5
262,157,77430,1,0,0:0:0:0:
255,171,77512,6,0,P|234:100|240:17,1,155,8|0,0:0|0:0,0:0:0:0:
426,99,78171,2,0,P|402:172|402:250,1,155,0|0,1:0|0:0,0:0:0:0:
402,250,78831,6,0,P|436:272|487:273,2,77.5
350,182,79325,1,0,0:0:0:0:
245,351,79490,6,0,L|128:360,1,116.250004434586,0|0,1:0|2:0,0:0:0:0:
42,143,79820,2,0,L|158:133,1,116.250004434586,0|0,1:0|2:0,0:0:0:0:
314,49,80149,5,6,2:0:0:0:
394,79,80314,1,2,0:0:0:0:
328,133,80479,2,0,P|371:56|372:-12,2,155,0|2|0,0:0|0:0|0:0,0:0:0:0:
328,133,81303,1,2,0:0:0:0:
61,66,81468,5,0,0:0:0:0:
141,35,81633,2,0,B|160:120|103:103|125:185,1,155,2|0,0:0|0:0,0:0:0:0:
355,133,82292,5,0,0:0:0:0:
275,104,82457,1,0,0:0:0:0:
203,150,82622,1,0,0:0:0:0:
368,298,82787,6,0,P|382:244|381:209,1,77.5,2|0,0:0|0:0,0:0:0:0:
344,320,83034,2,0,P|398:334|433:333,1,77.5,2|0,2:0|0:0,0:0:0:0:
322,296,83281,2,0,P|308:350|309:385,1,77.5,2|0,2:0|0:0,0:0:0:0:
346,274,83529,2,0,P|292:260|257:261,1,77.5,2|0,2:0|0:0,0:0:0:0:
344,298,83776,1,2,0:0:0:0:
364,289,84105,6,0,P|368:237|357:206,1,77.5,2|0,0:0|0:0,0:0:0:0:
394,142,84353,2,0,P|346:121|312:123,1,77.5,2|0,0:0|0:0,0:0:0:0:
263,68,84600,2,0,P|229:106|219:139,1,77.5,2|0,0:0|0:0,0:0:0:0:
152,169,84847,2,0,P|178:213|206:232,1,77.5,2|0,0:0|0:0,0:0:0:0:
213,305,85094,1,2,0:0:0:0:
41,81,85424,5,2,0:0:0:0:
117,47,85589,1,2,0:0:0:0:
109,128,85754,2,0,P|74:75|62:-15,2,155,0|2|0,0:0|0:0|0:0,0:0:0:0:
109,127,86578,1,2,0:0:0:0:
396,78,86743,5,0,0:0:0:0:
316,47,86908,2,0,B|297:132|354:115|332:197,1,155,2|0,0:0|0:0,0:0:0:0:
102,145,87567,5,0,0:0:0:0:
182,116,87732,1,0,0:0:0:0:
254,162,87897,1,0,0:0:0:0:
177,340,88061,6,0,P|152:260|90:206,1,155,2|0,0:0|0:0,0:0:0:0:
398,165,88556,2,0,P|369:235|374:317,1,155,2|0,0:0|0:0,0:0:0:0:
452,354,89050,1,2,0:0:0:0:
256,181,89380,5,4,2:0:0:0:
256,181,89545,2,0,L|232:23,1,155,2|0,0:0|0:0,0:0:0:0:
384,51,90039,5,2,0:0:0:0:
380,70,90121,1,2,0:0:0:0:
377,89,90203,1,2,0:0:0:0:
459,124,90369,5,2,0:0:0:0:
295,216,90534,1,2,0:0:0:0:
467,346,90699,5,0,1:0:0:0:
380,70,90864,1,0,1:0:0:0:
386,341,91029,6,2,B|364:312|320:304|296:332|252:324|228:292,1,174.375006651879,0|0,1:0|0:0,1:0:0:0:
386,341,91359,2,2,B|344:345|324:336|304:296|276:276|228:292,1,174.375006651879,0|0,1:0|2:0,1:0:0:0:
118,351,91688,6,2,P|134:326|140:298,1,58.1250022172929,0|0,1:0|2:0,1:0:0:0:
37,98,91853,2,2,P|69:167|60:243,1,155,0|0,1:0|0:0,1:0:0:0:
38,240,92182,5,0,0:0:0:0:
60,244,92264,1,0,0:0:0:0:
125,181,92347,5,2,0:0:0:0:
147,177,92429,1,0,0:0:0:0:
206,244,92512,5,2,0:0:0:0:
228,248,92594,1,2,0:0:0:0:
291,158,92677,5,0,0:0:0:0:
295,184,92759,1,2,0:0:0:0:
321,180,92842,1,0,0:0:0:0:
317,154,92924,1,0,0:0:0:0:
415,158,93007,5,2,0:0:0:0:
411,181,93089,1,2,0:0:0:0:
407,204,93171,1,2,0:0:0:0:
403,227,93254,1,2,0:0:0:0:
483,253,93336,5,0,1:0:0:0:
414,11,93501,1,0,1:0:0:0:
340,286,93666,6,2,B|328:252|280:248|260:264|216:260|188:220,1,174.375006651879,0|0,1:0|2:0,1:0:0:0:
340,286,93996,2,2,B|296:292|260:268|272:243|238:213|189:221,1,174.375006651879,0|0,1:0|2:0,1:0:0:0:
30,187,94325,6,2,P|59:169|112:161,1,77.5,0|0,1:0|2:0,1:0:0:0:
192,9,94490,2,2,P|222:69|175:142,1,155,0|0,1:0|2:0,1:0:0:0:
181,139,94820,5,2,0:0:0:0:
185,117,94902,1,2,0:0:0:0:
181,139,94985,1,2,0:0:0:0:
159,135,95067,1,2,0:0:0:0:
181,139,95149,1,2,0:0:0:0:
177,161,95231,1,2,0:0:0:0:
261,90,95314,5,2,0:0:0:0:
265,112,95396,1,2,0:0:0:0:
269,134,95479,1,2,0:0:0:0:
273,156,95561,1,2,0:0:0:0:
343,207,95644,5,2,0:0:0:0:
365,203,95726,1,2,0:0:0:0:
387,199,95809,1,2,0:0:0:0:
409,195,95891,1,2,0:0:0:0:
352,121,95974,5,0,1:0:0:0:
307,356,96138,1,0,1:0:0:0:
150,132,96303,6,2,P|221:126|298:194,1,174.375006651879,0|0,1:0|2:0,1:0:0:0:
378,209,96633,6,2,P|347:257|292:274,1,116.25,0|0,1:0|2:0,1:0:0:0:
233,370,96963,6,2,P|260:360|289:360,1,58.1250022172929,0|0,1:0|0:0,1:0:0:0:
296,190,97127,2,2,P|305:163|305:134,1,58.1250022172929,0|0,1:0|2:0,1:0:0:0:
107,223,97292,6,0,P|102:263|114:297,1,77.5,0|2,1:0|0:0,0:0:0:0:
189,256,97539,1,2,0:0:0:0:
189,256,97622,1,8,0:0:0:0:
189,256,97787,1,0,0:0:0:0:
65,156,97952,5,2,0:0:0:0:
46,171,98034,1,2,0:0:0:0:
34,192,98116,1,8,0:0:0:0:
189,256,98281,6,0,L|186:217,1,38.75,2|0,0:0|0:0,0:0:0:0:
189,256,98446,2,0,L|191:294,1,38.75,2|0,0:0|0:0,0:0:0:0:
448,65,98611,5,2,2:0:0:0:
367,51,98776,1,2,0:0:0:0:
286,37,98941,1,2,0:0:0:0:
205,23,99270,1,2,0:0:0:0:
124,9,99600,1,2,0:0:0:0:
189,256,99765,6,0,L|227:253,1,38.75,8|0,0:0|0:0,0:0:0:0:
228,253,100094,6,0,L|220:331,1,77.5,0|8,1:0|0:0,0:0:0:0:
89,134,100425,5,2,0:0:0:0:
129,138,100507,1,2,0:0:0:0:
104,170,100589,2,2,P|111:189|112:208,2,38.75,2|2|2,2:0|2:0|2:0,1:0:0:0:
428,67,100919,5,2,1:0:0:0:
348,75,101001,1,2,2:0:0:0:
394,140,101083,2,2,P|384:167|382:196,1,58.1250022172929,8|0,2:0|2:0,1:0:0:0:
92,54,101248,6,2,P|123:77|170:78,1,77.5,0|0,1:0|2:0,1:0:0:0:
265,31,101413,2,2,P|234:8|187:7,1,77.5,2|0,2:0|2:0,1:0:0:0:
265,31,101578,6,2,L|249:191,1,155,0|2,1:0|1:0,1:0:0:0:
345,48,101908,2,2,L|331:186,1,139.499995742798,0|2,1:0|1:0,0:0:0:0:
425,65,102237,2,2,L|412:188,1,124,0|2,1:0|1:0,0:0:0:0:
408,273,102567,6,2,L|248:257,1,155,0|2,1:0|1:0,0:0:0:0:
88,164,102897,2,2,L|226:177,1,139.499995742798,0|2,1:0|1:0,0:0:0:0:
392,116,103226,2,2,L|268:103,1,124,0|2,1:0|1:0,0:0:0:0:
24,32,103556,6,2,P|84:16|72:84,1,155,0|2,1:0|1:0,0:0:0:0:
8,148,103803,1,0,1:0:0:0:
2,169,103886,6,2,L|156:153,1,155,0|2,1:0|1:0,1:0:0:0:
378,132,104215,2,2,L|239:145,1,139.499995742798,0|2,1:0|0:0,0:0:0:0:
144,30,104545,2,2,L|156:153,1,124,0|2,1:0|0:0,0:0:0:0:
258,338,104875,2,2,L|247:230,1,108.499996688843,0|2,1:0|0:0,0:0:0:0:
75,119,105204,6,2,L|57:272,1,155,0|2,1:0|0:0,0:0:0:0:
410,213,105534,2,2,L|426:351,1,139.499995742798,0|2,1:0|0:0,0:0:0:0:
157,110,105864,2,2,L|140:248,1,124,0|2,1:0|0:0,0:0:0:0:
328,222,106193,2,2,L|344:360,1,108.499996688843,0|2,1:0|0:0,0:0:0:0:
432,328,106441,1,0,0:0:0:0:
426,352,106523,6,0,P|468:356|500:336,1,77.5,0|0,1:0|0:0,0:0:0:0:
323,96,106688,2,2,P|341:57|333:20,1,77.5,2|0,2:0|2:0,1:0:0:0:
410,213,106853,2,0,P|446:192|461:157,1,77.5,0|0,1:0|0:0,0:0:0:0:
156,42,107018,2,2,P|146:5|116:-18,1,77.5,2|0,2:0|2:0,1:0:0:0:
323,96,107182,6,0,L|248:112,1,77.5,0|0,1:0|0:0,0:0:0:0:
30,180,107347,2,2,L|105:195,1,77.5,2|0,2:0|2:0,1:0:0:0:
284,264,107512,2,0,L|208:279,1,77.5,0|0,1:0|0:0,0:0:0:0:
76,352,107677,1,2,1:0:0:0:
76,352,107759,1,0,0:0:0:0:
76,352,107842,6,0,L|60:272,1,77.5,0|0,1:0|0:0,0:0:0:0:
252,48,108007,2,2,L|236:123,1,77.5,2|0,2:0|2:0,1:0:0:0:
208,279,108171,2,0,L|223:203,1,77.5,0|0,1:0|0:0,0:0:0:0:
31,120,108336,2,2,L|46:195,1,77.5,2|0,2:0|2:0,1:0:0:0:
436,84,108501,6,0,L|423:27,1,58.1250022172929,0|0,1:0|2:0,0:0:0:0:
412,216,108666,2,2,L|399:159,1,58.1250022172929,2|0,2:0|2:0,1:0:0:0:
388,348,108831,2,0,L|375:291,1,58.1250022172929,0|0,1:0|2:0,0:0:0:0:
328,24,108996,5,2,1:0:0:0:
119,76,109160,5,0,1:0:0:0:
143,51,109242,1,0,1:0:0:0:
175,37,109324,1,2,1:0:0:0:
208,41,109407,1,0,1:0:0:0:
240,55,109490,5,0,1:0:0:0:
269,96,109572,1,0,0:0:0:0:
316,117,109655,1,2,1:0:0:0:
366,112,109737,1,0,0:0:0:0:
403,76,109820,5,0,1:0:0:0:
413,17,109902,1,0,1:0:0:0:
471,2,109984,1,2,1:0:0:0:
506,53,110067,1,0,1:0:0:0:
470,127,110149,6,2,L|479:164,2,38.75,0|0|0,1:0|1:0|1:0,0:0:0:0:
470,127,110314,5,0,0:0:0:0:
427,349,110479,6,2,P|335:317|199:306,1,232.5,2|0,2:0|0:0,1:0:0:0:
124,314,110809,1,0,1:0:0:0:
124,314,110891,1,0,0:0:0:0:
124,314,110974,2,0,P|161:308|201:306,1,77.5
472,234,111138,6,0,B|452:209|452:209|457:163,1,77.5,2|2,0:0|0:0,0:0:0:0:
378,45,111303,2,0,B|398:69|398:69|392:115,1,77.5,2|2,0:0|0:0,0:0:0:0:
201,203,111468,6,0,B|253:197|253:197|258:202|258:202|314:195,1,116.25
337,191,111798,5,4,2:0:0:0:
43,54,111963,1,0,0:0:0:0:
92,246,112127,2,2,P|131:151|115:20,1,232.5,0|0,0:0|2:0,0:0:0:0:
43,54,112457,2,2,L|295:77,1,232.5,0|0,0:0|2:0,0:0:0:0:
341,30,112787,2,0,P|355:78|340:121,1,77.5,0|0,0:0|2:0,0:0:0:0:
188,231,112952,6,0,B|212:156|212:156|265:215,1,155,2|0,0:0|0:0,0:0:0:0:
473,300,113281,2,0,P|401:268|325:262,1,155,2|0,1:0|0:0,0:0:0:0:
158,95,113611,2,0,P|199:76|230:77,1,77.5,2|0,0:0|2:0,0:0:0:0:
326,262,113776,6,0,L|339:330,1,58.1250022172929,0|0,0:0|2:0,0:0:0:0:
299,127,113941,2,0,L|312:195,1,58.1250022172929,2|0,0:0|2:0,0:0:0:0:
130,229,114105,6,0,L|142:172,1,58.1250022172929,0|0,0:0|2:0,0:0:0:0:
158,95,114270,2,0,L|170:38,1,58.1250022172929,2|0,0:0|2:0,0:0:0:0:
260,316,114435,6,2,B|219:292|177:304|148:337|90:313,1,174.375006651879,2|2,0:0|2:0,0:0:0:0:
28,251,114765,1,0,0:0:0:0:
27,251,114930,2,0,P|59:228|96:224,1,77.5,2|0,0:0|2:0,0:0:0:0:
280,331,115094,6,2,P|308:255|268:161,1,155,0|2,1:0|0:0,0:0:0:0:
488,211,115424,2,2,P|413:193|357:140,1,155,0|2,1:0|0:0,0:0:0:0:
346,59,115671,1,2,2:0:0:0:
346,59,115754,6,2,B|337:130|392:175|401:117|457:169|446:249,1,232.5,0|2,1:0|0:0,0:0:0:0:
426,326,116083,2,0,P|379:312|346:315,1,77.5,0|0,0:0|2:0,0:0:0:0:
174,105,116248,6,0,B|151:71|151:71|213:48|258:87,1,155,2|0,1:0|0:0,0:0:0:0:
244,281,116496,2,0,B|191:278|159:232|159:232|108:249,1,155,2|0,0:0|2:0,0:0:0:0:
77,175,116743,2,2,B|114:162|114:162|90:132,2,77.5,0|2|0,1:0|2:0|2:0,1:0:0:0:
429,45,117072,6,0,P|427:83|442:122,1,77.5,0|0,0:0|2:0,0:0:0:0:
489,249,117237,2,0,P|502:213|501:175,1,77.5,2|0,0:0|2:0,0:0:0:0:
159,88,117402,6,2,B|249:71|296:153|296:153|316:122|299:88,1,232.5,0|0,0:0|2:0,0:0:0:0:
355,25,117732,2,2,B|416:65|426:129|405:196|405:196|381:177|377:146,1,232.5,0|0,0:0|2:0,0:0:0:0:
470,34,118061,2,0,P|485:66|493:113,1,77.5,0|0,0:0|2:0,0:0:0:0:
358,268,118226,6,0,P|414:280|489:208,1,155,2|0,0:0|1:0,0:0:0:0:
267,63,118556,2,0,P|291:133|288:214,1,155,2|0,0:0|0:0,0:0:0:0:
134,20,118886,2,0,P|171:5|209:7,1,77.5,2|0,0:0|2:0,0:0:0:0:
346,209,119050,6,0,L|289:213,1,58.1250022172929,0|0,1:0|2:0,0:0:0:0:
207,219,119215,2,2,L|150:223,1,58.1250022172929,0|0,1:0|2:0,0:0:0:0:
69,227,119380,2,0,L|12:231,1,58.1250022172929,0|0,1:0|2:0,0:0:0:0:
411,275,119545,1,2,0:0:0:0:
411,275,119627,1,2,2:0:0:0:
411,275,119710,6,2,P|434:188|407:142,1,116.25,4|0,1:0|2:0,0:0:0:0:
368,115,120039,2,2,P|329:112|294:128,1,77.5,0|0,1:0|2:0,0:0:0:0:
411,275,120204,6,2,L|237:249,1,174.375006651879,4|0,1:0|2:0,1:0:0:0:
159,235,120534,2,2,P|123:269|120:316,1,96.875,0|0,0:0|2:0,0:0:0:0:
411,275,120699,6,2,P|343:182|398:72,1,232.5,4|0,0:0|2:0,0:0:0:0:
460,64,121029,2,2,P|506:88|527:149,1,116.250004434586,0|0,1:0|2:0,0:0:0:0:
411,275,121193,6,2,B|341:295|264:249|329:202|239:149|166:165,1,290.625,4|0,0:0|2:0,1:0:0:0:
95,195,121523,2,2,P|86:261|126:315,1,135.625001293421,0|0,1:0|2:0,0:0:0:0:
385,102,121688,6,2,B|408:151|377:193,1,96.875,2|0,1:0|2:0,0:0:0:0:
289,294,121853,2,2,P|296:247|279:203,1,96.875,2|0,0:0|2:0,0:0:0:0:
196,32,122018,2,2,P|214:77|211:127,1,96.875,2|0,0:0|2:0,0:0:0:0:
113,337,122182,2,2,P|128:285|127:238,1,96.875,2|0,0:0|2:0,0:0:0:0:
29,86,122347,5,4,1:0:0:0:
288,130,122512,1,0,1:0:0:0:
29,86,122677,6,2,P|95:40|248:70,1,232.5,0|0,0:0|2:0,1:0:0:0:
288,130,123007,2,2,B|303:160|337:185|337:185|383:151|443:154|443:154|415:140|407:115,1,232.5,0|0,0:0|2:0,0:0:0:0:
479,82,123336,1,0,0:0:0:0:
436,316,123501,6,2,B|464:283|450:240|450:240|410:229|380:257,1,155,2|0,0:0|1:0,0:0:0:0:
117,229,123831,2,2,L|271:244,1,155,2|0,0:0|1:0,0:0:0:0:
349,252,124078,1,2,2:0:0:0:
382,256,124160,2,2,L|370:179,1,77.5,2|0,0:0|2:0,0:0:0:0:
256,27,124325,6,0,P|248:64|260:101,1,77.5,0|0,0:0|2:0,0:0:0:0:
436,130,124490,2,2,P|397:101|352:100,1,77.5,2|0,0:0|2:0,0:0:0:0:
355,329,124655,2,0,P|320:352|265:349,1,77.5,0|0,0:0|2:0,0:0:0:0:
235,31,124820,2,2,P|256:62|260:100,1,77.5,2|0,0:0|2:0,0:0:0:0:
158,294,124985,6,2,B|90:309|35:239|35:239|63:273|55:324,1,232.5,0|2,0:0|2:0,0:0:0:0:
1,169,125314,2,0,P|43:160|83:178,1,77.5,0|0,0:0|2:0,0:0:0:0:
176,308,125479,6,2,P|156:236|161:153,1,155,2|0,0:0|1:0,0:0:0:0:
236,38,125726,2,2,P|170:75|95:60,1,155,2|0,0:0|2:0,1:0:0:0:
32,9,125974,2,2,P|17:36|17:84,2,65.0999980133057,0|0|0,1:0|2:0|2:0,0:0:0:0:
467,67,126303,6,2,B|419:90|419:90|444:191,1,155,0|2,0:0|2:0,0:0:0:0:
393,248,126550,1,2,1:0:0:0:
409,260,126633,2,0,P|454:267|481:257,1,65.0999980133057,0|0,0:0|2:0,0:0:0:0:
133,51,126798,6,2,P|189:4|269:-4,1,155,2|0,0:0|0:0,1:0:0:0:
346,19,127045,2,0,P|320:78|328:175,1,155,2|0,0:0|2:0,0:0:0:0:
295,244,127292,2,2,P|334:275|366:280,2,77.5,0|0|0,1:0|2:0|2:0,0:0:0:0:
59,149,127622,6,2,P|96:157|122:185,1,77.5,0|0,0:0|2:0,0:0:0:0:
98,352,127787,2,2,P|77:319|79:281,1,77.5,2|0,2:0|2:0,0:0:0:0:
230,68,127952,6,2,P|198:157|229:217,1,155,0|2,0:0|2:0,0:0:0:0:
305,229,128199,1,2,2:0:0:0:
295,244,128281,2,2,L|126:228,1,155,0|2,0:0|2:0,0:0:0:0:
25,26,128611,2,0,P|99:6|152:54,1,155,0|2,0:0|0:0,0:0:0:0:
100,164,128858,1,2,2:0:0:0:
81,153,128941,6,2,P|71:117|79:80,1,77.5,0|0,0:0|0:0,0:0:0:0:
252,37,129105,2,2,P|260:75|242:122,3,77.5,2|0|0|0,1:0|1:0|1:0|1:0,1:0:0:0:
414,76,129435,6,2,P|366:79|337:99,1,77.5,2|0,0:0|0:0,0:0:0:0:
312,240,129600,2,0,P|299:197|310:154,1,77.5
503,180,129765,6,2,P|463:177|431:154,1,77.5,2|0,0:0|0:0,1:0:0:0:
270,300,129930,2,0,P|282:264|311:240,1,77.5
43,73,130094,2,2,P|75:57|120:59,1,77.5,2|0,0:0|0:0,0:0:0:0:
194,88,130259,6,2,L|167:260,1,155,0|0,0:0|2:0,1:0:0:0:
156,322,130507,2,2,B|167:273|137:233|86:226|86:226|92:249,1,155,0|0,1:0|2:0,1:0:0:0:
344,257,130754,2,2,B|337:297|297:318|297:318|259:312|237:277,1,155,0|0,1:0|2:0,1:0:0:0:
286,113,131001,2,2,P|350:140|439:138,1,155,0|0,0:0|2:0,0:0:0:0:
498,192,131248,6,2,B|450:151|450:151|461:55,1,155,0|0,0:0|2:0,0:0:0:0:
278,26,131496,2,2,B|315:48|315:48|332:166,1,155,0|0,1:0|2:0,0:0:0:0:
314,237,131743,6,2,L|159:221,1,155,0|0,0:0|2:0,0:0:0:0:
86,174,131990,1,0,0:0:0:0:
90,178,132072,2,2,P|76:214|82:250,1,77.5,0|0,0:0|2:0,0:0:0:0:
323,314,132237,6,2,L|313:226,2,77.5,2|2|2,2:0|2:0|2:0,0:0:0:0:
297,20,132567,1,0,0:0:0:0:
297,20,132732,1,2,2:0:0:0:
474,67,132897,6,0,B|426:54|426:54|454:193,1,155
501,250,133226,2,0,L|348:232,1,155
232,167,133556,2,0,B|280:154|280:154|252:293,1,155
205,350,133885,2,0,L|358:332,1,155,0|4,0:0|0:0,0:0:0:0:
