osu file format v14

[General]
AudioFilename: jioyi - Platinum.mp3
AudioLeadIn: 0
PreviewTime: 27237
Countdown: 0
SampleSet: Soft
StackLeniency: 0.5
Mode: 0
LetterboxInBreaks: 0
WidescreenStoryboard: 0

[Editor]
DistanceSpacing: 1
BeatDivisor: 4
GridSize: 4
TimelineZoom: 2.7

[Metadata]
Title:Platinum
TitleUnicode:Platinum
Artist:jioyi
ArtistUnicode:jioyi
Creator:09kami
Version:Mei's Normal
Source:VOEZ
Tags:AD:Nearly 120 seconds rrtyui IamKwaN Mei z1085684963 DreaM117er yf_bmp m1223961117 pw384 384059043
BeatmapID:989854
BeatmapSetID:449225

[Difficulty]
HPDrainRate:4
CircleSize:3
OverallDifficulty:3
ApproachRate:4
SliderMultiplier:1
SliderTickRate:1

[Events]
//Background and Video events
0,0,"1.png",0,0
//Break Periods
2,59250,68280
2,80349,88060
//Storyboard Layer 0 (Background)
//Storyboard Layer 1 (Fail)
//Storyboard Layer 2 (Pass)
//Storyboard Layer 3 (Foreground)
//Storyboard Sound Samples

[TimingPoints]
1029,329.67032967033,4,2,1,20,1,0
27402,-100,4,2,1,20,0,1
37952,-100,4,2,1,20,0,0

[Colours]
Combo1 : 174,0,87
Combo2 : 188,188,188
Combo3 : 81,81,81
Combo4 : 128,128,255

[HitObjects]
136,124,1029,6,0,L|64:136,2,50
224,72,1688,2,0,P|272:56|328:88,1,100
400,124,2347,2,0,L|472:112,2,50
312,176,3006,2,0,P|264:192|208:160,1,100
120,192,3666,6,0,P|112:232|108:256,1,50
108,292,3996,2,0,P|176:288|216:296,1,100
300,332,4655,1,0,0:0:0:0:
256,192,4985,12,0,6303,0:0:0:0:
140,332,7292,6,0,P|188:328|252:324,1,100
344,44,8611,2,0,P|296:48|224:52,1,100
72,256,9930,6,0,P|120:252|188:244,1,100
440,128,11248,2,0,P|392:132|320:136,1,100
256,192,11743,12,0,15534,0:0:0:0:
132,112,16853,6,0,P|168:72|264:152,1,200
216,224,17842,1,0,0:0:0:0:
136,300,18171,2,0,B|188:366|303:339|323:257|323:257|376:272|392:248,1,300
444,172,19490,6,0,P|460:128|452:56,1,100
364,40,20149,1,0,0:0:0:0:
268,72,20479,1,0,0:0:0:0:
176,36,20809,2,0,B|84:12|84:12|104:60|104:60|96:108|96:108|112:156|112:156|104:216,1,300
112,304,22127,6,0,P|156:284|220:256,1,100
308,263,22787,2,0,P|354:283|400:304,1,100
460,224,23446,2,0,P|472:184|460:108,1,100
372,96,24105,2,0,P|320:96|312:44,1,100
216,20,24765,6,0,P|212:72|204:236,1,200
168,312,25754,1,0,0:0:0:0:
104,236,26083,2,0,P|108:184|116:20,1,200
216,20,27072,1,0,0:0:0:0:
312,48,27402,6,0,P|364:56|420:52,1,100
372,144,28061,2,0,P|424:146|479:136,1,100
471,244,28721,2,0,P|421:237|372:240,1,100
411,330,29380,2,0,P|361:328|312:336,1,100
212,348,30039,6,0,P|208:308|212:232,1,100
164,160,30699,2,0,P|116:176|56:160,1,100
112,76,31358,2,0,P|160:60|220:76,1,100
304,100,32018,2,0,P|308:140|304:216,1,100
312,300,32677,6,0,P|351:329|400:330,2,100
236,236,33666,1,0,0:0:0:0:
136,240,33996,2,0,P|88:240|40:284,1,100
124,336,34655,2,0,L|236:352,1,100
312,300,35314,6,0,P|332:240|320:184,1,100
256,132,35974,2,0,P|196:136|152:124,1,100
212,44,36633,2,0,P|268:40|428:52,1,200
496,104,37622,1,0,0:0:0:0:
476,204,37952,6,0,P|468:240|452:320,1,100
360,268,38611,2,0,P|362:304|368:386,1,100
272,340,39270,2,0,P|220:340|164:352,1,100
188,248,39930,2,0,P|138:262|87:289,1,100
44,196,40589,6,0,P|52:160|68:80,1,100
160,132,41248,2,0,P|157:95|151:13,1,100
248,60,41907,2,0,P|300:60|356:48,1,100
332,152,42567,2,0,P|381:137|432:110,1,100
480,200,43226,6,0,P|492:240|480:304,1,100
400,352,43886,2,0,P|388:312|400:248,1,100
300,236,44545,2,0,P|264:252|192:248,1,100
140,176,45204,2,0,P|176:160|248:164,1,100
332,136,45864,6,0,L|348:32,1,100
436,84,46523,2,0,L|420:188,1,100
380,276,47182,2,0,B|332:288|332:288|312:344|312:344|256:364|256:364|192:344|192:344|156:288|156:288|104:268,1,350
40,140,48831,6,0,P|32:88|36:24,1,100
132,20,49490,1,0,0:0:0:0:
220,68,49820,2,0,L|324:72,1,100
408,116,50479,2,0,L|512:120,1,100
512,220,51138,6,0,L|412:223,1,100
324,268,51797,2,0,L|224:271,1,100
136,319,52456,1,0,0:0:0:0:
37,299,52786,2,0,P|35:249|43:199,1,100
116,128,53446,1,0,0:0:0:0:
212,152,53776,6,0,P|264:152|328:132,1,100
316,40,54435,2,0,P|267:27|217:28,1,100
116,32,55094,2,0,P|66:31|17:43,1,100
23,144,55753,2,0,P|71:156|121:155,1,100
172,244,56413,6,0,P|160:296|172:348,2,100
256,296,57402,1,0,0:0:0:0:
336,232,57732,2,0,P|388:216|500:240,2,150
252,180,59050,5,0,0:0:0:0:
144,92,69600,5,0,0:0:0:0:
72,160,69930,2,0,P|44:212|28:256,1,100
100,324,70589,1,0,0:0:0:0:
184,268,70919,2,0,P|280:240|400:336,1,250
492,300,72072,2,0,P|496:252|500:128,1,150
444,68,72897,6,0,P|392:80|336:108,1,100
264,152,73556,2,0,B|252:120|240:92|256:56|280:24|280:24|240:32|204:64|152:40,1,250
76,20,74710,2,0,P|68:56|72:180,1,150
80,268,75534,5,0,0:0:0:0:
260,352,76193,2,0,P|312:340|372:328,1,100
408,324,76688,2,0,P|448:296|400:224,1,150
308,204,77512,6,0,L|259:193|210:182,1,100
116,152,78171,1,0,0:0:0:0:
256,192,78831,12,0,80149,0:0:0:0:
220,64,89380,6,0,P|224:116|232:172,1,100
244,264,90039,2,0,P|328:244|356:240,1,100
436,212,90699,6,0,P|448:172|432:112,1,100
352,60,91358,1,0,0:0:0:0:
256,40,91688,2,0,P|216:32|192:24,1,50
108,328,93336,6,0,P|152:312|212:296,1,100
304,300,93996,1,0,0:0:0:0:
404,308,94325,2,0,L|452:344,1,50
408,40,95974,6,0,P|384:80|376:148,1,100
296,192,96633,1,0,0:0:0:0:
224,124,96963,2,0,L|216:72,1,50
48,320,98611,6,0,P|72:308|148:296,1,100
240,316,99270,1,0,0:0:0:0:
336,296,99600,2,0,L|380:256,1,50
396,164,100094,2,0,P|328:152|240:104,1,150
176,56,100919,1,0,0:0:0:0:
88,104,101248,6,0,P|80:160|80:208,1,100
96,304,101908,1,0,0:0:0:0:
184,260,102237,1,0,0:0:0:0:
256,332,102567,1,0,0:0:0:0:
328,260,102897,1,0,0:0:0:0:
416,304,103226,2,0,P|424:260|408:196,1,100
336,144,103886,5,0,0:0:0:0:
404,72,104215,1,0,0:0:0:0:
304,52,104545,1,0,0:0:0:0:
240,132,104875,1,0,0:0:0:0:
144,104,105204,2,0,P|136:56|128:0,1,100
32,24,105864,2,0,P|39:73|47:122,1,100
256,192,106523,12,0,110479,0:0:0:0:
336,72,111798,6,0,P|384:108|400:156,1,100
344,228,112457,2,0,P|276:244|144:276,1,200
56,240,113446,1,0,0:0:0:0:
112,156,113776,2,0,P|112:120|108:56,1,100
208,44,114435,6,0,P|232:104|352:84,1,200
440,52,115424,1,0,0:0:0:0:
488,140,115754,2,0,P|496:216|504:344,1,200
408,368,116743,1,0,0:0:0:0:
332,304,117072,6,0,P|288:312|228:332,1,100
140,356,117732,2,0,P|100:320|172:200,1,200
244,172,118721,1,0,0:0:0:0:
336,136,119050,2,0,P|352:56|336:36,1,100
244,60,119710,6,0,P|168:84|80:84,2,150
345,46,121029,2,0,P|392:52|452:84,1,100
484,164,121688,2,0,P|476:224|468:328,1,150
464,364,122347,6,0,P|408:352|356:328,1,100
272,304,123007,1,0,0:0:0:0:
172,308,123336,2,0,P|116:320|64:344,1,100
40,244,123996,2,0,P|36:184|32:128,1,100
88,60,124655,1,0,0:0:0:0:
172,116,124985,6,0,P|232:128|376:100,1,200
452,52,125974,1,0,0:0:0:0:
488,144,126303,2,0,B|456:212|480:264|480:264|448:232|400:236,1,200
312,256,127292,1,0,0:0:0:0:
216,288,127622,6,0,P|168:308|120:336,1,100
44,276,128281,1,0,0:0:0:0:
120,212,128611,2,0,P|163:187|209:168,1,100
304,196,129270,1,0,0:0:0:0:
404,196,129600,6,0,P|436:160|368:32,1,200
256,192,130424,12,0,132732,0:0:0:0:
256,192,132897,12,0,134050,0:0:0:0:
