osu file format v14

[General]
AudioFilename: jioyi - Platinum.mp3
AudioLeadIn: 0
PreviewTime: 27237
Countdown: 0
SampleSet: Soft
StackLeniency: 0.7
Mode: 0
LetterboxInBreaks: 0
WidescreenStoryboard: 0

[Editor]
DistanceSpacing: 1.1
BeatDivisor: 2
GridSize: 4
TimelineZoom: 0.9000008

[Metadata]
Title:Platinum
TitleUnicode:Platinum
Artist:jioyi
ArtistUnicode:jioyi
Creator:09kami
Version:KwaN's Easy
Source:VOEZ
Tags:AD:Nearly 120 seconds rrtyui IamKwaN Mei z1085684963 DreaM117er yf_bmp m1223961117 pw384 384059043
BeatmapID:1036976
BeatmapSetID:449225

[Difficulty]
HPDrainRate:3
CircleSize:3
OverallDifficulty:2
ApproachRate:3
SliderMultiplier:0.9
SliderTickRate:1

[Events]
//Background and Video events
0,0,"1.png",0,0
//Break Periods
2,59250,68160
//Storyboard Layer 0 (Background)
//Storyboard Layer 1 (Fail)
//Storyboard Layer 2 (Pass)
//Storyboard Layer 3 (Foreground)
//Storyboard Sound Samples

[TimingPoints]
1029,329.67032967033,4,2,1,20,1,0
1029,-125,4,2,1,20,0,0
6303,-100,4,2,1,20,0,0
27402,-100,4,2,1,20,0,1
37952,-111.111111111111,4,2,1,20,0,0
80149,-125,4,2,1,20,0,0
89380,-111.111111111111,4,2,1,20,0,0
111798,-100,4,2,1,20,0,1
119710,-100,4,2,1,20,0,0
122347,-100,4,2,1,20,0,1
130259,-100,4,2,1,20,0,0

[Colours]
Combo1 : 174,0,87
Combo2 : 188,188,188
Combo3 : 81,81,81
Combo4 : 128,128,255

[HitObjects]
37,118,1029,6,0,L|31:44,2,72,0|0|0,0:0|0:0|0:0,0:0:0:0:
93,266,2347,2,0,L|87:340,2,72,0|0|0,0:0|0:0|0:0,0:0:0:0:
150,118,3666,6,0,L|156:44,2,72,0|0|0,0:0|0:0|0:0,0:0:0:0:
93,266,4985,1,0,0:0:0:0:
464,143,6303,6,0,B|463:108|442:80|442:80|412:65|375:68,2,135,0|0|0,0:0|0:0|0:0,0:0:0:0:
464,241,7622,2,0,B|463:276|442:304|442:304|412:319|375:316,2,135,0|0|0,0:0|0:0|0:0,0:0:0:0:
464,143,8941,6,0,P|455:80|453:8,2,135,0|0|0,0:0|0:0|0:0,0:0:0:0:
464,241,10259,2,0,P|455:303|453:376,2,135,0|0|0,0:0|0:0|0:0,0:0:0:0:
256,192,11578,12,0,14215,0:0:0:0:
256,192,14380,12,0,15534,0:0:0:0:
357,90,16853,6,0,P|435:131|420:210,1,180,0|0,0:0|0:0,0:0:0:0:
366,281,17842,1,0,0:0:0:0:
278,299,18171,2,0,P|233:304|192:287,1,90,0|0,0:0|0:0,0:0:0:0:
108,259,18831,1,0,0:0:0:0:
108,169,19160,1,0,0:0:0:0:
193,141,19490,6,0,P|191:95|167:58,2,90,0|0|0,0:0|0:0|0:0,0:0:0:0:
246,214,20479,2,0,P|275:179|282:136,1,90,0|0,0:0|0:0,0:0:0:0:
351,78,21138,2,0,P|348:58|348:31,2,45,0|0|0,0:0|0:0|0:0,0:0:0:0:
413,143,21798,1,0,0:0:0:0:
404,232,22127,6,0,L|395:322,1,90,0|0,0:0|0:0,0:0:0:0:
310,354,22787,2,0,L|301:264,1,90,0|0,0:0|0:0,0:0:0:0:
211,264,23446,2,0,L|202:354,1,90,0|0,0:0|0:0,0:0:0:0:
117,322,24105,2,0,L|108:232,1,90,0|0,0:0|0:0,0:0:0:0:
54,159,24765,6,0,P|46:116|60:73,1,90,0|0,0:0|0:0,0:0:0:0:
130,17,25424,2,0,P|173:9|216:23,1,90,0|0,0:0|0:0,0:0:0:0:
298,59,26083,2,0,L|290:152,1,90,0|0,0:0|0:0,0:0:0:0:
367,195,26743,2,0,L|375:288,1,90,0|0,0:0|0:0,0:0:0:0:
299,333,27402,6,0,P|255:335|215:315,2,90,0|0|0,0:0|0:0|0:0,0:0:0:0:
374,284,28391,1,0,0:0:0:0:
413,203,28721,2,0,P|457:205|497:185,2,90,0|0|0,0:0|0:0|0:0,0:0:0:0:
338,154,29710,1,0,0:0:0:0:
251,131,30039,6,0,P|159:131|72:133,1,180,0|0,0:0|0:0,0:0:0:0:
0,183,31029,1,0,0:0:0:0:
50,257,31358,2,0,P|52:301|52:346,1,90,0|0,0:0|0:0,0:0:0:0:
141,357,32018,2,0,P|141:333|144:305,2,45,0|0|0,0:0|0:0|0:0,0:0:0:0:
230,367,32677,6,0,P|276:297|361:311,1,180,0|0,0:0|0:0,0:0:0:0:
434,364,33667,1,0,0:0:0:0:
479,286,33996,2,0,P|478:241|481:196,1,90,0|0,0:0|0:0,0:0:0:0:
435,118,34655,2,0,P|434:94|432:66,2,45,0|0|0,0:0|0:0|0:0,0:0:0:0:
363,172,35314,6,0,P|319:166|275:172,1,90,0|0,0:0|0:0,0:0:0:0:
186,193,35974,2,0,P|142:199|98:193,1,90,0|0,0:0|0:0,0:0:0:0:
48,117,36633,2,0,L|53:299,1,180,0|0,0:0|0:0,0:0:0:0:
112,364,37622,1,0,0:0:0:0:
194,330,37952,6,0,P|269:322|355:328,1,161.999995056153,0|0,0:0|0:0,0:0:0:0:
427,380,38941,1,0,0:0:0:0:
459,296,39270,2,0,L|467:136,1,161.999995056153,0|0,0:0|0:0,0:0:0:0:
397,79,40259,1,0,0:0:0:0:
320,124,40589,6,0,L|330:206,2,80.9999975280763,0|0|0,0:0|0:0|0:0,0:0:0:0:
252,65,41578,1,0,0:0:0:0:
192,131,41908,2,0,L|202:213,2,80.9999975280763,0|0|0,0:0|0:0|0:0,0:0:0:0:
124,72,42897,1,0,0:0:0:0:
54,16,43226,6,0,P|37:52|37:92,1,80.9999975280763,0|0,0:0|0:0,0:0:0:0:
70,175,43886,2,0,P|87:211|87:251,1,80.9999975280763,0|0,0:0|0:0,0:0:0:0:
112,337,44545,2,0,L|192:332,1,80.9999975280763,0|0,0:0|0:0,0:0:0:0:
278,305,45204,2,0,L|358:310,1,80.9999975280763,0|0,0:0|0:0,0:0:0:0:
438,350,45864,6,0,P|448:311|439:270,1,80.9999975280763,0|0,0:0|0:0,0:0:0:0:
390,197,46523,2,0,P|380:158|389:117,1,80.9999975280763,0|0,0:0|0:0,0:0:0:0:
447,52,47182,2,0,B|328:70|328:70|299:56|268:52|268:52|238:70|199:78|163:60,1,283.499991348267,0|0,0:0|0:0,0:0:0:0:
40,35,48831,6,0,L|34:115,1,80.9999975280763,0|0,0:0|0:0,0:0:0:0:
73,195,49490,1,0,0:0:0:0:
160,179,49819,2,0,P|235:179|255:253,1,161.999995056153,0|0,0:0|0:0,0:0:0:0:
219,334,50808,1,0,0:0:0:0:
132,313,51138,6,0,P|91:310|50:316,2,80.9999975280763,0|0|0,0:0|0:0|0:0,0:0:0:0:
219,334,52127,1,0,0:0:0:0:
276,266,52457,2,0,P|316:268|358:263,2,80.9999975280763,0|0|0,0:0|0:0|0:0,0:0:0:0:
189,245,53446,1,0,0:0:0:0:
146,166,53775,6,0,L|143:86,1,80.9999975280763,0|0,0:0|0:0,0:0:0:0:
53,82,54435,2,0,L|56:162,1,80.9999975280763,0|0,0:0|0:0,0:0:0:0:
99,242,55094,2,0,L|96:322,1,80.9999975280763,0|0,0:0|0:0,0:0:0:0:
185,325,55754,2,0,L|188:245,1,80.9999975280763,0|0,0:0|0:0,0:0:0:0:
257,185,56413,6,0,B|285:181|285:181|318:188|318:188|366:211|424:205|446:152|441:108|409:76|369:69|335:83,1,323.999990112305,0|0,0:0|0:0,0:0:0:0:
251,95,58061,2,0,B|208:103|208:103|171:128|150:169|164:205|164:205|136:178|88:184,1,242.999992584229,0|0,0:0|0:0,0:0:0:0:
466,303,69600,6,0,L|386:309,1,80.9999975280763,0|0,0:0|0:0,0:0:0:0:
315,364,70259,1,0,0:0:0:0:
257,295,70589,1,0,0:0:0:0:
177,335,70919,2,0,L|53:326,2,121.499996292114,0|0|0,0:0|0:0|0:0,0:0:0:0:
257,295,72237,6,0,P|253:255|236:219,1,80.9999975280763,0|0,0:0|0:0,0:0:0:0:
154,181,72897,2,0,P|158:141|175:105,1,80.9999975280763,0|0,0:0|0:0,0:0:0:0:
252,60,73556,2,0,L|376:51,2,121.499996292114,0|0|0,0:0|0:0|0:0,0:0:0:0:
175,14,74875,6,0,L|95:8,1,80.9999975280763,0|0,0:0|0:0,0:0:0:0:
94,98,75534,2,0,L|174:104,1,80.9999975280763,0|0,0:0|0:0,0:0:0:0:
252,147,76193,2,0,L|376:138,2,121.499996292114,0|0|0,0:0|0:0|0:0,0:0:0:0:
193,213,77512,6,0,L|186:295,1,80.9999975280763,0|0,0:0|0:0,0:0:0:0:
96,295,78171,2,0,L|102:214,1,80.9999975280763,0|0,0:0|0:0,0:0:0:0:
67,132,78831,2,0,B|107:124|107:124|145:135,1,80.9999975280763,0|0,0:0|0:0,0:0:0:0:
193,213,79490,1,0,0:0:0:0:
272,172,79820,1,0,0:0:0:0:
328,240,80149,6,0,P|397:237|472:240,1,144,0|0,0:0|0:0,0:0:0:0:
488,162,81138,2,0,P|440:137|420:88,2,108,0|0|0,0:0|0:0|0:0,0:0:0:0:
500,83,82457,1,0,0:0:0:0:
455,17,82787,6,0,P|402:9|357:37,2,108,0|0|0,0:0|0:0|0:0,0:0:0:0:
500,83,84105,2,0,L|495:191,2,108,0|0|0,0:0|0:0|0:0,0:0:0:0:
455,17,85424,6,0,B|418:12|418:12|383:20,1,72,0|0,0:0|0:0,0:0:0:0:
311,50,86083,2,0,B|319:119|319:119|306:155,1,108,0|0,0:0|0:0,0:0:0:0:
280,230,86908,2,0,L|285:303,1,72,0|0,0:0|0:0,0:0:0:0:
348,349,87567,2,0,B|383:347|383:347|419:353|419:353|456:351,1,108,0|0,0:0|0:0,0:0:0:0:
498,284,88391,6,0,P|507:213|462:160,1,144,0|0,0:0|0:0,0:0:0:0:
381,124,89380,2,0,B|340:131|340:131|260:124,2,121.499996292114,0|0|0,0:0|0:0|0:0,0:0:0:0:
453,71,90699,6,0,L|449:26,2,40.4999987640381,0|0|0,0:0|0:0|0:0,0:0:0:0:
463,160,91358,2,0,B|453:239|453:239|460:281,1,121.499996292114,0|0,0:0|0:0,0:0:0:0:
59,313,93336,6,0,L|63:358,2,40.4999987640381,0|0|0,0:0|0:0|0:0,0:0:0:0:
49,224,93995,2,0,B|59:145|59:145|52:103,1,121.499996292114,0|0,0:0|0:0,0:0:0:0:
449,44,95974,6,0,L|494:48,2,40.4999987640381,0|0|0,0:0|0:0|0:0,0:0:0:0:
360,34,96633,2,0,B|281:44|281:44|239:37,1,121.499996292114,0|0,0:0|0:0,0:0:0:0:
43,352,98611,6,0,L|124:344,1,80.9999975280763,0|0,0:0|0:0,0:0:0:0:
166,265,99270,2,0,L|42:257,2,121.499996292114,0|0|0,0:0|0:0|0:0,0:0:0:0:
252,286,100589,2,0,P|254:246|237:209,1,80.9999975280763,0|0,0:0|0:0,0:0:0:0:
160,163,101248,6,0,L|78:169,1,80.9999975280763,0|0,0:0|0:0,0:0:0:0:
54,82,101908,2,0,L|134:76,1,80.9999975280763,0|0,0:0|0:0,0:0:0:0:
221,95,102567,2,0,L|231:13,1,80.9999975280763,0|0,0:0|0:0,0:0:0:0:
318,14,103226,2,0,L|309:95,1,80.9999975280763,0|0,0:0|0:0,0:0:0:0:
268,175,103886,5,0,0:0:0:0:
349,210,104216,2,0,L|429:204,2,80.9999975280763,0|0|0,0:0|0:0|0:0,0:0:0:0:
298,282,105204,1,0,0:0:0:0:
379,317,105534,2,0,L|459:311,2,80.9999975280763,0|0|0,0:0|0:0|0:0,0:0:0:0:
256,192,106523,12,0,110149,0:0:0:0:
452,53,111468,5,0,0:0:0:0:
356,78,111798,6,0,L|267:87,1,90,0|0,0:0|0:0,0:0:0:0:
182,139,112457,2,0,P|168:77|200:14,2,135,0|0|0,0:0|0:0|0:0,0:0:0:0:
269,185,113776,2,0,P|292:222|292:268,1,90,0|0,0:0|0:0,0:0:0:0:
206,317,114435,6,0,L|71:306,2,135,0|0|0,0:0|0:0|0:0,0:0:0:0:
294,362,115754,2,0,L|383:354,2,90,0|0|0,0:0|0:0|0:0,0:0:0:0:
292,267,116743,1,0,0:0:0:0:
205,218,117072,6,0,L|215:129,1,90,0|0,0:0|0:0,0:0:0:0:
268,44,117731,2,0,P|206:30|144:59,2,135,0|0|0,0:0|0:0|0:0,0:0:0:0:
346,104,119050,2,0,P|384:128|430:129,1,90,0|0,0:0|0:0,0:0:0:0:
449,226,119710,6,0,P|380:229|341:277,1,135,0|0,0:0|0:0,0:0:0:0:
202,332,120699,2,0,P|134:334|67:330,2,135,0|0|0,0:0|0:0|0:0,0:0:0:0:
251,246,122018,1,0,0:0:0:0:
337,197,122347,6,0,L|345:108,1,90,0|0,0:0|0:0,0:0:0:0:
442,89,123006,2,0,L|430:225,2,135,0|0|0,0:0|0:0|0:0,0:0:0:0:
375,15,124325,2,0,P|330:12|289:28,1,90,0|0,0:0|0:0,0:0:0:0:
203,78,124984,6,0,P|134:78|68:74,2,135,0|0|0,0:0|0:0|0:0,0:0:0:0:
242,168,126303,2,0,P|228:211|229:258,2,90,0|0|0,0:0|0:0|0:0,0:0:0:0:
303,90,127292,1,0,0:0:0:0:
367,165,127622,6,0,L|375:254,1,90,0|0,0:0|0:0,0:0:0:0:
472,273,128281,2,0,L|460:137,2,135,0|0|0,0:0|0:0|0:0,0:0:0:0:
405,347,129600,2,0,P|360:350|319:334,1,90,0|0,0:0|0:0,0:0:0:0:
256,192,130259,12,0,134050,0:0:0:0:
