osu file format v14

[General]
AudioFilename: jioyi - Platinum.mp3
AudioLeadIn: 0
PreviewTime: 27237
Countdown: 0
SampleSet: Soft
StackLeniency: 0.6
Mode: 0
LetterboxInBreaks: 0
WidescreenStoryboard: 0

[Editor]
DistanceSpacing: 0.9
BeatDivisor: 4
GridSize: 4
TimelineZoom: 1.5

[Metadata]
Title:Platinum
TitleUnicode:Platinum
Artist:jioyi
ArtistUnicode:jioyi
Creator:09kami
Version:117's Extreme
Source:VOEZ
Tags:AD:Nearly 120 seconds rrtyui IamKwaN Mei z1085684963 DreaM117er yf_bmp m1223961117 pw384 384059043
BeatmapID:970417
BeatmapSetID:449225

[Difficulty]
HPDrainRate:5.5
CircleSize:4
OverallDifficulty:8
ApproachRate:9
SliderMultiplier:1.6
SliderTickRate:1

[Events]
//Background and Video events
0,0,"1.png",0,0
//Break Periods
2,63207,68941
//Storyboard Layer 0 (Background)
//Storyboard Layer 1 (Fail)
//Storyboard Layer 2 (Pass)
//Storyboard Layer 3 (Foreground)
//Storyboard Sound Samples

[TimingPoints]
1029,329.67032967033,4,2,10,40,1,0
6303,-90.9090909090909,4,2,10,40,0,0
7292,-62.5,4,2,10,40,0,0
7622,-90.9090909090909,4,2,10,40,0,0
9930,-62.5,4,2,10,40,0,0
10259,-90.9090909090909,4,2,10,40,0,0
11578,-83.3333333333333,4,2,10,40,0,0
14215,-62.5,4,2,10,40,0,0
15864,-83.3333333333333,4,2,10,40,0,0
16853,-66.6666666666667,4,2,10,50,0,0
18501,-83.3333333333333,4,2,10,50,0,0
20809,-90.9090909090909,4,2,10,50,0,0
22127,-66.6666666666667,4,2,10,50,0,0
22457,-83.3333333333333,4,2,10,50,0,0
23446,-66.6666666666667,4,2,10,50,0,0
23776,-83.3333333333333,4,2,10,50,0,0
24765,-90.9090909090909,4,2,10,50,0,0
27402,-83.3333333333333,4,2,10,50,0,0
36633,-100,4,2,10,50,0,0
37622,-66.6666666666667,4,2,10,50,0,0
37952,-83.3333333333333,4,2,10,70,0,1
47182,-90.9090909090909,4,2,10,50,0,0
48336,-133.333333333333,4,2,10,50,0,0
48583,-133.333333333333,4,2,10,20,0,0
48666,-133.333333333333,4,2,10,50,0,0
48831,-83.3333333333333,4,2,10,70,0,1
56743,-83.3333333333333,4,2,10,65,0,1
57072,-83.3333333333333,4,2,10,60,0,1
57732,-90.9090909090909,4,2,10,50,0,0
59050,-90.9090909090909,4,2,10,50,0,1
59133,-90.9090909090909,4,2,10,20,0,0
63007,-100,4,2,10,5,0,0
69600,-111.111111111111,4,2,10,30,0,0
80149,-133.333333333333,4,2,10,30,0,0
85424,-125,4,2,10,35,0,0
88061,-111.111111111111,4,2,10,40,0,0
89380,-100,4,2,10,50,0,0
90699,-100,4,2,10,55,0,0
92182,-100,4,2,10,60,0,0
93336,-100,4,2,10,55,0,0
94820,-100,4,2,10,60,0,0
95974,-100,4,2,10,55,0,0
97292,-100,4,2,10,50,0,0
98611,-100,4,2,10,40,0,0
99765,-100,4,2,10,20,0,0
100094,-100,4,2,10,40,0,0
101248,-90.9090909090908,4,2,10,50,0,0
109160,-66.6666666666667,4,2,10,60,0,0
110149,-111.111111111111,4,2,10,50,0,0
110479,-90.9090909090909,4,2,10,40,0,0
110809,-83.3333333333333,4,2,10,50,0,0
111468,-133.333333333333,4,2,10,50,0,0
111798,-83.3333333333333,4,2,10,70,0,1
119710,-90.9090909090909,4,2,10,70,0,0
122347,-83.3333333333333,4,2,10,70,0,1
130259,-83.3333333333333,4,2,10,70,0,0
134050,-83.3333333333333,4,2,10,70,0,1
134133,-100,4,2,10,70,0,0

[Colours]
Combo1 : 174,0,87
Combo2 : 188,188,188
Combo3 : 81,81,81
Combo4 : 128,128,255

[HitObjects]
205,138,1029,6,0,P|126:127|23:113,1,160,4|0,0:0|1:0,0:0:0:0:
132,224,1523,1,0,1:0:0:0:
289,184,1688,1,0,0:0:0:0:
204,281,1853,1,0,0:0:0:0:
296,232,2018,1,0,0:0:0:0:
256,353,2182,1,0,0:0:0:0:
447,241,2347,6,0,P|369:229|304:272,1,160,0|0,1:0|1:0,0:0:0:0:
256,353,2842,1,0,1:0:0:0:
234,214,3007,1,0,0:0:0:0:
304,272,3171,1,0,0:0:0:0:
204,178,3336,1,0,0:0:0:0:
348,191,3501,1,0,0:0:0:0:
174,146,3666,6,0,L|186:225|198:304,1,160,0|0,1:0|1:0,0:0:0:0:
103,240,4160,1,0,1:0:0:0:
282,361,4325,2,0,P|290:301|296:264,1,80
194,119,4655,1,0,0:0:0:0:
291,189,4820,1,0,0:0:0:0:
130,260,4985,5,0,1:0:0:0:
256,192,5067,12,0,5974,0:0:0:0:
257,101,6303,5,8,0:0:0:0:
161,83,6468,1,2,0:0:0:0:
158,74,6550,1,8,0:0:0:0:
68,122,6715,1,2,0:0:0:0:
62,114,6798,1,8,0:0:0:0:
17,204,6963,1,2,0:0:0:0:
8,201,7045,1,8,0:0:0:0:
17,303,7210,1,2,0:0:0:0:
8,309,7292,6,0,L|151:295,1,128,8|8,0:0|0:0,0:0:0:0:
219,323,7539,1,8,0:0:0:0:
216,314,7622,5,8,0:0:0:0:
300,255,7787,1,2,0:0:0:0:
303,246,7869,1,8,0:0:0:0:
398,282,8034,1,2,0:0:0:0:
401,273,8116,1,8,0:0:0:0:
473,197,8281,1,2,0:0:0:0:
470,188,8364,1,8,0:0:0:0:
418,98,8529,1,2,0:0:0:0:
416,89,8611,6,0,L|426:26,1,44.0000013427735,8|8,0:0|0:0,0:0:0:0:
320,114,8776,2,0,L|330:51,1,44.0000013427735,8|8,0:0|0:0,0:0:0:0:
220,135,8941,6,0,P|169:120|107:112,1,88.000002685547,8|2,0:0|0:0,0:0:0:0:
134,114,9188,2,0,P|187:115|249:106,1,88.000002685547,8|2,0:0|0:0,0:0:0:0:
221,111,9435,2,0,P|169:123|111:147,1,88.000002685547,8|2,0:0|0:0,0:0:0:0:
136,135,9682,2,0,P|182:109|232:71,1,88.000002685547,8|2,0:0|0:0,0:0:0:0:
210,89,9930,6,0,P|201:173|196:237,1,128,8|8,0:0|0:0,0:0:0:0:
189,306,10177,1,8,0:0:0:0:
186,349,10259,6,0,P|138:343|82:333,1,88.000002685547,8|2,0:0|0:0,0:0:0:0:
131,265,10507,2,0,P|167:290|205:313,1,88.000002685547,8|2,0:0|0:0,0:0:0:0:
229,297,10754,2,0,P|211:257|196:216,1,88.000002685547,8|2,0:0|0:0,0:0:0:0:
276,202,11001,2,0,P|269:246|265:290,1,88.000002685547,8|2,0:0|0:0,0:0:0:0:
265,372,11248,6,0,L|332:363,1,44.0000013427735,8|8,0:0|0:0,0:0:0:0:
386,359,11413,2,0,L|453:350,1,44.0000013427735,8|8,0:0|0:0,0:0:0:0:
511,344,11578,6,0,P|505:303|490:232,1,95.9999970703126,8|2,0:0|0:0,0:0:0:0:
501,165,11825,2,0,P|460:171|389:186,1,95.9999970703126,8|2,0:0|0:0,0:0:0:0:
336,219,12072,1,8,0:0:0:0:
32,328,12237,6,0,P|38:287|53:216,1,95.9999970703126,8|2,0:0|0:0,0:0:0:0:
42,149,12485,2,0,P|83:155|154:170,1,95.9999970703126,8|2,0:0|0:0,0:0:0:0:
207,203,12732,1,8,0:0:0:0:
443,268,12897,6,0,P|437:227|422:156,1,95.9999970703126,8|2,0:0|0:0,0:0:0:0:
433,89,13144,2,0,P|392:95|321:110,1,95.9999970703126,8|2,0:0|0:0,0:0:0:0:
268,143,13391,1,8,0:0:0:0:
89,222,13556,6,0,P|95:181|110:110,1,95.9999970703126,8|2,0:0|0:0,0:0:0:0:
99,43,13803,2,0,P|140:49|211:64,1,95.9999970703126,8|2,0:0|0:0,0:0:0:0:
264,97,14050,1,8,0:0:0:0:
398,211,14215,6,0,P|401:181|411:134,1,64,8|0,0:0|0:0,0:0:0:0:
230,168,14380,2,0,P|236:199|239:231,1,64,8|0,0:0|0:0,0:0:0:0:
371,250,14545,6,0,P|374:220|384:173,1,64,8|0,0:0|0:0,0:0:0:0:
203,207,14710,2,0,P|209:238|212:270,1,64,8|0,0:0|0:0,0:0:0:0:
343,286,14875,6,0,P|346:256|356:209,1,64,8|0,0:0|0:0,0:0:0:0:
175,243,15039,2,0,P|181:274|184:306,1,64,8|0,0:0|0:0,0:0:0:0:
316,325,15204,6,0,P|319:295|329:248,1,64,8|0,0:0|0:0,0:0:0:0:
148,282,15369,2,0,P|154:313|157:345,1,64,8|0,0:0|0:0,0:0:0:0:
293,359,15534,5,0,1:0:0:0:
45,197,15864,6,0,L|39:245,2,47.9999985351563,8|8|0,0:0|0:0|3:0,0:0:0:0:
218,191,16193,2,0,L|211:143,1,47.9999985351563,0|0,3:0|3:0,0:0:0:0:
84,125,16358,2,0,L|90:77,1,47.9999985351563,0|0,3:0|3:0,0:0:0:0:
144,16,16523,5,8,0:1:0:0:
264,349,16853,6,0,B|298:343|330:330|330:330|374:354|374:354|456:361|490:282,1,240.000009155274,4|0,0:0|0:0,0:0:0:0:
256,204,17347,1,2,0:0:0:0:
261,230,17430,1,2,0:0:0:0:
266,255,17512,1,8,0:0:0:0:
266,255,17842,5,2,0:0:0:0:
323,132,18007,1,8,0:0:0:0:
181,295,18171,2,0,L|174:352,1,30.0000011444092,2|0,0:0|0:0,0:0:0:0:
145,291,18254,2,0,L|138:348,1,30.0000011444092,2|0,0:0|0:0,0:0:0:0:
109,287,18336,2,0,L|102:344,1,30.0000011444092,2|0,0:0|0:0,0:0:0:0:
73,282,18419,2,0,L|66:339,1,30.0000011444092,2|0,0:0|0:0,0:0:0:0:
38,277,18501,6,0,P|45:223|57:164,1,95.9999970703126,2|0,0:0|0:0,0:0:0:0:
114,27,18831,1,8,0:0:0:0:
149,161,18996,1,2,0:0:0:0:
114,27,19160,2,0,P|159:36|222:42,1,95.9999970703126,2|0,0:0|0:0,0:0:0:0:
414,170,19490,6,0,P|332:160|271:223,1,143.999995605469,2|2,0:0|0:0,0:0:0:0:
261,236,19820,2,0,P|253:170|243:116,1,95.9999970703126,0|2,0:0|0:0,0:0:0:0:
403,330,20149,1,8,0:0:0:0:
438,195,20314,1,0,0:0:0:0:
303,332,20479,1,2,0:0:0:0:
481,280,20644,1,8,0:0:0:0:
341,149,20809,5,2,0:0:0:0:
333,159,21138,1,2,0:0:0:0:
188,220,21303,1,0,1:0:0:0:
188,220,21386,1,0,1:0:0:0:
188,220,21468,2,0,P|140:214|92:207,1,88.000002685547,2|0,1:2|1:0,0:0:0:0:
0,84,21798,2,0,P|43:77|87:72,1,88.000002685547,2|0,1:2|1:0,0:0:0:0:
280,264,22127,6,0,P|193:248|122:299,1,180.000006866455,4|0,0:0|0:0,0:0:0:0:
88,376,22457,5,8,0:0:0:0:
307,295,22622,1,0,0:0:0:0:
168,192,22787,1,0,0:0:0:0:
278,332,22952,1,2,0:0:0:0:
440,283,23116,2,0,P|451:237|458:189,1,95.9999970703126,8|0,0:0|0:0,0:0:0:0:
289,38,23446,6,0,L|279:-2,1,30.0000011444092,2|0,0:0|0:0,0:0:0:0:
250,53,23529,2,0,L|228:15,1,30.0000011444092,2|0,0:0|0:0,0:0:0:0:
221,84,23611,2,0,L|185:60,1,30.0000011444092,2|0,0:0|0:0,0:0:0:0:
207,123,23693,2,0,L|170:116,1,30.0000011444092,2|0,0:0|0:0,0:0:0:0:
210,164,23776,5,8,0:0:0:0:
284,273,23941,1,2,0:0:0:0:
421,172,24105,1,0,0:0:0:0:
303,137,24270,1,2,0:0:0:0:
432,207,24435,1,8,0:0:0:0:
390,54,24600,1,0,0:0:0:0:
306,225,24765,5,4,3:2:0:0:
314,252,25094,5,4,3:2:0:0:
301,286,25424,5,4,3:2:0:0:
309,313,25754,5,4,3:2:0:0:
296,347,26083,5,4,3:2:0:0:
304,374,26413,5,4,3:2:0:0:
213,274,26578,1,0,3:2:0:0:
415,179,26743,1,0,3:2:0:0:
411,200,26825,1,0,3:2:0:0:
408,222,26908,1,0,3:2:0:0:
405,244,26990,1,0,3:2:0:0:
401,265,27072,2,0,P|337:256|295:247,1,88.000002685547,8|0,0:0|0:0,0:0:0:0:
120,177,27402,5,2,0:0:0:0:
250,142,27567,1,2,0:0:0:0:
106,180,27732,2,0,P|111:132|121:85,1,95.9999970703126,8|0,0:0|0:0,0:0:0:0:
307,33,28061,2,0,P|301:80|291:127,1,95.9999970703126,2|0,0:0|0:0,0:0:0:0:
147,279,28391,1,8,0:0:0:0:
265,224,28556,1,0,0:0:0:0:
405,341,28721,6,0,P|491:310|503:220,1,191.999994140625,2|8,0:0|0:0,0:0:0:0:
397,106,29215,1,0,0:0:0:0:
420,254,29380,1,2,0:0:0:0:
291,214,29545,1,0,0:0:0:0:
448,242,29710,1,8,0:0:0:0:
271,315,29875,1,8,0:3:0:0:
471,231,30039,6,0,P|463:184|457:136,1,95.9999970703126,2|0,0:0|0:0,0:0:0:0:
291,26,30369,2,0,P|298:73|304:121,1,95.9999970703126,8|0,0:0|0:0,0:0:0:0:
250,292,30699,1,2,0:0:0:0:
360,195,30864,1,0,0:0:0:0:
189,225,31029,1,8,0:0:0:0:
339,285,31193,1,0,0:0:0:0:
214,136,31358,6,0,P|142:149|18:165,1,191.999994140625,2|8,0:0|0:0,0:0:0:0:
162,312,31853,1,0,0:0:0:0:
315,193,32018,1,2,0:0:0:0:
189,225,32182,1,2,0:0:0:0:
351,306,32347,2,0,P|344:258|334:206,1,95.9999970703126,8|0,0:0|0:0,0:0:0:0:
138,41,32677,6,0,P|145:89|155:141,1,95.9999970703126,6|0,0:0|0:0,0:0:0:0:
253,285,33007,2,0,P|289:234|425:240,1,191.999994140625,8|2,0:0|0:0,0:0:0:0:
510,336,33501,1,0,0:0:0:0:
351,306,33666,1,8,0:0:0:0:
490,239,33831,1,0,0:0:0:0:
337,347,33996,6,0,P|284:335|225:326,1,95.9999970703126,2|0,0:0|0:0,0:0:0:0:
63,329,34325,1,8,0:0:0:0:
228,236,34490,1,2,0:0:0:0:
155,361,34655,2,0,P|146:305|140:248,1,95.9999970703126,2|0,0:0|0:0,0:0:0:0:
46,85,34985,1,8,0:0:0:0:
161,178,35149,1,8,0:3:0:0:
246,47,35314,6,0,P|195:54|137:66,1,95.9999970703126,2|0,0:0|0:0,0:0:0:0:
28,212,35644,2,0,P|75:205|122:196,1,95.9999970703126,8|0,0:0|0:0,0:0:0:0:
277,127,35974,1,2,0:0:0:0:
241,270,36138,1,0,0:0:0:0:
361,197,36303,1,8,0:0:0:0:
246,47,36468,1,0,0:0:0:0:
214,226,36633,6,0,L|209:265,3,40,0|0|0|0,1:0|1:0|1:0|1:0,0:0:0:0:
241,270,36963,2,0,L|245:309,3,40,0|0|0|0,1:0|1:0|1:0|1:0,0:0:0:0:
306,361,37292,5,0,1:0:0:0:
341,358,37375,1,0,1:0:0:0:
377,353,37457,1,0,1:0:0:0:
413,347,37539,1,0,1:0:0:0:
448,339,37622,1,8,1:0:0:0:
460,348,37952,6,0,P|451:296|436:230,1,95.9999970703126,4|0,0:0|0:0,0:0:0:0:
390,126,38281,2,0,P|446:114|494:102,1,95.9999970703126,8|0,0:0|0:0,0:0:0:0:
286,222,38611,1,2,0:0:0:0:
314,74,38776,2,0,L|326:10,2,47.9999985351563,0|0|8,0:0|0:0|0:0,0:0:0:0:
282,242,39105,1,0,0:0:0:0:
478,230,39270,6,0,P|426:218|358:206,1,95.9999970703126,2|0,0:0|0:0,0:0:0:0:
186,282,39600,1,8,0:0:0:0:
254,150,39765,1,0,0:0:0:0:
104,227,39930,1,2,0:0:0:0:
91,258,40012,1,0,0:0:0:0:
88,291,40094,1,0,0:0:0:0:
97,323,40177,1,0,0:0:0:0:
114,351,40259,1,8,0:0:0:0:
290,262,40424,1,0,0:0:0:0:
146,122,40589,6,0,P|78:134|26:149,1,95.9999970703126,2|0,0:0|0:0,0:0:0:0:
301,162,40919,2,0,P|284:102|273:42,1,95.9999970703126,8|0,0:0|0:0,0:0:0:0:
205,247,41248,1,2,0:0:0:0:
330,137,41413,1,0,0:0:0:0:
330,137,41496,1,0,0:0:0:0:
330,137,41578,1,8,0:0:0:0:
175,96,41743,1,0,0:0:0:0:
330,250,41908,6,0,P|398:238|450:223,1,95.9999970703126,2|0,0:0|0:0,0:0:0:0:
296,28,42237,2,0,P|286:80|278:140,1,95.9999970703126,8|0,0:0|0:0,0:0:0:0:
257,320,42567,1,2,0:0:0:0:
227,303,42649,1,0,0:0:0:0:
194,293,42732,1,0,0:0:0:0:
160,287,42814,1,0,0:0:0:0:
126,287,42897,1,8,0:0:0:0:
23,337,43061,1,0,0:0:0:0:
156,204,43226,6,0,P|149:156|139:109,1,95.9999970703126,2|0,0:0|0:0,0:0:0:0:
312,218,43556,2,0,P|302:270|294:330,1,95.9999970703126,8|0,0:0|0:0,0:0:0:0:
133,232,43886,1,2,0:0:0:0:
267,124,44050,1,0,0:0:0:0:
160,148,44215,1,8,0:0:0:0:
284,238,44380,1,0,0:0:0:0:
381,54,44545,5,2,0:0:0:0:
213,108,44710,2,0,L|150:126,2,47.9999985351563,0|0|8,0:0|0:0|0:0,0:0:0:0:
400,49,45039,1,0,0:0:0:0:
400,49,45122,1,0,0:0:0:0:
400,49,45204,2,0,P|472:61|518:67,1,95.9999970703126,2|0,0:0|0:0,0:0:0:0:
303,210,45534,2,10,L|239:200,1,47.9999985351563,8|0,0:0|0:0,0:0:0:0:
194,149,45699,2,0,L|133:175,1,47.9999985351563
68,161,45864,6,0,L|46:229,3,47.9999985351563,2|0|0|0,1:2|1:0|1:0|1:0,0:0:0:0:
0,267,46193,2,0,L|11:338,3,47.9999985351563,8|0|0|0,1:2|1:0|1:0|1:0,0:0:0:0:
67,368,46523,5,2,1:2:0:0:
108,378,46605,1,0,1:0:0:0:
150,370,46688,1,0,1:0:0:0:
188,351,46770,1,0,1:0:0:0:
222,324,46853,1,8,1:2:0:0:
261,309,46935,1,0,1:0:0:0:
304,307,47018,1,2,1:2:0:0:
345,319,47100,1,0,1:0:0:0:
373,351,47182,6,0,P|416:344|475:336,1,88.000002685547,6|0,0:0|0:0,0:0:0:0:
489,252,47430,2,0,P|446:259|387:267,1,88.000002685547,6|0,0:0|0:0,0:0:0:0:
328,236,47677,2,0,P|308:201|306:139,1,88.000002685547,6|0,0:0|0:0,0:0:0:0:
357,91,47924,2,0,P|377:126|379:188,1,88.000002685547,6|0,0:0|0:0,0:0:0:0:
328,236,48171,1,6,0:0:0:0:
173,308,48336,6,0,P|181:256|191:201,1,90.0000034332277,6|0,0:0|0:0,0:0:0:0:
187,219,48666,1,2,0:0:0:0:
304,52,48831,6,0,P|356:64|404:72,1,95.9999970703126,8|0,0:1|0:0,0:0:0:0:
492,232,49160,2,0,P|440:220|392:212,1,95.9999970703126,2|0,0:0|0:0,0:0:0:0:
224,104,49490,1,8,0:0:0:0:
272,292,49655,1,0,0:0:0:0:
272,292,49737,1,0,0:0:0:0:
272,292,49820,6,0,P|316:248|320:164,1,143.999995605469,2|0,0:0|0:0,0:0:0:0:
298,127,50149,1,8,0:0:0:0:
156,56,50314,2,0,L|164:0,2,47.9999985351563,0|0|2,0:0|0:0|0:0,0:0:0:0:
120,224,50644,1,0,0:0:0:0:
8,148,50809,2,0,P|55:141|102:133,1,95.9999970703126,8|0,0:0|0:0,0:0:0:0:
324,239,51138,5,2,0:0:0:0:
281,101,51303,1,0,0:0:0:0:
229,281,51468,1,8,0:0:0:0:
229,281,51550,1,0,0:0:0:0:
229,281,51633,1,0,0:0:0:0:
371,222,51798,1,2,0:0:0:0:
199,160,51963,1,0,0:0:0:0:
357,89,52127,2,0,L|408:68,2,47.9999985351563,8|0|0,0:0|0:0|0:0,0:0:0:0:
182,167,52457,6,0,P|134:158|87:151,1,95.9999970703126,2|0,0:0|0:0,0:0:0:0:
298,249,52787,2,0,P|309:197|315:141,1,95.9999970703126,8|0,0:0|0:0,0:0:0:0:
117,242,53116,1,2,0:0:0:0:
120,275,53199,1,0,0:0:0:0:
124,308,53281,1,0,0:0:0:0:
129,342,53364,1,0,0:0:0:0:
134,375,53446,1,8,0:0:0:0:
312,272,53611,1,2,0:0:0:0:
237,94,53776,6,0,P|226:146|220:202,1,95.9999970703126,2|0,0:0|0:0,0:0:0:0:
411,305,54105,2,0,P|405:257|394:210,1,95.9999970703126,8|0,0:0|0:0,0:0:0:0:
312,41,54435,1,2,0:0:0:0:
435,129,54600,1,0,0:0:0:0:
310,194,54765,1,8,0:0:0:0:
401,47,54930,1,0,0:0:0:0:
492,165,55094,6,0,P|424:154|373:144,1,95.9999970703126,2|0,0:0|0:0,0:0:0:0:
184,54,55424,2,0,P|231:45|278:37,1,95.9999970703126,8|0,0:0|0:0,0:0:0:0:
392,241,55754,1,2,1:2:0:0:
230,204,55919,1,0,1:0:0:0:
374,132,56083,1,8,1:2:0:0:
437,318,56248,1,0,1:0:0:0:
308,253,56413,6,0,L|315:189,3,47.9999985351563,0|0|0|0,3:0|3:0|3:0|3:0,0:0:0:0:
267,221,56743,2,0,L|260:157,3,47.9999985351563,0|0|0|0,3:0|3:0|3:0|3:0,0:0:0:0:
193,248,57072,5,0,3:0:0:0:
161,259,57155,1,0,3:0:0:0:
127,255,57237,1,0,3:0:0:0:
96,242,57320,1,0,3:0:0:0:
68,222,57402,1,0,3:0:0:0:
49,193,57485,1,0,3:0:0:0:
40,160,57567,1,0,3:0:0:0:
42,126,57649,1,0,3:0:0:0:
55,95,57732,6,0,B|91:99|121:108|121:108|156:87|156:87|189:99|249:103,1,176.000005371094,4|8,0:0|0:0,0:0:0:0:
436,101,58226,2,0,P|351:88|286:158,1,176.000005371094,4|8,0:0|0:0,0:0:0:0:
256,314,58721,1,8,0:0:0:0:
378,176,58886,1,8,0:0:0:0:
222,100,59050,5,4,0:1:0:0:
256,192,59133,12,0,63007,0:0:0:0:
88,324,69600,5,0,0:0:0:0:
256,288,69930,1,2,0:1:0:0:
140,160,70259,1,0,1:0:0:0:
180,344,70589,1,2,0:1:0:0:
348,288,70919,5,0,0:0:0:0:
434,315,71083,2,0,P|469:307|504:300,1,71.9999978027344,2|0,0:1|0:0,0:0:0:0:
365,202,71413,2,0,P|329:209|294:215,1,71.9999978027344,2|0,1:0|0:0,0:0:0:0:
453,225,71743,2,0,P|438:154|428:79,1,143.999995605469,2|2,0:1|0:1,0:0:0:0:
475,10,72237,5,0,0:0:0:0:
356,136,72567,1,2,0:1:0:0:
192,80,72897,1,0,1:0:0:0:
367,19,73226,1,2,0:1:0:0:
483,168,73556,5,0,0:0:0:0:
398,189,73721,2,0,P|403:153|409:107,1,71.9999978027344,2|0,0:1|0:0,0:0:0:0:
334,246,74050,2,0,P|315:216|288:185,1,71.9999978027344,2|0,1:0|0:0,0:0:0:0:
309,330,74380,2,0,P|256:314|147:303,1,143.999995605469,2|2,0:1|0:1,0:0:0:0:
92,346,74875,5,0,0:0:0:0:
217,227,75204,1,2,0:1:0:0:
51,175,75534,1,0,1:0:0:0:
51,175,75864,1,0,0:0:0:0:
51,175,76193,5,0,1:0:0:0:
107,240,76358,1,0,1:0:0:0:
134,158,76523,1,0,1:0:0:0:
51,175,76688,2,0,P|62:242|73:334,1,143.999995605469,2|0,0:1|0:0,0:0:0:0:
71,317,77182,1,2,0:1:0:0:
255,123,77512,5,0,0:0:0:0:
255,123,77677,1,0,0:0:0:0:
255,123,77842,2,0,P|321:127|385:56,2,143.999995605469,0|0|0,0:0|1:0|0:0,0:0:0:0:
41,50,78831,5,0,1:0:0:0:
126,37,78996,1,0,1:0:0:0:
211,26,79160,1,0,1:0:0:0:
424,280,79490,2,0,P|430:243|438:193,1,71.9999978027344,0|0,1:0|0:0,0:0:0:0:
337,160,79820,2,0,P|342:195|348:231,1,71.9999978027344,0|0,1:0|0:0,0:0:0:0:
369,342,80149,6,0,P|403:333|443:327,1,60.0000022888184,4|0,0:0|0:0,0:0:0:0:
427,328,80479,1,0,0:0:0:0:
257,249,80809,2,0,P|210:262|122:274,1,120.000004577637,0|0,1:0|0:0,0:0:0:0:
49,266,81303,5,2,0:1:0:0:
213,339,81633,1,2,0:1:0:0:
258,164,81963,1,2,0:1:0:0:
94,91,82292,1,0,1:0:0:0:
108,180,82457,1,0,0:0:0:0:
124,268,82622,1,0,0:0:0:0:
141,356,82787,6,0,P|191:347|246:338,1,90.0000034332277,2|2,0:1|0:1,0:0:0:0:
386,209,83281,2,0,P|377:259|373:288,1,60.0000022888184,2|0,0:1|1:0,0:0:0:0:
389,300,83529,2,0,P|346:291|288:281,1,90.0000034332277,2|2,0:1|0:1,0:0:0:0:
102,133,84105,6,0,P|138:108|186:112,1,90.0000034332277,2|2,0:1|0:1,0:0:0:0:
301,195,84600,2,0,P|311:139|316:106,2,90.0000034332277,2|2|2,0:1|0:1|0:1,0:0:0:0:
235,362,85424,6,0,P|188:354|148:347,1,64
171,351,85754,1,0,0:0:0:0:
359,312,86083,2,0,P|366:263|386:163,1,128,0|0,1:0|0:0,0:0:0:0:
412,101,86578,5,2,0:1:0:0:
302,242,86908,1,2,0:1:0:0:
474,171,87237,1,2,0:1:0:0:
281,32,87567,1,0,0:0:0:0:
192,48,87732,1,0,0:0:0:0:
103,64,87897,1,0,0:0:0:0:
15,82,88061,6,0,P|28:157|44:247,1,143.999995605469,2|0,0:1|0:0,0:0:0:0:
199,320,88556,2,0,P|189:263|182:229,1,71.9999978027344,2|0,0:1|0:0,0:0:0:0:
124,178,88886,1,2,0:1:0:0:
30,311,89050,2,0,P|65:305|100:298,1,71.9999978027344,2|0,0:1|0:0,0:0:0:0:
267,208,89380,5,0,0:0:0:0:
267,208,89545,2,0,P|302:246|406:241,1,160
508,124,90039,1,0,0:0:0:0:
508,124,90122,1,0,0:0:0:0:
508,124,90204,1,0,0:0:0:0:
351,172,90369,1,0,0:0:0:0:
493,251,90534,1,0,0:0:0:0:
398,72,90699,5,2,0:0:0:0:
312,91,90864,1,2,0:0:0:0:
226,113,91029,2,0,P|236:172|251:278,2,160,2|2|2,0:0|0:0|0:0,0:0:0:0:
360,253,91853,2,0,P|354:291|347:341,1,80,2|0,0:0|0:0,0:0:0:0:
205,350,92182,5,0,3:0:0:0:
183,334,92265,1,0,3:0:0:0:
157,322,92347,1,0,3:0:0:0:
129,316,92430,1,0,3:0:0:0:
101,317,92512,1,0,3:0:0:0:
74,324,92594,1,0,3:0:0:0:
42,341,92677,5,0,3:0:0:0:
46,305,92759,1,0,3:0:0:0:
52,269,92842,2,0,L|59:211,1,40,0|0,3:0|0:0,0:0:0:0:
126,190,93007,5,0,3:0:0:0:
122,154,93089,1,0,3:0:0:0:
116,118,93171,2,0,L|108:59,1,40,0|0,3:0|0:0,0:0:0:0:
171,22,93336,5,2,0:0:0:0:
256,44,93501,1,2,0:0:0:0:
341,66,93666,2,0,P|328:129|311:237,2,160,2|2|2,0:0|0:0|0:0,0:0:0:0:
166,186,94490,2,0,P|174:225|185:290,1,80,2|0,0:0|0:0,0:0:0:0:
260,372,94820,5,0,3:0:0:0:
287,367,94902,1,0,3:0:0:0:
315,363,94985,1,0,3:0:0:0:
343,359,95067,1,0,3:0:0:0:
370,355,95149,1,0,3:0:0:0:
398,353,95232,1,0,3:0:0:0:
425,351,95314,6,0,L|418:294,3,40,0|0|0|0,3:0|3:0|3:0|3:0,0:0:0:0:
464,314,95644,2,0,L|471:257,3,40,0|0|0|0,3:0|3:0|3:0|3:0,0:0:0:0:
508,254,95974,5,2,0:0:0:0:
495,167,96138,1,2,0:0:0:0:
483,79,96303,2,0,P|422:88|385:94,1,80,2|0,0:0|0:0,0:0:0:0:
213,185,96633,2,0,P|268:238|345:228,1,160,2|2,0:0|0:0,0:0:0:0:
414,174,97127,1,2,0:0:0:0:
328,43,97292,5,0,3:0:0:0:
188,99,97457,1,0,3:0:0:0:
188,99,97539,1,0,3:0:0:0:
188,99,97622,1,8,3:2:0:0:
306,153,97787,1,0,3:0:0:0:
236,16,97952,5,0,3:0:0:0:
236,16,98034,1,0,3:0:0:0:
236,16,98116,1,8,3:2:0:0:
137,187,98281,1,0,3:0:0:0:
333,147,98446,1,0,3:0:0:0:
333,147,98529,1,0,3:0:0:0:
333,147,98611,1,0,3:0:0:0:
256,192,98693,12,8,99765,0:1:0:0:
179,237,100094,5,0,3:0:0:0:
331,317,100259,1,8,3:2:0:0:
359,145,100424,1,0,3:0:0:0:
335,148,100507,1,0,3:0:0:0:
311,152,100589,1,0,3:0:0:0:
287,156,100671,1,0,3:0:0:0:
264,160,100754,2,0,P|270:210|278:252,1,80,0|8,3:0|3:2,0:0:0:0:
331,317,101083,1,0,3:0:0:0:
331,317,101248,5,12,0:0:0:0:
186,252,101578,5,8,0:0:0:0:
358,199,101908,5,8,0:0:0:0:
255,78,102237,5,8,0:0:0:0:
186,252,102567,5,8,0:0:0:0:
389,192,102897,5,8,0:0:0:0:
267,44,103226,5,8,0:0:0:0:
347,275,103556,5,8,0:0:0:0:
467,243,103721,1,8,0:0:0:0:
467,243,103803,1,8,0:0:0:0:
467,243,103886,5,8,0:0:0:0:
165,109,104215,5,8,0:0:0:0:
45,141,104545,5,8,0:0:0:0:
245,340,104875,5,8,0:0:0:0:
341,87,105204,5,8,0:0:0:0:
131,223,105534,5,8,0:0:0:0:
449,131,105864,5,8,0:0:0:0:
219,26,106193,5,8,0:0:0:0:
255,188,106358,1,8,0:0:0:0:
255,188,106441,1,8,0:0:0:0:
255,188,106523,5,8,0:0:0:0:
372,222,106688,1,0,3:0:0:0:
286,97,106853,1,8,0:0:0:0:
140,156,107018,1,0,3:0:0:0:
285,198,107182,1,8,0:0:0:0:
367,61,107347,1,0,3:0:0:0:
230,121,107512,1,8,0:0:0:0:
285,293,107677,1,8,0:0:0:0:
285,293,107759,1,8,0:0:0:0:
285,293,107842,5,8,0:0:0:0:
325,131,108007,1,0,3:0:0:0:
264,273,108171,1,8,0:0:0:0:
396,183,108336,1,0,3:0:0:0:
253,246,108501,1,8,0:0:0:0:
433,266,108666,1,0,3:0:0:0:
253,216,108831,1,8,0:0:0:0:
431,353,108996,1,0,3:0:0:0:
268,181,109160,6,0,P|301:177|357:167,1,60.0000022888184,8|8,0:0|0:0,0:0:0:0:
366,316,109325,2,0,P|336:311|306:307,1,60.0000022888184,8|8,0:0|0:0,0:0:0:0:
194,206,109490,6,0,P|227:202|283:192,1,60.0000022888184,8|8,0:0|0:0,0:0:0:0:
292,341,109655,2,0,P|262:336|232:332,1,60.0000022888184,8|8,0:0|0:0,0:0:0:0:
117,233,109820,6,0,P|150:229|206:219,1,60.0000022888184,8|8,0:0|0:0,0:0:0:0:
215,368,109985,2,0,P|185:363|155:359,1,60.0000022888184,8|8,0:0|0:0,0:0:0:0:
41,262,110149,6,0,P|47:212|54:159,1,71.9999978027344,0|0,1:0|0:0,0:0:0:0:
224,100,110479,6,0,P|218:143|213:187,1,88.000002685547,0|0,1:0|0:0,0:0:0:0:
72,351,110809,6,0,L|2:341,2,47.9999985351563,8|8|0,0:0|0:0|3:0,0:0:0:0:
244,280,111138,2,0,L|253:216,1,47.9999985351563,0|0,3:0|3:0,0:0:0:0:
148,271,111303,2,0,L|154:318,1,47.9999985351563,0|0,3:0|3:0,0:0:0:0:
232,371,111468,6,0,L|315:360,1,60.0000022888184,8|0,0:1|0:0,0:0:0:0:
459,320,111798,6,0,P|411:312|364:306,1,95.9999970703126,6|0,0:0|0:0,0:0:0:0:
222,207,112127,1,8,0:0:0:0:
350,161,112292,1,0,0:0:0:0:
204,214,112457,2,0,P|191:159|186:107,1,95.9999970703126,2|0,0:0|0:0,0:0:0:0:
265,298,112787,1,8,0:0:0:0:
114,246,112952,1,0,0:0:0:0:
294,209,113116,5,2,0:0:0:0:
235,377,113281,1,0,0:0:0:0:
235,377,113364,1,0,0:0:0:0:
235,377,113446,1,8,0:0:0:0:
302,192,113611,1,0,0:0:0:0:
442,317,113776,2,0,P|370:324|324:333,1,95.9999970703126,2|0,0:0|0:0,0:0:0:0:
96,260,114105,2,0,P|143:256|191:248,1,95.9999970703126,8|0,0:0|0:0,0:0:0:0:
325,175,114435,5,2,0:0:0:0:
214,83,114600,1,0,0:0:0:0:
214,83,114682,1,0,0:0:0:0:
214,83,114765,1,8,0:0:0:0:
347,195,114930,1,0,0:0:0:0:
217,328,115094,2,0,P|220:281|228:233,1,95.9999970703126,2|0,0:0|0:0,0:0:0:0:
316,64,115424,1,8,0:0:0:0:
175,162,115589,1,0,0:0:0:0:
358,290,115754,6,0,P|354:242|347:195,1,95.9999970703126,2|0,0:0|0:0,0:0:0:0:
214,83,116083,1,8,0:0:0:0:
133,248,116248,2,0,P|180:241|228:232,1,95.9999970703126,0|2,0:0|0:0,0:0:0:0:
477,311,116578,1,0,0:0:0:0:
477,311,116660,1,0,0:0:0:0:
477,311,116743,2,0,P|429:318|382:327,1,95.9999970703126,8|0,0:0|0:0,0:0:0:0:
296,152,117072,6,0,P|322:191|329:248,1,95.9999970703126,2|0,0:0|0:0,0:0:0:0:
181,373,117402,2,0,P|188:310|195:255,1,95.9999970703126,8|0,0:0|0:0,0:0:0:0:
287,121,117732,1,2,0:0:0:0:
138,201,117897,1,0,0:0:0:0:
138,201,117979,1,0,0:0:0:0:
138,201,118061,1,8,0:0:0:0:
311,269,118226,1,0,0:0:0:0:
179,105,118391,6,0,P|106:116|63:125,1,95.9999970703126,2|0,0:0|0:0,0:0:0:0:
333,129,118721,2,0,P|322:56|313:13,1,95.9999970703126,8|0,0:0|0:0,0:0:0:0:
208,276,119050,1,2,0:0:0:0:
351,212,119215,1,2,0:0:0:0:
203,144,119380,1,8,0:0:0:0:
314,316,119545,1,0,0:0:0:0:
314,316,119627,1,2,0:0:0:0:
314,316,119710,6,0,P|366:309|429:296,1,88.000002685547,6|0,0:0|0:0,0:0:0:0:
246,216,120039,5,2,0:0:0:0:
166,271,120204,2,0,P|114:264|51:251,1,88.000002685547,2|0,0:0|0:0,0:0:0:0:
298,140,120534,5,2,0:0:0:0:
392,212,120699,2,0,P|444:205|507:192,1,88.000002685547,2|0,0:0|0:0,0:0:0:0:
217,58,121029,5,2,0:0:0:0:
102,142,121193,2,0,P|50:135|-13:122,1,88.000002685547,2|0,0:0|0:0,0:0:0:0:
313,18,121523,5,2,0:0:0:0:
259,173,121688,1,2,0:0:0:0:
217,58,121853,1,2,0:0:0:0:
364,159,122018,1,8,0:0:0:0:
231,243,122182,1,2,0:0:0:0:
331,60,122347,6,0,P|386:68|448:83,1,95.9999970703126,6|0,0:0|0:0,0:0:0:0:
247,206,122677,1,8,0:0:0:0:
136,117,122842,1,0,0:0:0:0:
136,117,122924,1,0,0:0:0:0:
136,117,123007,2,0,P|81:125|19:140,1,95.9999970703126,2|0,0:0|0:0,0:0:0:0:
262,255,123336,1,8,0:0:0:0:
364,159,123501,1,0,0:0:0:0:
200,172,123666,6,0,P|219:266|235:360,1,191.999994140625,2|8,0:0|0:0,0:0:0:0:
335,184,124160,1,0,0:0:0:0:
335,184,124243,1,0,0:0:0:0:
335,184,124325,1,2,0:0:0:0:
169,78,124490,1,0,0:0:0:0:
319,36,124655,1,8,0:0:0:0:
218,189,124820,1,0,0:0:0:0:
139,37,124985,6,0,P|214:53|258:66,1,95.9999970703126,2|0,0:0|0:0,0:0:0:0:
380,179,125314,1,8,0:0:0:0:
330,65,125479,1,0,0:0:0:0:
338,265,125644,1,2,0:0:0:0:
376,259,125726,1,0,0:0:0:0:
414,254,125809,1,0,0:0:0:0:
451,247,125891,1,0,0:0:0:0:
489,239,125974,1,8,0:0:0:0:
341,93,126138,1,0,0:0:0:0:
172,187,126303,6,0,P|112:177|57:166,1,95.9999970703126,2|0,0:0|0:0,0:0:0:0:
207,288,126633,1,8,0:0:0:0:
256,133,126798,1,0,0:0:0:0:
256,133,126880,1,0,0:0:0:0:
256,133,126963,1,2,0:0:0:0:
201,310,127127,1,0,0:0:0:0:
355,187,127292,2,0,P|344:125|339:71,1,95.9999970703126,8|0,0:0|0:0,0:0:0:0:
168,20,127622,5,2,3:2:0:0:
130,14,127704,1,0,3:0:0:0:
91,20,127787,1,0,3:0:0:0:
61,44,127869,1,0,3:0:0:0:
44,78,127952,2,0,L|58:139,3,47.9999985351563,8|0|0|0,1:2|3:0|1:0|3:0,0:0:0:0:
100,192,128281,5,2,3:2:0:0:
95,230,128364,1,0,3:0:0:0:
91,268,128446,1,0,3:0:0:0:
86,306,128529,1,0,3:0:0:0:
82,344,128611,2,0,L|143:356,3,47.9999985351563,8|0|0|0,3:2|3:0|3:0|3:0,0:0:0:0:
203,323,128941,5,2,3:2:0:0:
244,310,129023,1,0,3:0:0:0:
286,312,129105,1,0,3:0:0:0:
325,329,129188,1,0,3:0:0:0:
358,355,129270,1,8,3:2:0:0:
399,369,129353,1,0,3:0:0:0:
441,366,129435,1,0,3:0:0:0:
479,346,129518,1,0,3:0:0:0:
499,308,129600,1,2,3:2:0:0:
503,265,129682,1,0,3:0:0:0:
488,223,129765,1,0,3:0:0:0:
474,177,129847,1,2,3:2:0:0:
474,128,129930,2,0,P|416:139|365:148,1,95.9999970703126,2|2,3:2|3:2,0:0:0:0:
171,210,130259,6,0,P|160:135|140:38,2,143.999995605469,6|6|6,0:0|0:0|0:0,0:0:0:0:
171,210,131001,1,6,0:0:0:0:
351,287,131248,2,0,P|362:212|382:115,2,143.999995605469,6|6|6,0:0|0:0|0:0,0:0:0:0:
351,287,131990,5,2,0:0:0:0:
350,286,132072,2,0,P|299:278|255:269,1,95.9999970703126,2|0,0:0|1:0,0:0:0:0:
110,199,132402,1,2,0:0:0:0:
218,177,132567,1,8,0:0:0:0:
87,283,132732,1,2,0:0:0:0:
148,105,132897,5,8,0:0:0:0:
148,105,133061,1,2,0:0:0:0:
324,186,133226,1,8,0:0:0:0:
324,186,133391,1,2,0:0:0:0:
262,372,133556,1,8,0:0:0:0:
262,372,133721,1,2,0:0:0:0:
87,283,133886,1,8,0:0:0:0:
324,186,134050,5,4,1:2:0:0:
