osu file format v14

[General]
AudioFilename: jioyi - Platinum.mp3
AudioLeadIn: 0
PreviewTime: 27237
Countdown: 0
SampleSet: Soft
StackLeniency: 0.2
Mode: 0
LetterboxInBreaks: 0
WidescreenStoryboard: 0

[Editor]
DistanceSpacing: 0.5
BeatDivisor: 4
GridSize: 4
TimelineZoom: 3.799998

[Metadata]
Title:Platinum
TitleUnicode:Platinum
Artist:jioyi
ArtistUnicode:jioyi
Creator:09kami
Version:Mass
Source:VOEZ
Tags:AD:Nearly 120 seconds rrtyui IamKwaN Mei z1085684963 DreaM117er yf_bmp m1223961117 pw384 384059043
BeatmapID:963973
BeatmapSetID:449225

[Difficulty]
HPDrainRate:5
CircleSize:4
OverallDifficulty:8
ApproachRate:9.5
SliderMultiplier:3.1
SliderTickRate:1

[Events]
//Background and Video events
0,0,"1.png",0,0
//Break Periods
2,59250,69075
//Storyboard Layer 0 (Background)
//Storyboard Layer 1 (Fail)
//Storyboard Layer 2 (Pass)
//Storyboard Layer 3 (Foreground)
//Storyboard Sound Samples

[TimingPoints]
1029,329.67032967033,4,2,1,20,1,0
2347,-80,4,2,1,20,0,0
4985,-400,4,2,1,20,0,0
6303,-66.6666666666667,4,2,1,20,0,0
11578,-62.5,4,2,1,20,0,0
14215,-57.1428571428571,4,2,1,20,0,0
14875,-50,4,2,1,20,0,0
15534,-100,4,2,1,20,0,0
15864,-80,4,2,1,20,0,0
16853,-200,4,2,1,20,0,0
17347,-80,4,2,1,20,0,0
17512,-200,4,2,1,20,0,0
17842,-133.333333333333,4,2,1,20,0,0
18501,-200,4,2,1,20,0,0
18831,-66.6666666666667,4,2,1,20,0,0
19160,-133.333333333333,4,2,1,20,0,0
19490,-100,4,2,1,20,0,0
19985,-66.6666666666667,4,2,1,20,0,0
20809,-100,4,2,1,20,0,0
22127,-200,4,2,1,20,0,0
22622,-100,4,2,1,20,0,0
22952,-66.6666666666667,4,2,1,20,0,0
23281,-133.333333333333,4,2,1,20,0,0
23776,-200,4,2,1,20,0,0
24105,-57.1428571428571,4,2,1,20,0,0
27402,-50,4,2,1,20,0,1
37952,-66.6666666666667,4,2,1,20,0,0
80149,-133.333333333333,4,2,1,20,0,0
111798,-80,4,2,1,20,0,0
119710,-200,4,2,1,20,0,0
121853,-117.647058823529,4,2,1,20,0,0
122347,-80,4,2,1,20,0,0

[Colours]
Combo1 : 174,0,87
Combo2 : 188,188,188
Combo3 : 81,81,81
Combo4 : 128,128,255

[HitObjects]
92,108,1029,5,2,0:0:0:0:
372,96,1193,1,0,0:0:0:0:
324,204,1358,5,4,0:0:0:0:
152,232,1523,1,0,0:0:0:0:
324,204,1688,5,2,0:0:0:0:
152,232,1853,1,0,0:0:0:0:
170,307,2018,6,0,L|150:227,1,77.5,4|0,0:0|0:0,0:0:0:0:
305,279,2182,2,0,L|325:199,1,77.5
372,96,2347,6,0,B|348:120|308:108|308:108|240:80|184:112,1,193.75,2|0,0:0|0:0,0:0:0:0:
170,307,2677,1,4,0:0:0:0:
187,110,2842,1,0,0:0:0:0:
170,307,3007,1,2,0:0:0:0:
264,180,3171,1,0,0:0:0:0:
170,307,3336,2,0,L|48:308,1,96.875,4|0,0:0|0:0,0:0:0:0:
305,279,3501,2,0,L|412:284,1,96.875
170,307,3666,5,2,0:0:0:0:
268,380,3831,1,0,0:0:0:0:
264,180,3996,1,4,0:0:0:0:
268,380,4160,1,0,0:0:0:0:
372,96,4325,1,2,0:0:0:0:
268,380,4490,1,0,0:0:0:0:
504,44,4655,2,0,L|404:20,1,96.875,4|0,0:0|0:0,0:0:0:0:
268,380,4820,2,0,L|368:356,1,96.875
464,364,4985,6,0,B|452:312|504:212|468:132,1,232.5,8|0,0:0|0:0,0:0:0:0:
469,134,6138,1,0,0:0:0:0:
124,52,6303,6,0,L|260:84,1,116.250004434586,6|0,0:0|0:0,0:0:0:0:
241,86,6550,2,0,L|128:60,1,116.250004434586,6|0,0:0|0:0,0:0:0:0:
132,68,6798,2,0,L|268:100,1,116.250004434586,6|0,0:0|0:0,0:0:0:0:
249,102,7045,2,0,L|136:76,1,116.250004434586,6|0,0:0|0:0,0:0:0:0:
140,84,7292,2,0,L|276:116,1,116.250004434586,6|0,0:0|0:0,0:0:0:0:
348,104,7457,1,0,0:0:0:0:
376,144,7539,1,0,0:0:0:0:
380,184,7622,6,0,L|244:216,1,116.250004434586,6|0,0:0|0:0,0:0:0:0:
262,218,7869,2,0,L|376:192,1,116.250004434586,6|0,0:0|0:0,0:0:0:0:
372,200,8117,2,0,L|236:232,1,116.250004434586,6|0,0:0|0:0,0:0:0:0:
254,234,8364,2,0,L|368:208,1,116.250004434586,6|0,0:0|0:0,0:0:0:0:
364,216,8611,2,0,L|228:248,1,116.250004434586,6|0,0:0|0:0,0:0:0:0:
156,236,8776,1,0,0:0:0:0:
120,272,8858,1,0,0:0:0:0:
104,320,8941,6,0,L|242:337,1,116.250004434586,6|0,0:0|0:0,0:0:0:0:
223,341,9188,2,0,L|108:327,1,116.250004434586,6|0,0:0|0:0,0:0:0:0:
113,335,9436,2,0,L|251:352,1,116.250004434586,6|0,0:0|0:0,0:0:0:0:
233,356,9683,2,0,L|118:342,1,116.250004434586,6|0,0:0|0:0,0:0:0:0:
123,350,9930,2,0,L|261:367,1,116.250004434586,6|0,0:0|0:0,0:0:0:0:
332,348,10095,1,0,0:0:0:0:
380,340,10177,1,0,0:0:0:0:
411,302,10259,6,0,L|368:168,1,116.250004434586,6|0,0:0|0:0,0:0:0:0:
379,184,10506,2,0,L|415:295,1,116.250004434586,6|0,0:0|0:0,0:0:0:0:
420,287,10754,2,0,L|377:153,1,116.250004434586,6|0,0:0|0:0,0:0:0:0:
389,169,11001,2,0,L|425:280,1,116.250004434586,6|0,0:0|0:0,0:0:0:0:
430,272,11248,2,0,L|387:138,1,116.250004434586,6|0,0:0|0:0,0:0:0:0:
340,84,11413,1,0,0:0:0:0:
300,52,11495,1,0,0:0:0:0:
256,40,11578,6,0,L|232:176,1,124,6|0,0:0|0:0,0:0:0:0:
224,168,11825,2,0,L|246:46,1,124,6|0,0:0|0:0,0:0:0:0:
236,56,12072,2,0,L|212:192,1,124,6|0,0:0|0:0,0:0:0:0:
116,208,12237,6,0,L|66:336,1,124,6|0,0:0|0:0,0:0:0:0:
71,305,12485,2,0,L|117:190,1,124,6|0,0:0|0:0,0:0:0:0:
118,172,12732,2,0,L|68:300,1,124,6|0,0:0|0:0,0:0:0:0:
16,360,12897,6,0,P|84:360|144:372,1,124,6|0,0:0|0:0,0:0:0:0:
386,365,13144,2,0,P|324:364|264:376,1,124,6|0,0:0|0:0,0:0:0:0:
288,171,13391,2,0,P|284:233|305:291,1,124,6|0,0:0|0:0,0:0:0:0:
204,327,13556,6,0,P|208:266|188:208,1,124,6|0,0:0|0:0,0:0:0:0:
193,203,13803,2,0,P|214:261|210:323,1,124,6|0,0:0|0:0,0:0:0:0:
216,318,14050,2,0,P|220:256|199:198,1,124,6|0,0:0|0:0,0:0:0:0:
160,72,14215,6,0,B|192:48|192:48|288:56,1,135.625001293421,6|0,0:0|0:0,0:0:0:0:
492,60,14380,2,0,B|460:84|460:84|364:76,1,135.625001293421,6|0,0:0|0:0,0:0:0:0:
88,28,14545,2,0,P|80:64|108:184,1,135.625001293421,6|0,0:0|0:0,0:0:0:0:
386,365,14710,2,0,P|394:329|366:209,1,135.625001293421,6|0,0:0|0:0,0:0:0:0:
96,248,14875,6,0,B|124:232|124:232|260:252,1,155,6|0,0:0|0:0,0:0:0:0:
512,160,15039,2,0,B|484:144|484:144|348:164,1,155,6|0,0:0|0:0,0:0:0:0:
45,172,15204,2,0,P|50:95|88:28,1,155,6|0,0:0|0:0,0:0:0:0:
512,160,15369,2,0,P|506:236|469:304,1,155,6|0,0:0|0:0,0:0:0:0:
246,333,15534,6,0,B|289:356|361:336|361:336|385:364,1,155
385,364,15864,5,2,0:0:0:0:
380,308,15946,1,0,0:0:0:0:
373,249,16029,1,8,0:0:0:0:
373,249,16193,5,8,0:0:0:0:
380,308,16276,1,0,0:0:0:0:
385,364,16358,2,0,B|359:348|359:348|293:359,1,96.875,2|0,0:0|0:0,0:0:0:0:
29,295,16523,2,0,B|33:360|33:360|135:285|246:333,1,290.625,6|0,0:0|0:0,0:0:0:0:
414,113,16853,6,0,P|355:137|298:116,1,116.25,12|0,0:0|0:0,0:0:0:0:
306,122,17182,1,0,0:0:0:0:
44,210,17347,6,0,B|148:201,1,96.875,10|0,0:0|0:0,0:0:0:0:
414,113,17512,6,0,P|355:137|298:116,1,116.25,6|0,0:0|0:0,0:0:0:0:
230,251,17842,6,0,L|215:134,1,116.250004434586,10|0,0:0|0:0,0:0:0:0:
306,122,18171,6,0,L|283:84,1,29.0625011086464,10|0,0:0|0:0,0:0:0:0:
351,99,18254,2,0,L|327:60,1,29.0625011086464,6|0,0:0|0:0,0:0:0:0:
398,88,18336,2,0,L|414:113,1,29.0625011086464,10|0,0:0|0:0,0:0:0:0:
449,79,18419,2,0,L|464:103,1,29.0625011086464,6|0,0:0|0:0,0:0:0:0:
497,54,18501,6,0,L|488:147,1,77.5,8|0,0:0|0:0,0:0:0:0:
322,314,18831,6,0,P|382:301|437:315,1,116.250004434586,2|0,0:0|0:0,0:0:0:0:
446,211,18996,1,12,0:0:0:0:
446,211,19160,6,0,B|407:221|407:221|266:214,1,174.375006651879,2|0,0:0|0:0,0:0:0:0:
41,277,19490,6,0,P|119:259|198:292,1,155,10|0,0:0|0:0,0:0:0:0:
229,97,19737,1,0,0:0:0:0:
229,97,19820,2,0,L|208:189,1,77.5,4|0,0:0|0:0,0:0:0:0:
40,136,19985,6,0,B|57:89|32:46|32:46|88:52|88:52|132:32|132:32|168:32,1,232.500008869171,8|4,0:0|0:0,0:0:0:0:
432,48,20314,2,0,B|424:60|424:60|400:24|360:12|316:36,1,116.250004434586,8|0,0:0|0:0,0:0:0:0:
346,190,20479,2,0,B|312:185|312:185|347:152|347:152|363:98|363:98|393:138|443:141,1,232.500008869171,8|4,0:0|0:0,0:0:0:0:
444,142,20809,6,0,L|432:314,1,155,12|0,0:0|0:0,0:0:0:0:
161,215,21138,2,0,L|168:292,1,77.5,12|0,0:0|0:0,0:0:0:0:
236,344,21303,1,8,0:0:0:0:
280,348,21386,1,0,0:0:0:0:
255,360,21468,2,0,L|263:275,1,77.5,8|0,0:0|0:0,0:0:0:0:
368,204,21633,1,0,0:0:0:0:
316,208,21715,1,0,0:0:0:0:
338,175,21798,6,0,L|346:334,1,155,12|0,0:0|0:0,0:0:0:0:
81,74,22127,6,0,P|137:87|195:67,1,116.25,6|0,0:0|0:0,0:0:0:0:
191,69,22457,1,10,0:0:0:0:
500,109,22622,6,0,L|414:113,1,77.5,12|0,0:0|0:0,0:0:0:0:
456,185,22787,1,8,0:0:0:0:
478,182,22869,1,0,0:0:0:0:
500,109,22952,6,0,L|255:92,1,232.500008869171,10|6,0:0|0:0,0:0:0:0:
99,172,23281,6,0,P|127:174|152:190,1,58.1250022172929,4|0,0:0|0:0,0:0:0:0:
144,272,23446,2,0,L|196:276,1,29.0625011086464,10|0,0:0|0:0,0:0:0:0:
218,277,23529,2,0,L|252:280,1,29.0625011086464,6|0,0:0|0:0,0:0:0:0:
292,285,23611,2,0,L|332:288,1,29.0625011086464,10|0,0:0|0:0,0:0:0:0:
366,293,23693,2,0,L|360:248,1,29.0625011086464,10|0,0:0|0:0,0:0:0:0:
379,218,23776,6,0,P|377:257|366:294,1,77.5,6|4,0:0|0:0,0:0:0:0:
22,375,24105,6,0,B|62:373|62:373|77:316|41:244|59:185|59:185|102:170,1,271.250002586842,4|6,0:0|0:0,0:0:0:0:
388,112,24435,2,0,P|451:137|505:177,1,135.625001293421,12|0,0:0|0:0,0:0:0:0:
379,218,24600,2,0,P|304:217|236:197,1,135.625001293421,12|0,0:0|0:0,0:0:0:0:
256,192,24765,12,0,26660,0:0:0:0:
221,348,26743,5,0,0:0:0:0:
284,320,26825,1,0,0:0:0:0:
348,292,26908,1,0,0:0:0:0:
408,264,26990,1,0,0:0:0:0:
468,236,27072,1,0,0:0:0:0:
378,71,27402,6,0,B|344:178|380:298|380:298|332:228,1,310,10|0,0:0|0:0,0:0:0:0:
55,194,27732,2,0,P|164:205|312:367,1,310,6|0,0:0|0:0,0:0:0:0:
150,376,28061,2,0,B|228:375|228:375|211:321|154:271|85:264|14:280,1,310,10|0,0:0|0:0,0:0:0:0:
137,30,28391,2,0,B|60:31|60:31|77:85|134:135|203:142|250:131,1,310,6|0,0:0|0:0,0:0:0:0:
480,164,28721,6,0,B|431:178|436:232|436:232|380:244|364:288|364:288|416:352|416:352|436:296,1,310,10|0,0:0|0:0,0:0:0:0:
217,275,28968,1,0,0:0:0:0:
217,275,29050,6,0,B|266:261|261:207|261:207|304:220|352:192|352:192|352:128|352:128|280:136,1,310,6|0,0:0|0:0,0:0:0:0:
220,40,29298,1,0,0:0:0:0:
220,40,29380,2,0,P|288:110|477:47,1,310,10|0,0:0|0:0,0:0:0:0:
511,235,29710,1,6,0:0:0:0:
166,353,29875,1,0,0:0:0:0:
163,161,30039,6,0,B|91:208|28:166|28:166|108:203|88:305,1,310,10|0,0:0|0:0,0:0:0:0:
54,67,30369,2,0,B|120:106|196:62|223:14|263:13|263:13|327:28|327:28|353:56,1,310,6|0,0:0|0:0,0:0:0:0:
476,170,30699,2,0,B|461:152|461:152|398:126|355:147|355:147|279:126|279:126|305:233,1,310,10|0,0:0|0:0,0:0:0:0:
406,329,31029,2,0,B|379:257|374:220|374:220|431:245|481:245|481:245|460:290|477:328,1,310,6|0,0:0|0:0,0:0:0:0:
216,60,31358,6,0,B|192:96|216:168|216:168|195:236|216:296|216:296|132:256,1,310,10|0,0:0|0:0,0:0:0:0:
135,175,31605,1,0,0:0:0:0:
135,175,31688,2,0,B|256:206|317:141|317:141|337:57|309:13,1,310,6|0,0:0|0:0,0:0:0:0:
413,92,31935,1,0,0:0:0:0:
413,92,32018,2,0,B|378:182|397:250|397:250|463:301|397:335|397:335|353:305,1,310,10|10,0:0|0:0,0:0:0:0:
272,351,32265,1,0,0:0:0:0:
272,351,32347,2,0,B|242:371|242:371|176:337|242:286|242:286|261:218|226:128,1,310,6|0,0:0|0:0,0:0:0:0:
45,337,32677,6,0,B|48:312|48:312|19:255|19:255|25:198|25:123|73:43,1,310,10|0,0:0|0:0,0:0:0:0:
298,12,33007,2,0,B|235:48|235:48|191:41|191:41|171:60|140:102|128:180|144:224,1,310,6|0,0:0|0:0,0:0:0:0:
305,109,33336,2,0,B|366:73|426:69|482:97|506:146|506:146|422:176,1,310,10|0,0:0|0:0,0:0:0:0:
272,351,33666,2,0,B|196:324|196:324|220:275|276:247|336:251|397:287,1,310,6|0,0:0|0:0,0:0:0:0:
293,183,33996,6,0,B|235:183|181:207|119:261|103:320|103:320|20:342,1,310,10|0,0:0|0:0,0:0:0:0:
8,248,34243,1,0,0:0:0:0:
8,248,34325,2,0,B|68:232|68:232|90:171|152:117|62:93|78:25|78:25|112:48,1,310,6|0,0:0|0:0,0:0:0:0:
190,75,34572,1,0,0:0:0:0:
190,75,34655,2,0,B|208:86|208:86|224:68|134:44|196:-9|332:35|332:35|379:46|425:21,1,310,10|0,0:0|0:0,0:0:0:0:
472,112,34902,1,0,0:0:0:0:
472,112,34985,1,10,0:0:0:0:
124,360,35149,1,6,0:0:0:0:
288,372,35314,6,0,B|245:262|157:253|157:253|87:270|90:241|90:241|116:200,1,310,10|0,0:0|0:0,0:0:0:0:
6,252,35561,1,0,0:0:0:0:
6,252,35644,2,0,B|41:132|129:123|129:123|199:140|201:109|201:109|188:70,1,310,6|0,0:0|0:0,0:0:0:0:
275,24,35891,1,0,0:0:0:0:
275,24,35974,6,0,B|299:131|299:131|337:181|419:182|419:182|430:249,1,310,10|0,0:0|0:0,0:0:0:0:
463,348,36221,1,0,0:0:0:0:
463,348,36303,2,0,B|424:352|383:330|383:330|360:308|342:254|342:254|272:248|272:248|280:320,1,310,6|0,0:0|0:0,0:0:0:0:
88,344,36633,5,10,0:0:0:0:
148,284,36798,1,10,0:0:0:0:
77,210,36963,1,10,0:0:0:0:
164,160,37127,1,10,0:0:0:0:
95,86,37292,5,10,0:0:0:0:
86,148,37375,1,6,0:0:0:0:
77,210,37457,1,10,0:0:0:0:
68,272,37539,1,6,0:0:0:0:
88,344,37622,1,10,0:0:0:0:
241,140,37952,6,0,P|312:161|481:130,1,232.500008869171,10|0,0:0|0:0,0:0:0:0:
403,240,38199,1,0,0:0:0:0:
403,240,38281,2,0,L|267:233,1,116.250004434586,6|0,0:0|0:0,0:0:0:0:
270,307,38446,2,0,L|157:331,1,116.250004434586
508,368,38611,6,0,P|444:324|308:384,1,232.500008869171,10|0,0:0|0:0,0:0:0:0:
403,240,38858,1,0,0:0:0:0:
403,240,38941,2,0,L|267:233,1,116.250004434586,6|0,0:0|0:0,0:0:0:0:
308,104,39105,2,0,L|444:97,1,116.250004434586
206,16,39270,6,0,B|24:71|24:71|6:113,1,232.500008869171,10|0,0:0|0:0,0:0:0:0:
76,205,39518,1,0,0:0:0:0:
76,205,39600,2,0,L|50:332,1,116.250004434586,6|0,0:0|0:0,0:0:0:0:
171,247,39765,2,0,L|194:133,1,116.250004434586
267,77,39930,5,10,0:0:0:0:
324,72,40012,1,0,0:0:0:0:
381,67,40094,1,0,0:0:0:0:
439,63,40177,1,0,0:0:0:0:
496,56,40259,2,0,B|517:86|517:86|508:187|468:297,1,232.500008869171,6|0,0:0|0:0,0:0:0:0:
330,319,40507,1,0,0:0:0:0:
330,319,40589,6,0,P|379:225|291:232,1,232.500008869171,10|0,0:0|0:0,0:0:0:0:
186,362,40836,1,0,0:0:0:0:
186,362,40919,2,0,L|170:247,1,116.250004434586,6|0,0:0|0:0,0:0:0:0:
42,316,41083,2,0,L|76:203,1,116.250004434586
40,56,41248,6,0,P|160:87|284:72,1,232.500008869171,10|0,0:0|0:0,0:0:0:0:
496,56,41496,1,0,0:0:0:0:
496,56,41578,2,0,P|452:104|434:156,1,116.250004434586,6|0,0:0|0:0,0:0:0:0:
443,322,41743,2,0,P|386:330|329:318,1,116.250004434586
186,362,41908,6,0,L|175:119,1,232.500008869171,10|0,0:0|0:0,0:0:0:0:
40,56,42155,1,0,0:0:0:0:
40,56,42237,2,0,P|95:135|-4:132,1,232.500008869171,6|0,0:0|0:0,0:0:0:0:
163,53,42485,1,0,0:0:0:0:
163,53,42567,2,0,B|225:46|225:46|282:57,1,116.250004434586,10|0,0:0|0:0,0:0:0:0:
372,214,42732,2,0,B|310:221|310:221|253:210,1,116.250004434586
496,56,42897,6,0,B|474:105|474:105|491:246|473:291,1,232.500008869171,6|0,0:0|0:0,0:0:0:0:
313,359,43144,1,0,0:0:0:0:
313,359,43226,2,0,P|298:316|302:237,1,116.250004434586,10|0,0:0|0:0,0:0:0:0:
385,100,43391,2,0,P|388:158|372:214,1,116.250004434586
108,271,43556,2,0,B|195:266|195:266|217:286,1,116.250004434586,6|0,0:0|0:0,0:0:0:0:
313,359,43721,2,0,B|399:364|399:364|421:344,1,116.250004434586
385,100,43886,6,0,L|149:132,1,232.500008869171,10|0,0:0|0:0,0:0:0:0:
108,271,44133,1,0,0:0:0:0:
108,271,44215,2,0,P|76:216|81:154,1,116.250004434586,6|0,0:0|0:0,0:0:0:0:
124,25,44380,2,0,P|156:80|151:142,1,116.250004434586
200,228,44545,5,10,0:0:0:0:
257,223,44627,1,0,0:0:0:0:
315,218,44710,1,0,0:0:0:0:
372,213,44792,1,0,0:0:0:0:
430,210,44875,2,0,B|457:235|457:235|452:280|413:331,1,116.250004434586,6|0,0:0|0:0,0:0:0:0:
315,218,45039,5,0,0:0:0:0:
258,223,45121,1,0,0:0:0:0:
200,228,45204,1,10,0:0:0:0:
143,233,45286,1,0,0:0:0:0:
84,235,45369,2,0,B|57:210|57:210|62:165|101:114,1,116.250004434586
321,7,45534,6,0,B|287:39|287:39|340:100|308:254,1,232.500008869171,6|0,0:0|0:0,0:0:0:0:
313,359,45781,1,0,0:0:0:0:
297,327,45864,1,10,0:0:0:0:
319,300,45946,1,0,0:0:0:0:
351,314,46029,1,0,0:0:0:0:
352,348,46111,1,0,0:0:0:0:
313,359,46193,5,6,0:0:0:0:
258,337,46276,1,0,0:0:0:0:
200,330,46358,1,0,0:0:0:0:
141,336,46441,1,0,0:0:0:0:
83,327,46523,5,10,0:0:0:0:
35,294,46605,1,0,0:0:0:0:
30,235,46688,1,0,0:0:0:0:
64,188,46770,1,0,0:0:0:0:
115,161,46853,1,6,0:0:0:0:
155,119,46935,1,0,0:0:0:0:
167,61,47018,1,0,0:0:0:0:
146,7,47100,1,0,0:0:0:0:
77,71,47182,5,10,0:0:0:0:
363,63,47430,1,10,0:0:0:0:
77,71,47677,1,10,0:0:0:0:
363,63,47925,1,10,0:0:0:0:
372,278,48171,6,0,B|403:229|403:229|350:141|365:45,1,232.500008869171,10|6,0:0|0:0,0:0:0:0:
362,62,48666,1,0,0:0:0:0:
363,63,48831,6,0,L|394:195,1,116.250004434586,10|0,0:0|0:0,0:0:0:0:
188,116,48996,2,0,L|157:248,1,116.250004434586
76,368,49160,6,0,P|170:300|279:347,1,232.500008869171,6|0,0:0|0:0,0:0:0:0:
454,311,49408,1,0,0:0:0:0:
454,311,49490,2,0,P|400:328|333:318,1,116.250004434586,10|0,0:0|0:0,0:0:0:0:
250,73,49655,2,0,P|304:56|371:66,1,116.250004434586
291,220,49820,6,0,L|44:189,1,232.500008869171,6|0,0:0|0:0,0:0:0:0:
48,327,50067,1,0,0:0:0:0:
48,327,50149,6,0,P|180:304|289:351,1,232.500008869171,10|0,0:0|0:0,0:0:0:0:
291,220,50397,1,0,0:0:0:0:
291,220,50479,2,0,L|169:180,1,116.250004434586,6|0,0:0|0:0,0:0:0:0:
139,36,50644,2,0,L|250:73,1,116.250004434586
433,96,50809,6,0,B|404:134|404:134|404:183|461:248|453:319,1,232.500008869171,10|0,0:0|0:0,0:0:0:0:
317,331,51056,1,0,0:0:0:0:
317,331,51138,2,0,P|310:272|277:197,1,116.250004434586,6|0,0:0|0:0,0:0:0:0:
139,36,51303,2,0,P|145:93|165:147,1,116.250004434586
42,323,51468,6,0,B|33:281|33:281|93:202|52:95,1,232.500008869171,10|0,0:0|0:0,0:0:0:0:
165,147,51715,1,0,0:0:0:0:
165,147,51798,2,0,P|140:250|194:369,1,232.500008869171,6|0,0:0|0:0,0:0:0:0:
317,331,52045,1,0,0:0:0:0:
317,331,52127,2,0,L|324:208,1,116.250004434586,10|0,0:0|0:0,0:0:0:0:
165,147,52292,2,0,B|156:88|156:88|176:32,1,116.250004434586,10|0,0:0|0:0,0:0:0:0:
262,110,52457,6,0,B|300:192|288:272|288:272|380:272,1,232.500008869171,6|0,0:0|0:0,0:0:0:0:
458,368,52704,1,0,0:0:0:0:
458,368,52787,2,0,P|413:357|339:377,1,116.250004434586,10|0,0:0|0:0,0:0:0:0:
153,318,52952,2,0,P|98:334|42:323,1,116.250004434586
456,336,53116,2,0,P|415:313|338:313,1,116.250004434586,6|0,0:0|0:0,0:0:0:0:
212,216,53281,2,0,P|154:217|103:192,1,116.250004434586
262,110,53446,5,10,0:0:0:0:
319,98,53529,1,0,0:0:0:0:
375,86,53611,1,0,0:0:0:0:
431,74,53693,1,0,0:0:0:0:
488,60,53776,2,0,P|494:122|478:187,1,116.250004434586,6|0,0:0|0:0,0:0:0:0:
380,292,53941,2,0,P|374:230|390:165,1,116.250004434586,6|0,0:0|0:0,0:0:0:0:
458,368,54105,5,10,0:0:0:0:
399,369,54188,1,0,0:0:0:0:
341,370,54270,1,0,0:0:0:0:
282,371,54353,1,0,0:0:0:0:
224,370,54435,2,0,B|180:338|180:338|72:359|6:306,1,232.500008869171,6|0,0:0|0:0,0:0:0:0:
47,111,54682,1,0,0:0:0:0:
47,111,54765,2,0,P|118:111|157:135,1,116.250004434586,10|0,0:0|0:0,0:0:0:0:
313,291,54930,2,0,P|242:291|203:267,1,116.250004434586
47,111,55094,6,0,B|72:77|72:77|156:104|260:110,1,232.500008869171,6|0,0:0|0:0,0:0:0:0:
431,80,55342,1,0,0:0:0:0:
431,80,55424,2,0,B|432:128|468:156|468:156|392:152|304:188,1,232.500008869171,10|0,0:0|0:0,0:0:0:0:
90,248,55671,1,0,0:0:0:0:
90,248,55754,6,0,L|204:267,1,116.250004434586,6|0,0:0|0:0,0:0:0:0:
248,24,55919,2,0,L|130:65,1,116.250004434586
92,238,56083,2,0,L|204:267,1,116.250004434586,10|0,0:0|0:0,0:0:0:0:
248,24,56248,2,0,L|128:55,1,116.250004434586
47,111,56413,5,6,0:0:0:0:
66,166,56496,1,4,0:0:0:0:
80,222,56578,1,2,0:0:0:0:
85,279,56660,1,4,0:0:0:0:
70,335,56743,5,10,0:0:0:0:
119,305,56825,1,4,0:0:0:0:
176,293,56908,1,2,0:0:0:0:
233,298,56990,1,4,0:0:0:0:
288,315,57072,1,6,0:0:0:0:
345,324,57155,1,4,0:0:0:0:
402,323,57237,1,2,0:0:0:0:
456,300,57320,1,4,0:0:0:0:
480,248,57402,5,10,0:0:0:0:
460,192,57485,1,4,0:0:0:0:
412,160,57567,1,2,0:0:0:0:
356,180,57649,1,4,0:0:0:0:
336,236,57732,1,6,0:0:0:0:
336,236,58061,5,0,0:0:0:0:
480,248,58226,1,0,0:0:0:0:
480,248,58556,1,0,0:0:0:0:
432,244,58721,1,10,0:0:0:0:
384,240,58886,1,10,0:0:0:0:
336,236,59050,1,6,0:0:0:0:
164,212,69600,5,0,0:0:0:0:
144,121,69930,1,0,0:0:0:0:
235,101,70259,1,4,0:0:0:0:
254,192,70589,1,0,0:0:0:0:
372,236,70919,5,0,0:0:0:0:
352,327,71083,1,0,0:0:0:0:
443,347,71413,1,4,0:0:0:0:
462,256,71743,1,0,0:0:0:0:
128,296,72072,5,0,0:0:0:0:
128,296,72237,5,0,0:0:0:0:
108,205,72567,1,0,0:0:0:0:
199,185,72896,1,4,0:0:0:0:
218,276,73226,1,0,0:0:0:0:
328,148,73556,5,0,0:0:0:0:
308,57,73720,1,0,0:0:0:0:
399,37,74050,1,4,0:0:0:0:
418,128,74380,1,0,0:0:0:0:
48,44,74710,5,0,0:0:0:0:
48,44,74875,5,0,0:0:0:0:
160,64,75204,1,0,0:0:0:0:
80,148,75534,1,4,0:0:0:0:
80,148,76193,5,0,0:0:0:0:
160,64,76523,5,0,0:0:0:0:
48,44,76688,1,4,0:0:0:0:
48,44,77182,1,0,0:0:0:0:
32,276,77512,5,0,0:0:0:0:
148,264,77842,1,0,0:0:0:0:
100,372,78171,1,4,0:0:0:0:
100,372,78831,5,0,0:0:0:0:
100,372,79490,1,4,0:0:0:0:
100,372,80149,6,0,P|172:344|216:352,1,116.250004434586
184,128,80479,1,0,0:0:0:0:
184,128,80809,1,0,0:0:0:0:
208,349,81138,2,0,P|151:346|100:373,2,116.250004434586
432,100,81633,6,0,L|400:352,1,232.500008869171
402,330,82292,1,0,0:0:0:0:
300,276,82457,1,0,0:0:0:0:
200,216,82622,1,0,0:0:0:0:
100,156,82787,5,0,0:0:0:0:
200,216,83034,1,0,0:0:0:0:
300,276,83281,1,0,0:0:0:0:
402,330,83529,1,0,0:0:0:0:
402,330,83776,1,0,0:0:0:0:
80,248,84105,5,0,0:0:0:0:
200,216,84353,1,0,0:0:0:0:
320,184,84600,1,0,0:0:0:0:
440,152,84847,1,0,0:0:0:0:
440,152,85094,1,0,0:0:0:0:
229,107,85424,6,0,P|226:164|199:215,1,116.250004434586
464,276,85754,1,0,0:0:0:0:
464,276,86083,1,0,0:0:0:0:
198,215,86413,2,0,P|225:163|228:106,2,116.250004434586
68,36,86908,6,0,L|316:20,1,232.500008869171
464,276,87567,1,0,0:0:0:0:
388,332,87732,1,0,0:0:0:0:
312,276,87897,1,0,0:0:0:0:
224,304,88061,5,0,0:0:0:0:
312,276,88391,1,0,0:0:0:0:
312,276,88556,1,0,0:0:0:0:
388,332,88886,1,0,0:0:0:0:
388,332,89050,1,0,0:0:0:0:
140,264,89380,5,0,0:0:0:0:
164,44,89545,1,0,0:0:0:0:
164,44,89875,1,0,0:0:0:0:
140,264,90039,1,0,0:0:0:0:
148,216,90122,1,0,0:0:0:0:
156,172,90204,1,0,0:0:0:0:
48,96,90369,5,0,0:0:0:0:
328,76,90534,1,0,0:0:0:0:
444,232,90699,5,10,0:0:0:0:
444,232,90864,1,10,0:0:0:0:
444,232,91029,1,6,0:0:0:0:
140,264,91358,5,6,0:0:0:0:
140,264,91688,1,6,0:0:0:0:
444,232,91853,1,10,0:0:0:0:
444,232,92182,2,0,P|400:216|384:216,1,58.1250022172929
140,264,92347,1,0,0:0:0:0:
120,224,92430,1,0,0:0:0:0:
112,180,92512,1,0,0:0:0:0:
116,136,92594,1,0,0:0:0:0:
140,96,92677,5,0,0:0:0:0:
160,56,92759,1,0,0:0:0:0:
168,8,92842,1,0,0:0:0:0:
124,12,92924,1,0,0:0:0:0:
116,60,93007,1,0,0:0:0:0:
140,96,93089,1,0,0:0:0:0:
184,112,93171,1,0,0:0:0:0:
232,108,93254,1,0,0:0:0:0:
268,76,93336,5,10,0:0:0:0:
268,76,93501,1,10,0:0:0:0:
268,76,93666,1,6,0:0:0:0:
476,124,93996,5,6,0:0:0:0:
476,124,94325,1,6,0:0:0:0:
268,76,94490,1,10,0:0:0:0:
268,76,94820,2,0,P|300:44|324:40,1,58.1250022172929
444,232,94985,1,0,0:0:0:0:
460,276,95067,1,0,0:0:0:0:
468,320,95149,1,0,0:0:0:0:
452,364,95232,1,0,0:0:0:0:
408,348,95314,5,0,0:0:0:0:
396,304,95397,1,0,0:0:0:0:
408,260,95479,1,0,0:0:0:0:
444,232,95561,1,0,0:0:0:0:
468,192,95644,1,0,0:0:0:0:
468,144,95726,1,0,0:0:0:0:
444,104,95809,1,0,0:0:0:0:
404,80,95891,1,0,0:0:0:0:
356,84,95974,5,10,0:0:0:0:
356,84,96138,1,10,0:0:0:0:
356,84,96303,1,6,0:0:0:0:
156,64,96633,5,6,0:0:0:0:
156,64,96963,1,6,0:0:0:0:
356,84,97127,1,10,0:0:0:0:
356,84,97292,6,0,P|368:112|368:144,1,58.1250022172929
256,312,97457,1,0,0:0:0:0:
228,348,97539,1,0,0:0:0:0:
184,356,97622,1,0,0:0:0:0:
140,348,97704,1,0,0:0:0:0:
108,316,97787,6,0,L|164:292,1,58.1250022172929
256,312,97952,1,0,0:0:0:0:
284,276,98034,1,0,0:0:0:0:
328,268,98117,1,0,0:0:0:0:
372,276,98199,1,0,0:0:0:0:
404,308,98282,6,0,L|348:332,1,58.1250022172929
108,316,98446,2,0,L|164:292,1,58.1250022172929
328,268,98611,5,0,0:0:0:0:
342,176,98776,1,0,0:0:0:0:
356,84,98941,1,0,0:0:0:0:
80,132,99270,5,0,0:0:0:0:
96,224,99600,5,0,0:0:0:0:
108,316,99765,1,0,0:0:0:0:
256,192,99930,12,0,101083,0:0:0:0:
80,132,101248,5,10,0:0:0:0:
437,94,101578,1,6,0:0:0:0:
80,132,101908,5,10,0:0:0:0:
437,94,102238,1,6,0:0:0:0:
80,132,102567,5,10,0:0:0:0:
437,94,102897,1,6,0:0:0:0:
80,132,103226,5,10,0:0:0:0:
437,94,103556,1,6,0:0:0:0:
80,132,103721,1,8,0:0:0:0:
80,132,103803,1,8,0:0:0:0:
80,132,103886,5,10,0:0:0:0:
437,94,104216,1,6,0:0:0:0:
80,132,104545,5,10,0:0:0:0:
437,94,104875,1,6,0:0:0:0:
80,132,105204,5,10,0:0:0:0:
437,94,105534,1,6,0:0:0:0:
80,132,105864,5,10,0:0:0:0:
437,94,106194,1,12,0:0:0:0:
80,132,106358,1,8,0:0:0:0:
80,132,106441,1,8,0:0:0:0:
80,132,106523,5,10,0:0:0:0:
244,168,106688,1,8,0:0:0:0:
197,347,106853,1,6,0:0:0:0:
33,286,107018,1,8,0:0:0:0:
221,256,107182,1,10,0:0:0:0:
397,318,107347,1,8,0:0:0:0:
472,187,107512,1,6,0:0:0:0:
392,32,107677,1,8,0:0:0:0:
392,32,107759,1,8,0:0:0:0:
392,32,107842,5,10,0:0:0:0:
214,62,108007,1,8,0:0:0:0:
392,32,108171,1,6,0:0:0:0:
187,157,108336,1,8,0:0:0:0:
392,32,108501,1,10,0:0:0:0:
221,256,108666,1,8,0:0:0:0:
392,32,108831,1,6,0:0:0:0:
298,320,108996,1,8,0:0:0:0:
392,32,109160,5,10,0:0:0:0:
364,84,109243,1,8,0:0:0:0:
366,142,109325,1,8,0:0:0:0:
384,198,109408,1,8,0:0:0:0:
383,256,109490,1,6,0:0:0:0:
354,306,109572,1,8,0:0:0:0:
298,320,109655,1,8,0:0:0:0:
243,304,109737,1,8,0:0:0:0:
204,247,109820,5,10,0:0:0:0:
249,194,109902,1,8,0:0:0:0:
318,179,109985,1,8,0:0:0:0:
384,198,110067,1,8,0:0:0:0:
436,244,110149,1,6,0:0:0:0:
436,244,110314,1,8,0:0:0:0:
356,48,110479,2,0,P|298:50|247:77,1,116.250004434586
188,244,110809,5,4,0:0:0:0:
188,244,110891,1,4,0:0:0:0:
188,244,110974,1,4,0:0:0:0:
312,368,111138,1,12,0:0:0:0:
312,368,111221,1,2,0:0:0:0:
312,368,111303,1,12,0:0:0:0:
237,146,111468,2,0,L|283:279,1,116.250004434586,6|0,0:0|0:0,0:0:0:0:
495,354,111798,6,0,P|371:338|299:376,2,193.75,10|0|6,0:0|0:0|0:0,0:0:0:0:
462,69,112292,1,0,0:0:0:0:
272,72,112457,2,0,P|400:83|482:63,1,193.75,10|0,0:0|0:0,0:0:0:0:
237,146,112787,2,0,P|109:135|27:155,1,193.75,6|0,0:0|0:0,0:0:0:0:
66,374,113116,5,10,0:0:0:0:
248,267,113281,1,0,0:0:0:0:
46,148,113446,1,6,0:0:0:0:
172,32,113611,1,0,0:0:0:0:
368,37,113776,6,0,B|339:78|391:185|356:244,1,193.75,10|0,0:0|0:0,0:0:0:0:
443,377,114105,2,0,B|472:336|420:229|455:170,1,193.75,6|0,0:0|0:0,0:0:0:0:
146,212,114435,5,10,0:0:0:0:
146,212,114518,1,0,0:0:0:0:
146,212,114600,2,0,L|160:318,1,96.875
46,148,114765,2,0,P|157:119|232:60,1,193.75,6|0,0:0|0:0,0:0:0:0:
442,376,115094,6,0,P|363:322|269:302,1,193.75,10|0,0:0|0:0,0:0:0:0:
66,374,115424,1,6,0:0:0:0:
95,181,115589,1,0,0:0:0:0:
269,302,115754,5,10,0:0:0:0:
269,302,115836,1,0,0:0:0:0:
269,302,115919,2,0,L|262:198,1,96.875
353,40,116083,2,0,P|337:160|360:246,1,193.75,6|0,0:0|0:0,0:0:0:0:
95,181,116413,6,0,P|156:152|264:208,1,193.75,10|0,0:0|0:0,0:0:0:0:
436,300,116743,2,0,P|353:342|269:302,1,193.75,6|0,0:0|0:0,0:0:0:0:
353,40,117072,5,10,0:0:0:0:
95,181,117237,1,0,0:0:0:0:
353,40,117402,1,6,0:0:0:0:
353,40,117485,1,0,0:0:0:0:
353,40,117567,2,0,P|373:95|376:138,1,96.875
269,302,117732,1,10,0:0:0:0:
269,302,117897,2,0,P|249:247|246:204,1,96.875
207,33,118061,6,0,L|167:229,1,193.75,6|0,0:0|0:0,0:0:0:0:
416,364,118391,1,10,0:0:0:0:
416,364,118474,1,0,0:0:0:0:
416,364,118556,2,0,P|368:350|316:370,1,96.875
177,301,118721,1,6,0:0:0:0:
177,301,118886,2,0,P|225:315|277:295,1,96.875
95,181,119050,5,10,0:0:0:0:
418,129,119215,1,0,0:0:0:0:
153,102,119380,5,6,0:0:0:0:
350,216,119545,1,0,0:0:0:0:
350,216,119710,6,0,L|360:266,1,38.75,10|0,0:0|0:0,0:0:0:0:
86,273,120039,1,6,0:0:0:0:
86,273,120204,6,0,L|76:323,1,38.75,10|0,0:0|0:0,0:0:0:0:
416,364,120533,1,6,0:0:0:0:
416,364,120699,6,0,L|464:346,1,38.75,10|0,0:0|0:0,0:0:0:0:
357,21,121029,1,6,0:0:0:0:
357,21,121193,6,0,L|298:14,1,38.75,10|0,0:0|0:0,0:0:0:0:
174,361,121523,1,6,0:0:0:0:
174,361,121688,6,0,L|186:304,1,38.75,10|0,0:0|0:0,0:0:0:0:
389,234,121853,6,0,L|416:368,2,131.750002512932,10|6|2,0:0|0:0|0:0,0:0:0:0:
104,288,122347,6,0,P|168:160|164:88,2,193.75,10|0|6,0:0|0:0|0:0,0:0:0:0:
389,234,122842,1,0,0:0:0:0:
440,32,123007,6,0,P|316:60|220:40,1,193.75,10|0,0:0|0:0,0:0:0:0:
10,217,123336,2,0,P|106:134|200:106,1,193.75,6|0,0:0|0:0,0:0:0:0:
256,344,123666,1,10,0:0:0:0:
10,217,123831,1,0,0:0:0:0:
10,217,123996,1,6,0:0:0:0:
256,344,124161,1,0,0:0:0:0:
412,272,124325,6,0,P|417:238|393:162,1,96.875,10|0,0:0|0:0,0:0:0:0:
392,104,124490,1,0,0:0:0:0:
396,92,124572,1,0,0:0:0:0:
440,32,124655,2,0,L|232:52,1,193.75,6|0,0:0|0:0,0:0:0:0:
160,216,124985,5,10,0:0:0:0:
160,216,125067,1,0,0:0:0:0:
160,216,125149,2,0,P|152:156|164:116,1,96.875
257,249,125314,5,6,0:0:0:0:
257,249,125396,1,0,0:0:0:0:
257,249,125479,2,0,P|265:309|253:349,2,96.875,0|0|10,0:0|0:0|0:0,0:0:0:0:
464,176,125809,1,0,0:0:0:0:
464,176,125974,1,6,0:0:0:0:
257,249,126138,1,0,0:0:0:0:
257,249,126303,5,10,0:0:0:0:
248,220,126386,1,0,0:0:0:0:
244,192,126468,1,0,0:0:0:0:
244,164,126550,1,0,0:0:0:0:
248,136,126633,1,6,0:0:0:0:
256,108,126715,1,0,0:0:0:0:
260,80,126798,1,0,0:0:0:0:
256,52,126880,1,0,0:0:0:0:
220,16,126963,5,10,0:0:0:0:
172,16,127045,1,0,0:0:0:0:
132,44,127127,1,0,0:0:0:0:
124,92,127210,1,0,0:0:0:0:
152,132,127292,1,6,0:0:0:0:
200,144,127375,1,0,0:0:0:0:
248,136,127457,1,0,0:0:0:0:
292,116,127539,1,0,0:0:0:0:
352,112,127622,5,10,0:0:0:0:
407,129,127704,1,0,0:0:0:0:
451,166,127787,1,0,0:0:0:0:
473,219,127869,1,0,0:0:0:0:
476,277,127952,1,6,0:0:0:0:
457,331,128034,1,0,0:0:0:0:
410,364,128116,1,0,0:0:0:0:
351,361,128199,1,0,0:0:0:0:
302,330,128281,5,10,0:0:0:0:
290,272,128364,1,0,0:0:0:0:
300,215,128446,1,0,0:0:0:0:
337,170,128529,1,0,0:0:0:0:
352,112,128611,1,6,0:0:0:0:
335,56,128693,1,0,0:0:0:0:
286,23,128776,1,0,0:0:0:0:
228,21,128858,1,0,0:0:0:0:
181,55,128941,5,10,0:0:0:0:
163,110,129023,1,0,0:0:0:0:
166,167,129105,1,0,0:0:0:0:
184,222,129188,1,0,0:0:0:0:
208,274,129270,1,6,0:0:0:0:
199,331,129353,1,0,0:0:0:0:
155,368,129435,1,0,0:0:0:0:
96,375,129518,1,0,0:0:0:0:
48,344,129600,5,10,0:0:0:0:
40,288,129682,1,0,0:0:0:0:
56,232,129765,1,0,0:0:0:0:
96,188,129847,1,0,0:0:0:0:
116,132,129930,1,6,0:0:0:0:
124,76,130012,1,0,0:0:0:0:
104,20,130094,1,0,0:0:0:0:
48,4,130177,1,0,0:0:0:0:
36,88,130259,5,10,0:0:0:0:
244,136,130507,1,10,0:0:0:0:
36,88,130754,1,6,0:0:0:0:
288,216,131002,1,10,0:0:0:0:
36,88,131248,1,10,0:0:0:0:
364,152,131496,1,6,0:0:0:0:
36,88,131743,1,10,0:0:0:0:
388,256,131990,1,8,0:0:0:0:
388,256,132072,1,6,0:0:0:0:
464,192,132237,6,0,L|481:302,2,96.875,12|0|0,0:0|0:0|0:0,0:0:0:0:
120,225,132567,1,6,0:0:0:0:
123,35,132732,1,0,0:0:0:0:
120,225,132897,6,0,P|105:144|132:15,1,193.75,14|4,0:0|0:0,0:0:0:0:
467,2,133226,2,0,P|482:83|455:212,1,193.75,14|4,0:0|0:0,0:0:0:0:
273,342,133556,2,0,P|122:354|62:330,1,193.75,14|4,0:0|0:0,0:0:0:0:
123,35,133886,2,0,P|217:15|311:34,1,193.75,14|4,0:0|0:0,0:0:0:0:
