osu file format v14

[General]
AudioFilename: beatmap-637391320758084451-audio.mp3
AudioLeadIn: 0
PreviewTime: 111850
Countdown: 0
SampleSet: Soft
StackLeniency: 0.7
Mode: 2
LetterboxInBreaks: 0
WidescreenStoryboard: 0

[Editor]
Bookmarks: 6355,16905,27454,38004,48553,59102,69652,80201,90751,101300,106575,111850,117124,127674,132949,134267,135916
DistanceSpacing: 0.8
BeatDivisor: 4
GridSize: 16
TimelineZoom: 1.499999

[Metadata]
Title:Platinum
TitleUnicode:Platinum
Artist:jioyi
ArtistUnicode:jioyi
Creator:-MomoX
Version:Special
Source:VOEZ
Tags:AJamez Jemzuu CWC2021 SF NM Semi finals no mod Electronic Instrumental Video Game edm Trancecore Drumstep Bass Wobble Freeform Official Soundtrack Vol. 1
BeatmapID:3007094
BeatmapSetID:1463966

[Difficulty]
HPDrainRate:6
CircleSize:5.2
OverallDifficulty:9.6
ApproachRate:9.6
SliderMultiplier:2.06
SliderTickRate:2

[Events]
//Background and Video events
0,0,"Platinum-cropped.png",0,0
//Break Periods
2,59302,69143
//Storyboard Layer 0 (Background)
//Storyboard Layer 1 (Fail)
//Storyboard Layer 2 (Pass)
//Storyboard Layer 3 (Foreground)
//Storyboard Layer 4 (Overlay)
//Storyboard Sound Samples

[TimingPoints]
1081,329.67032967033,4,2,1,60,1,0
11630,-100,4,2,1,60,0,0
16905,-46.5116279069767,4,2,1,50,0,0
17317,-76.9230769230769,4,2,1,50,0,0
17564,-46.5116279069767,4,2,1,50,0,0
17894,-100,4,2,1,50,0,0
18223,-76.9230769230769,4,2,1,50,0,0
18553,-46.5116279069767,4,2,1,50,0,0
18883,-46.5116279069767,4,2,98,50,0,0
18924,-46.5116279069767,4,2,1,50,0,0
18965,-46.5116279069767,4,2,1,5,0,0
19048,-46.5116279069767,4,2,98,50,0,0
19089,-46.5116279069767,4,2,1,50,0,0
19212,-46.5116279069767,4,2,98,50,0,0
19254,-46.5116279069767,4,2,1,50,0,0
19542,-100,4,2,1,50,0,0
20861,-100,4,2,1,50,0,0
22179,-47.6190476190476,4,2,1,50,0,0
22509,-74.0740740740741,4,2,1,50,0,0
24817,-100,4,2,1,50,0,0
27454,-74.0740740740741,4,2,1,50,0,0
32729,-74.0740740740741,4,2,1,50,0,0
36685,-100,4,2,1,50,0,0
38004,-83.3333333333333,4,2,1,75,0,1
47234,-83.3333333333333,4,2,1,75,0,0
48883,-83.3333333333333,4,2,1,75,0,1
57784,-100,4,2,1,75,0,0
59102,-100,4,2,1,75,0,0
69652,-100,4,2,3,35,0,0
70311,-100,4,2,97,35,0,0
70394,-100,4,2,3,35,0,0
72949,-100,4,2,97,35,0,0
73032,-100,4,2,3,35,0,0
75586,-100,4,2,97,35,0,0
75669,-100,4,2,3,35,0,0
76740,-100,4,2,97,35,0,0
76823,-100,4,2,3,35,0,0
78223,-100,4,2,97,35,0,0
78306,-100,4,2,3,35,0,0
79542,-100,4,2,97,35,0,0
79625,-100,4,2,3,35,0,0
79872,-100,4,2,97,35,0,0
79955,-100,4,2,3,35,0,0
80201,-117.647058823529,4,2,1,35,0,0
85476,-117.647058823529,4,2,1,45,0,0
90751,-100,4,2,1,75,0,0
110201,-47.39336492891,4,2,1,75,0,0
110861,-71.4285714285714,4,2,1,75,0,0
111850,-83.3333333333333,4,2,1,75,0,1
119762,-100,4,2,1,75,0,0
122399,-83.3333333333333,4,2,1,75,0,1
130311,-83.3333333333333,4,2,1,75,0,0
132289,-100,4,2,1,75,0,0
134267,-100,4,2,1,75,0,0

[Colours]
Combo1 : 228,228,203
Combo2 : 229,228,226
Combo3 : 249,235,204
Combo4 : 183,187,168

[HitObjects]
169,147,1081,5,0,0:0:0:0:
169,147,1245,1,0,0:0:0:0:
314,118,1410,1,0,1:0:0:0:
169,147,1575,1,0,0:0:0:0:
314,118,1740,1,0,0:0:0:0:
224,154,1904,1,0,0:0:0:0:
225,251,2069,1,0,0:0:0:0:
315,286,2234,1,0,0:0:0:0:
92,299,2399,6,0,L|92:188,1,103,0|0,0:0|0:0,0:0:0:0:
236,121,2729,1,0,1:0:0:0:
92,299,2894,1,0,0:0:0:0:
236,121,3059,1,0,0:0:0:0:
144,174,3223,1,0,0:0:0:0:
51,138,3388,1,0,0:0:0:0:
144,174,3553,1,0,0:0:0:0:
366,149,3718,6,0,L|366:279,1,103,0|0,0:0|0:0,0:0:0:0:
220,188,4048,1,0,1:0:0:0:
366,149,4212,1,0,0:0:0:0:
220,188,4377,1,0,0:0:0:0:
306,217,4542,1,0,0:0:0:0:
220,188,4707,1,0,0:0:0:0:
127,219,4872,1,0,0:0:0:0:
345,202,5037,6,0,P|137:292|345:192,1,772.5,0|0,0:0|0:0,0:0:0:0:
141,228,6355,6,0,L|72:228,2,51.5,8|0|0,0:0|0:0|0:0,0:0:0:0:
292,181,6602,1,8,0:0:0:0:
240,181,6684,1,0,0:0:0:0:
189,181,6766,1,0,0:0:0:0:
341,109,6850,2,0,L|439:109,2,51.5,8|0|0,0:0|0:0|0:0,0:0:0:0:
189,181,7097,1,8,0:0:0:0:
241,181,7179,1,0,0:0:0:0:
292,181,7261,1,0,0:0:0:0:
126,264,7344,2,0,L|44:265,1,51.5,8|0,0:0|0:0,0:0:0:0:
126,264,7509,2,0,L|219:263,1,51.5,0|0,0:0|0:0,0:0:0:0:
344,257,7674,6,0,L|404:257,2,51.5,8|0|0,0:0|0:0|0:0,0:0:0:0:
192,189,7921,1,8,0:0:0:0:
243,189,8003,1,0,0:0:0:0:
295,189,8085,1,0,0:0:0:0:
142,99,8168,2,0,L|142:175,1,51.5,8|0,0:0|0:0,0:0:0:0:
194,150,8333,1,0,0:0:0:0:
345,107,8416,1,8,0:0:0:0:
293,106,8498,1,0,0:0:0:0:
242,106,8580,1,0,0:0:0:0:
408,176,8663,2,0,L|473:176,1,51.5,8|0,0:0|0:0,0:0:0:0:
408,176,8828,2,0,L|343:176,1,51.5,0|0,0:0|0:0,0:0:0:0:
187,186,8993,6,0,L|187:275,1,51.5,8|0,0:0|0:0,0:0:0:0:
237,239,9157,1,0,0:0:0:0:
85,177,9240,2,0,L|16:177,2,51.5,8|0|0,0:0|0:0|0:0,0:0:0:0:
236,118,9487,1,8,0:0:0:0:
184,117,9569,1,0,0:0:0:0:
133,117,9651,1,0,0:0:0:0:
284,69,9734,2,0,L|356:70,1,51.5,8|0,0:0|0:0,0:0:0:0:
335,69,9899,1,0,0:0:0:0:
168,182,9982,2,0,L|77:182,1,51.5,8|0,0:0|0:0,0:0:0:0:
168,182,10146,2,0,L|243:182,1,51.5,0|0,0:0|0:0,0:0:0:0:
386,234,10311,5,8,0:0:0:0:
334,234,10393,1,0,0:0:0:0:
283,234,10475,1,0,0:0:0:0:
436,157,10559,2,0,L|495:157,2,51.5,8|0|0,0:0|0:0|0:0,0:0:0:0:
285,112,10806,1,8,0:0:0:0:
336,112,10888,1,0,0:0:0:0:
388,112,10970,1,0,0:0:0:0:
236,196,11053,2,0,L|177:196,2,51.5,8|0|0,0:0|0:0|0:0,0:0:0:0:
402,238,11300,2,0,L|479:238,1,51.5,8|0,0:0|0:0,0:0:0:0:
402,238,11465,2,0,L|325:238,1,51.5,0|0,0:0|0:0,0:0:0:0:
178,278,11630,6,0,L|89:279,2,51.5,8|0|0,0:0|0:0|0:0,0:0:0:0:
329,200,11877,2,0,L|418:201,2,51.5,8|0|0,0:0|0:0|0:0,0:0:0:0:
177,166,12124,2,0,L|99:166,1,51.5,8|0,0:0|0:0,0:0:0:0:
287,242,12289,5,8,0:0:0:0:
235,242,12371,1,0,0:0:0:0:
184,242,12453,1,0,0:0:0:0:
31,140,12537,2,0,L|31:218,1,51.5,8|0,0:0|0:0,0:0:0:0:
82,189,12701,1,0,0:0:0:0:
234,169,12783,2,0,L|312:169,1,51.5,8|0,0:0|0:0,0:0:0:0:
117,82,12949,5,8,0:0:0:0:
168,82,13031,1,0,0:0:0:0:
220,82,13113,1,0,0:0:0:0:
372,129,13196,2,0,L|372:202,1,51.5,8|0,0:0|0:0,0:0:0:0:
320,182,13361,1,0,0:0:0:0:
150,225,13443,2,0,L|150:297,1,51.5,8|0,0:0|0:0,0:0:0:0:
308,263,13608,2,0,L|396:263,2,51.5,8|0|0,0:0|0:0|0:0,0:0:0:0:
150,225,13855,2,0,L|62:225,2,51.5,8|0|0,0:0|0:0|0:0,0:0:0:0:
308,167,14102,2,0,L|247:167,1,51.5,8|0,0:0|0:0,0:0:0:0:
103,142,14267,6,0,L|103:225,1,51.5,8|0,0:0|0:0,0:0:0:0:
256,219,14432,2,0,L|256:302,1,51.5,8|0,0:0|0:0,0:0:0:0:
423,140,14597,2,0,L|423:223,1,51.5,8|0,0:0|0:0,0:0:0:0:
256,219,14762,2,0,L|256:302,1,51.5,8|0,0:0|0:0,0:0:0:0:
69,91,14927,2,0,L|69:184,1,51.5,8|0,0:0|0:0,0:0:0:0:
256,219,15091,2,0,L|256:302,1,51.5,8|0,0:0|0:0,0:0:0:0:
459,96,15256,2,0,L|459:189,1,51.5,8|0,0:0|0:0,0:0:0:0:
256,219,15421,2,0,L|169:219,1,51.5,8|0,0:0|0:0,0:0:0:0:
409,207,15586,5,2,0:0:0:0:
409,207,15916,1,2,0:0:0:0:
358,224,15998,1,2,0:0:0:0:
359,288,16080,1,2,0:0:0:0:
410,305,16163,1,2,0:0:0:0:
255,152,16245,1,2,0:0:0:0:
251,201,16327,1,2,0:0:0:0:
283,239,16409,1,2,0:0:0:0:
333,242,16492,1,2,0:0:0:0:
160,130,16575,2,0,P|114:194|181:218,1,154.5,8|0,0:3|0:0,0:0:0:0:
366,87,16905,6,0,B|420:186|420:186|469:88|469:88|248:88|248:88|248:218,1,553.625008447647,2|2,0:0|0:0,0:0:0:0:
315,196,17399,2,0,L|401:196,1,66.9499969352724,2|2,0:0|0:0,0:0:0:0:
158,187,17564,2,0,B|104:286|104:286|55:188|55:188|276:188|276:188,1,442.900006758118,2|2,0:0|0:0,0:0:0:0:
129,98,18059,1,2,0:0:0:0:
361,167,18223,6,0,L|285:167,1,66.9499969352724,2|2,0:0|0:0,0:0:0:0:
361,167,18388,2,0,L|437:167,1,66.9499969352724,2|2,0:0|0:0,0:0:0:0:
195,118,18553,2,0,B|255:213|255:213|308:118|308:118|86:117|86:117|37:228|37:228,2,553.625008447647,2|0|2,0:0|0:0|0:0,0:0:0:0:
421,130,19542,6,0,L|421:258,1,103,2|0,0:0|0:0,0:0:0:0:
268,249,19789,2,0,L|145:249,1,103,2|0,0:0|0:0,0:0:0:0:
318,161,20037,2,0,L|390:161,1,51.5,2|0,0:0|0:0,0:0:0:0:
218,151,20201,2,0,L|218:245,1,51.5,10|0,0:0|0:0,0:0:0:0:
296,202,20366,2,0,L|296:285,1,51.5,2|0,0:0|0:0,0:0:0:0:
145,243,20531,2,0,L|237:243,1,51.5,2|0,0:0|0:0,0:0:0:0:
349,230,20696,2,0,L|297:230,1,51.5,2|0,0:0|0:0,0:0:0:0:
135,131,20861,5,2,0:0:0:0:
320,216,21190,2,0,L|320:317,1,51.5,2|0,0:0|0:0,0:0:0:0:
237,131,21355,2,0,L|237:218,1,51.5,2|0,0:0|0:0,0:0:0:0:
68,196,21520,1,2,0:0:0:0:
18,220,21602,1,0,0:0:0:0:
18,269,21685,1,0,0:0:0:0:
68,286,21767,1,0,0:0:0:0:
236,285,21850,1,2,0:0:0:0:
287,285,21932,1,0,0:0:0:0:
338,285,22014,1,0,0:0:0:0:
390,285,22097,1,0,0:0:0:0:
236,138,22179,6,0,B|19:138|19:138|295:138,1,432.599986798096,2|8,0:0|0:0,0:0:0:0:
362,142,22674,2,0,L|362:226,1,69.5250002652168,0|0,0:0|0:0,0:0:0:0:
170,219,22839,1,0,0:0:0:0:
239,219,22921,1,0,0:0:0:0:
309,219,23003,1,2,0:0:0:0:
86,144,23168,2,0,P|16:197|98:258,1,208.575000795651,8|0,0:0|0:0,0:0:0:0:
254,267,23498,5,2,0:0:0:0:
421,266,23581,1,0,0:0:0:0:
254,267,23663,1,0,0:0:0:0:
88,280,23745,1,0,0:0:0:0:
265,115,23828,2,0,P|308:171|264:192,1,139.050000530434,8|0,0:0|0:0,0:0:0:0:
42,236,24157,2,0,L|25:236,1,17.3812500663042,0|0,0:0|0:0,0:0:0:0:
231,221,24322,2,0,L|248:221,1,17.3812500663042,2|0,0:0|0:0,0:0:0:0:
139,130,24487,2,0,L|122:130,1,17.3812500663042,8|0,0:0|0:0,0:0:0:0:
330,115,24652,2,0,L|347:115,1,17.3812500663042,0|0,0:0|0:0,0:0:0:0:
151,214,24817,6,0,P|101:266|168:299,1,154.5,8|0,0:0|0:0,0:0:0:0:
245,286,25146,2,0,L|413:286,1,154.5,8|0,0:0|0:0,0:0:0:0:
306,190,25476,2,0,L|174:190,1,103,8|0,0:0|0:0,0:0:0:0:
255,147,25723,1,0,0:0:0:0:
407,135,25806,2,0,L|309:90,1,103,8|0,0:0|0:0,0:0:0:0:
91,91,26135,6,0,L|91:218,1,103,8|0,0:0|0:0,0:0:0:0:
236,116,26465,1,8,0:0:0:0:
91,91,26630,1,8,0:0:0:0:
313,219,26795,2,0,L|364:219,1,51.5,10|10,0:0|0:0,0:0:0:0:
177,205,26960,2,0,L|126:205,1,51.5,10|10,0:0|0:0,0:0:0:0:
313,108,27124,2,0,L|313:185,1,51.5,10|0,0:0|0:0,0:0:0:0:
178,204,27289,2,0,L|179:279,1,51.5,10|0,0:0|0:0,0:0:0:0:
337,259,27454,6,0,P|376:238|322:180,1,139.050000530434,2|0,0:0|0:0,0:0:0:0:
264,182,27701,1,0,0:0:0:0:
414,276,27784,2,0,L|340:318,1,69.5250002652168,2|0,0:0|0:0,0:0:0:0:
202,275,27949,2,0,L|202:194,1,69.5250002652168,0|0,0:0|0:0,0:0:0:0:
350,76,28113,2,0,L|350:189,1,69.5250002652168,2|0,0:0|0:0,0:0:0:0:
198,166,28278,2,0,L|139:131,1,69.5250002652168,0|0,0:0|0:0,0:0:0:0:
284,227,28443,2,0,L|284:340,1,69.5250002652168,2|0,0:0|0:0,0:0:0:0:
436,317,28608,2,0,L|365:276,1,69.5250002652168,0|0,0:0|0:0,0:0:0:0:
185,130,28773,6,0,P|138:166|186:205,1,139.050000530434,2|0,0:0|0:0,0:0:0:0:
257,197,29020,1,0,0:0:0:0:
108,276,29102,2,0,L|27:243,1,69.5250002652168,2|0,0:0|0:0,0:0:0:0:
197,175,29267,2,0,L|278:142,1,69.5250002652168,0|0,0:0|0:0,0:0:0:0:
104,104,29432,2,0,P|63:162|108:177,1,139.050000530434,2|0,0:0|0:0,0:0:0:0:
175,173,29679,1,0,0:0:0:0:
330,135,29762,2,0,L|245:127,1,69.5250002652168,2|0,0:0|0:0,0:0:0:0:
104,104,29927,2,0,L|189:96,1,69.5250002652168,2|0,0:0|0:0,0:0:0:0:
354,80,30091,6,0,P|367:166|347:167,1,139.050000530434,2|0,0:0|0:0,0:0:0:0:
283,164,30339,1,0,0:0:0:0:
431,234,30421,2,0,L|496:201,1,69.5250002652168,2|0,0:0|0:0,0:0:0:0:
334,324,30586,2,0,L|272:292,1,69.5250002652168,0|0,0:0|0:0,0:0:0:0:
426,89,30751,2,0,L|425:191,1,69.5250002652168,2|0,0:0|0:0,0:0:0:0:
275,209,30916,2,0,L|206:251,1,69.5250002652168,0|0,0:0|0:0,0:0:0:0:
368,65,31081,2,0,L|367:167,1,69.5250002652168,2|0,0:0|0:0,0:0:0:0:
217,185,31246,2,0,L|148:227,1,69.5250002652168,0|0,0:0|0:0,0:0:0:0:
350,272,31410,6,0,L|192:227,1,139.050000530434,2|0,0:0|0:0,0:0:0:0:
285,200,31657,1,0,0:0:0:0:
443,132,31740,2,0,L|350:119,1,69.5250002652168,2|0,0:0|0:0,0:0:0:0:
212,129,31905,2,0,L|305:116,1,69.5250002652168,0|0,0:0|0:0,0:0:0:0:
452,153,32070,5,2,0:0:0:0:
469,182,32111,1,0,0:0:0:0:
472,217,32152,1,0,0:0:0:0:
461,249,32193,1,0,0:0:0:0:
438,274,32234,1,0,0:0:0:0:
405,287,32276,1,0,0:0:0:0:
371,285,32317,1,0,0:0:0:0:
218,93,32399,1,2,0:0:0:0:
200,122,32440,1,0,0:0:0:0:
197,157,32481,1,0,0:0:0:0:
208,189,32522,1,0,0:0:0:0:
231,214,32563,1,0,0:0:0:0:
264,227,32605,1,0,0:0:0:0:
298,225,32646,1,0,0:0:0:0:
132,226,32729,6,0,P|87:267|143:304,1,139.050000530434,2|0,0:0|0:0,0:0:0:0:
205,297,32976,1,0,0:0:0:0:
52,151,33059,2,0,L|52:240,1,69.5250002652168,2|0,0:0|0:0,0:0:0:0:
201,231,33223,2,0,L|285:201,1,69.5250002652168,0|0,0:0|0:0,0:0:0:0:
122,70,33388,2,0,L|122:153,1,69.5250002652168,2|0,0:0|0:0,0:0:0:0:
281,146,33553,2,0,L|191:171,1,69.5250002652168,0|0,0:0|0:0,0:0:0:0:
363,213,33718,2,0,L|363:302,1,69.5250002652168,2|0,0:0|0:0,0:0:0:0:
213,258,33883,2,0,L|300:225,1,69.5250002652168,0|0,0:0|0:0,0:0:0:0:
443,142,34048,6,0,P|487:169|430:220,1,139.050000530434,2|0,0:0|0:0,0:0:0:0:
373,222,34295,1,0,0:0:0:0:
221,156,34377,2,0,L|299:146,1,69.5250002652168,2|0,0:0|0:0,0:0:0:0:
443,142,34542,2,0,L|374:133,1,69.5250002652168,0|0,0:0|0:0,0:0:0:0:
213,122,34707,6,0,L|177:149,6,34.7625001326084,2|0|0|0|0|0|0,0:0|0:0|0:0|0:0|0:0|0:0|0:0,0:0:0:0:
374,111,35037,2,0,L|414:108,2,34.7625001326084,2|0|0,0:0|0:0|0:0,0:0:0:0:
213,122,35201,2,0,L|173:119,2,34.7625001326084,2|0|0,0:0|0:0|0:0,0:0:0:0:
371,216,35366,6,0,P|430:188|451:106,1,139.050000530434,2|0,0:0|0:0,0:0:0:0:
383,109,35613,1,0,0:0:0:0:
233,169,35696,2,0,L|154:186,1,69.5250002652168,2|0,0:0|0:0,0:0:0:0:
315,123,35861,2,0,L|394:106,1,69.5250002652168,0|0,0:0|0:0,0:0:0:0:
197,71,36026,2,0,L|197:193,1,69.5250002652168,2|0,0:0|0:0,0:0:0:0:
346,194,36190,2,0,L|432:223,1,69.5250002652168,0|0,0:0|0:0,0:0:0:0:
258,185,36355,2,0,L|258:307,1,69.5250002652168,2|0,0:0|0:0,0:0:0:0:
107,285,36519,2,0,L|172:262,1,69.5250002652168,0|0,0:0|0:0,0:0:0:0:
307,102,36685,6,2,L|307:185,1,51.5,2|2,0:0|0:0,0:0:0:0:
255,162,36850,2,2,L|255:229,1,51.5,2|2,0:0|0:0,0:0:0:0:
333,151,37015,2,2,L|333:234,1,51.5,2|2,0:0|0:0,0:0:0:0:
245,214,37180,2,2,L|245:281,1,51.5,2|2,0:0|0:0,0:0:0:0:
378,268,37344,2,2,L|303:268,1,51.5,2|2,0:0|0:0,0:0:0:0:
177,267,37509,2,2,L|102:267,1,51.5,2|2,0:0|0:0,0:0:0:0:
285,111,37674,2,0,P|347:120|332:224,1,154.5,8|0,0:3|0:0,0:0:0:0:
200,229,38004,6,0,L|117:229,1,61.7999981140137,2|0,1:0|0:0,0:0:0:0:
280,164,38168,2,0,L|363:164,1,61.7999981140137,0|0,1:0|0:0,0:0:0:0:
199,182,38333,1,8,1:0:0:0:
342,233,38416,2,0,L|407:233,2,61.7999981140137,0|0|0,1:0|0:0|0:0,0:0:0:0:
198,187,38663,2,0,L|198:274,1,61.7999981140137,2|0,1:0|0:0,0:0:0:0:
342,235,38827,2,0,L|251:235,1,61.7999981140137,0|0,1:0|0:0,0:0:0:0:
129,110,38993,1,8,1:0:0:0:
293,132,39075,2,0,L|358:132,2,61.7999981140137,0|0|0,1:0|0:0|0:0,0:0:0:0:
131,181,39322,5,2,1:0:0:0:
192,181,39404,1,0,0:0:0:0:
254,181,39486,1,0,0:0:0:0:
103,96,39570,2,0,L|38:96,2,61.7999981140137,0|8|0,1:0|0:0|0:0,0:0:0:0:
254,201,39816,1,0,1:0:0:0:
193,201,39899,1,0,0:0:0:0:
131,201,39981,1,2,0:0:0:0:
282,286,40065,2,0,L|347:286,2,61.7999981140137,0|0|0,1:0|0:0|0:0,0:0:0:0:
131,201,40311,1,8,1:0:0:0:
102,252,40393,1,0,0:0:0:0:
126,307,40475,1,0,0:0:0:0:
184,321,40558,1,0,0:0:0:0:
330,161,40641,6,0,L|330:255,1,61.7999981140137,2|0,1:0|0:0,0:0:0:0:
187,215,40806,2,0,L|115:215,1,61.7999981140137,0|0,1:0|0:0,0:0:0:0:
269,142,40971,1,8,1:0:0:0:
126,150,41053,2,0,L|50:150,2,61.7999981140137,0|0|0,1:0|0:0|0:0,0:0:0:0:
269,142,41300,2,0,L|269:246,1,61.7999981140137,2|0,1:0|0:0,0:0:0:0:
126,231,41465,2,0,L|206:231,1,61.7999981140137,0|0,1:0|0:0,0:0:0:0:
332,222,41630,1,8,1:0:0:0:
189,205,41712,2,0,L|104:205,1,61.7999981140137,0|0,1:0|0:0,0:0:0:0:
127,205,41877,1,0,0:0:0:0:
270,276,41960,6,0,L|351:276,2,61.7999981140137,2|0|0,1:0|0:0|0:0,0:0:0:0:
126,131,42207,2,0,L|127:215,1,61.7999981140137,0|8,1:0|0:0,0:0:0:0:
189,191,42372,1,0,0:0:0:0:
332,192,42454,2,0,L|413:192,2,61.7999981140137,0|0|2,1:0|0:0|0:0,0:0:0:0:
188,47,42701,2,0,L|189:131,1,61.7999981140137,0|0,1:0|0:0,0:0:0:0:
251,107,42866,1,0,0:0:0:0:
395,111,42949,1,8,1:0:0:0:
414,167,43031,1,0,0:0:0:0:
383,218,43113,1,0,0:0:0:0:
324,225,43196,1,0,0:0:0:0:
152,220,43278,6,0,L|152:318,1,61.7999981140137,2|0,1:0|0:0,0:0:0:0:
295,291,43443,2,0,L|381:291,1,61.7999981140137,0|0,1:0|0:0,0:0:0:0:
214,235,43608,1,8,1:0:0:0:
356,291,43690,2,0,L|442:291,2,61.7999981140137,0|0|0,1:0|0:0|0:0,0:0:0:0:
209,111,43938,2,0,L|209:208,1,61.7999981140137,2|0,1:0|0:0,0:0:0:0:
352,200,44102,2,0,L|261:200,1,61.7999981140137,0|0,1:0|0:0,0:0:0:0:
146,178,44267,1,8,1:0:0:0:
290,133,44350,1,0,1:0:0:0:
228,133,44432,1,0,0:0:0:0:
166,133,44514,1,0,0:0:0:0:
314,148,44597,6,0,L|379:148,2,61.7999981140137,2|0|0,1:0|0:0|0:0,0:0:0:0:
169,224,44844,1,0,1:0:0:0:
231,224,44926,1,8,0:0:0:0:
292,224,45008,1,0,0:0:0:0:
147,148,45091,2,0,L|82:148,2,61.7999981140137,0|0|2,1:0|0:0|0:0,0:0:0:0:
292,224,45338,1,0,1:0:0:0:
230,224,45420,1,0,0:0:0:0:
169,224,45504,1,0,0:0:0:0:
315,281,45586,1,8,1:0:0:0:
372,264,45668,1,0,0:0:0:0:
395,209,45750,1,0,0:0:0:0:
368,155,45833,1,0,0:0:0:0:
223,80,45916,6,0,L|223:157,1,61.7999981140137,2|0,1:0|0:0,0:0:0:0:
367,97,46081,2,0,L|454:97,1,61.7999981140137,0|0,1:0|0:0,0:0:0:0:
274,184,46245,1,8,1:0:0:0:
430,186,46328,2,0,L|523:186,2,61.7999981140137,0|0|0,1:0|0:0|0:0,0:0:0:0:
261,257,46575,2,0,L|185:257,1,61.7999981140137,2|0,1:0|0:0,0:0:0:0:
370,186,46740,2,0,L|446:186,1,61.7999981140137,0|0,1:0|0:0,0:0:0:0:
245,122,46905,1,8,1:0:0:0:
430,198,46987,2,0,L|523:198,2,61.7999981140137,0|0|0,1:0|0:0|0:0,0:0:0:0:
233,272,47234,6,0,P|207:263|263:209,1,123.599996228027,8|0,1:0|0:0,0:0:0:0:
428,276,47482,2,0,P|454:267|398:213,1,123.599996228027,8|0,1:0|0:0,0:0:0:0:
232,193,47729,2,0,L|384:193,1,123.599996228027,8|0,1:0|0:0,0:0:0:0:
168,127,47976,2,0,L|21:123,1,123.599996228027,8|0,1:0|0:0,0:0:0:0:
266,93,48223,1,8,1:0:0:0:
39,172,48388,6,0,B|39:297|39:297|39:123,1,247.199992456055,2|2,1:0|0:0,0:0:0:0:
257,171,48883,1,8,1:0:0:0:
114,222,48965,2,0,L|115:301,1,61.7999981140137,0|0,1:0|0:0,0:0:0:0:
177,284,49130,1,0,0:0:0:0:
321,171,49213,2,0,L|321:258,1,61.7999981140137,2|0,1:0|0:0,0:0:0:0:
177,219,49377,2,0,L|268:219,1,61.7999981140137,0|0,1:0|0:0,0:0:0:0:
390,94,49543,1,8,1:0:0:0:
226,116,49625,2,0,L|161:116,2,61.7999981140137,0|0|0,1:0|0:0|0:0,0:0:0:0:
388,165,49872,5,2,1:0:0:0:
327,165,49954,1,0,0:0:0:0:
265,165,50036,1,0,0:0:0:0:
416,80,50119,2,0,L|481:80,2,61.7999981140137,0|8|0,1:0|0:0|0:0,0:0:0:0:
265,185,50366,1,0,1:0:0:0:
326,185,50449,1,0,0:0:0:0:
388,185,50531,1,2,0:0:0:0:
237,270,50613,2,0,L|172:270,2,61.7999981140137,0|0|0,0:0|0:0|0:0,0:0:0:0:
388,185,50861,1,8,1:0:0:0:
417,236,50943,1,0,0:0:0:0:
393,291,51025,1,0,0:0:0:0:
335,305,51108,1,0,0:0:0:0:
192,163,51190,6,0,L|192:238,1,61.7999981140137,2|0,1:0|0:0,0:0:0:0:
336,182,51355,2,0,L|264:182,1,61.7999981140137,0|0,1:0|0:0,0:0:0:0:
132,120,51520,1,8,1:0:0:0:
274,182,51602,2,0,L|336:182,2,61.7999981140137,0|0|0,1:0|0:0|0:0,0:0:0:0:
126,219,51850,2,0,L|215:219,1,61.7999981140137,2|0,1:0|0:0,0:0:0:0:
332,223,52015,2,0,L|332:321,1,61.7999981140137,0|0,1:0|0:0,0:0:0:0:
188,277,52179,1,8,1:0:0:0:
332,223,52262,2,0,L|421:223,1,61.7999981140137,0|0,1:0|0:0,0:0:0:0:
393,223,52427,1,0,0:0:0:0:
248,289,52509,6,0,L|167:289,2,61.7999981140137,2|0|0,1:0|0:0|0:0,0:0:0:0:
392,144,52756,2,0,L|391:228,1,61.7999981140137,0|8,1:0|0:0,0:0:0:0:
329,204,52921,1,0,0:0:0:0:
186,205,53003,2,0,L|105:205,2,61.7999981140137,0|0|2,1:0|0:0|0:0,0:0:0:0:
330,60,53250,2,0,L|329:144,1,61.7999981140137,0|0,1:0|0:0,0:0:0:0:
267,120,53415,1,0,0:0:0:0:
123,124,53498,1,8,1:0:0:0:
104,180,53580,1,0,0:0:0:0:
135,231,53662,1,0,0:0:0:0:
194,238,53745,1,0,0:0:0:0:
336,223,53828,6,0,L|336:307,1,61.7999981140137,2|0,1:0|0:0,0:0:0:0:
192,180,53993,2,0,L|272:180,1,61.7999981140137,0|0,1:0|0:0,0:0:0:0:
397,170,54157,1,8,1:0:0:0:
253,204,54240,2,0,L|192:204,2,61.7999981140137,0|0|0,1:0|0:0|0:0,0:0:0:0:
397,221,54487,2,0,L|317:221,1,61.7999981140137,2|0,1:0|0:0,0:0:0:0:
192,129,54652,2,0,L|272:129,1,61.7999981140137,0|0,1:0|0:0,0:0:0:0:
399,92,54817,1,8,1:0:0:0:
253,129,54899,1,0,1:0:0:0:
314,129,54981,1,0,0:0:0:0:
376,129,55063,1,0,0:0:0:0:
227,218,55146,6,0,L|152:218,2,61.7999981140137,2|0|0,1:0|0:0|0:0,0:0:0:0:
373,292,55394,1,0,1:0:0:0:
311,292,55476,1,8,0:0:0:0:
249,292,55558,1,0,0:0:0:0:
395,206,55641,2,0,L|470:206,2,61.7999981140137,0|0|2,1:0|0:0|0:0,0:0:0:0:
249,132,55889,1,0,1:0:0:0:
310,132,55971,1,0,0:0:0:0:
372,132,56053,1,0,0:0:0:0:
231,71,56135,2,0,L|231:165,1,61.7999981140137,8|0,1:0|0:0,0:0:0:0:
376,129,56300,2,0,L|376:225,1,61.7999981140137,0|0,0:0|0:0,0:0:0:0:
230,99,56465,6,2,L|166:99,1,61.7999981140137,2|0,0:0|0:0,0:0:0:0:
312,99,56630,2,2,L|376:99,1,61.7999981140137,0|0,0:0|0:0,0:0:0:0:
212,145,56795,2,2,L|150:198,1,61.7999981140137,8|0,0:0|0:0,0:0:0:0:
330,145,56960,2,2,L|392:198,1,61.7999981140137,0|0,0:0|0:0,0:0:0:0:
186,195,57124,2,2,L|150:255,1,61.7999981140137,0|0,0:0|0:0,0:0:0:0:
356,195,57289,2,2,L|392:255,1,61.7999981140137,0|0,0:0|0:0,0:0:0:0:
157,245,57454,2,2,L|157:311,1,61.7999981140137,8|0,0:0|0:0,0:0:0:0:
385,245,57619,2,2,L|385:311,1,61.7999981140137,0|0,0:0|0:0,0:0:0:0:
197,146,57784,6,0,P|161:229|208:243,1,154.5,6|0,0:0|0:0,0:0:0:0:
360,246,58113,1,0,0:0:0:0:
134,109,58278,2,0,P|87:151|143:214,1,154.5,6|0,0:0|0:0,0:0:0:0:
311,207,58608,1,0,0:0:0:0:
168,142,58773,1,8,0:0:0:0:
311,207,58938,1,8,0:0:0:0:
79,249,59102,5,0,0:0:0:0:
235,198,69652,5,2,0:0:0:0:
235,198,69982,2,0,P|317:215|317:298,1,154.5,2|0,0:0|0:0,0:0:0:0:
235,282,70311,2,0,L|83:233,1,154.5,2|0,0:0|0:0,0:0:0:0:
184,193,70641,2,0,P|212:193|269:83,1,154.5,2|0,0:0|0:0,0:0:0:0:
99,94,70971,5,2,0:0:0:0:
232,91,71135,1,2,0:0:0:0:
78,204,71465,2,0,P|47:240|97:268,1,103,2|0,0:0|0:0,0:0:0:0:
185,271,71795,1,2,0:0:0:0:
80,271,71960,1,2,0:0:0:0:
388,113,72289,5,2,0:0:0:0:
388,113,72619,2,0,P|326:130|301:235,1,154.5,2|0,0:0|0:0,0:0:0:0:
387,223,72949,2,0,P|449:206|474:101,1,154.5,2|0,0:0|0:0,0:0:0:0:
388,113,73278,2,0,L|251:191,1,154.5,2|0,0:0|0:0,0:0:0:0:
435,263,73608,5,2,0:0:0:0:
300,236,73773,1,2,0:0:0:0:
454,114,74102,2,0,L|455:227,1,103,2|0,0:0|0:0,0:0:0:0:
351,117,74432,1,2,0:0:0:0:
454,115,74597,2,0,L|454:0,1,103,2|0,0:0|0:0,0:0:0:0:
228,228,74927,5,2,0:0:0:0:
228,228,75256,2,0,P|144:168|162:121,1,154.5,2|0,0:0|0:0,0:0:0:0:
245,114,75586,6,0,B|378:104|376:231|376:231|245:326,1,360.5,2|0,0:0|0:0,0:0:0:0:
75,216,76245,5,2,0:0:0:0:
208,199,76410,1,2,0:0:0:0:
57,60,76740,2,0,P|144:114|45:256,1,309,2|2,0:0|0:0,0:0:0:0:
328,176,77564,5,2,0:0:0:0:
256,192,77729,12,2,79872,0:0:0:0:
251,273,80201,6,0,L|358:273,2,87.5500016698838,0|0|0,0:0|0:0|0:0,0:0:0:0:
405,155,80861,1,0,0:0:0:0:
257,230,81190,1,0,0:0:0:0:
405,155,81355,1,0,0:0:0:0:
283,101,81685,5,0,0:0:0:0:
160,156,82015,1,0,0:0:0:0:
283,101,82344,1,0,0:0:0:0:
195,104,82509,1,0,0:0:0:0:
283,101,82674,1,0,0:0:0:0:
134,285,82839,6,0,L|134:171,1,87.5500016698838,0|0,0:0|0:0,0:0:0:0:
225,190,83086,2,0,L|332:191,1,87.5500016698838,0|0,0:0|0:0,0:0:0:0:
221,196,83333,2,0,L|114:197,1,87.5500016698838,0|0,0:0|0:0,0:0:0:0:
221,196,83581,2,0,P|245:241|209:249,1,87.5500016698838,0|0,0:0|0:0,0:0:0:0:
80,221,83828,1,0,0:0:0:0:
290,202,84157,6,0,L|290:326,1,87.5500016698838,2|0,3:0|0:0,0:0:0:0:
201,134,84405,2,0,L|201:258,1,87.5500016698838,0|0,0:0|0:0,0:0:0:0:
290,202,84652,2,0,L|406:202,1,87.5500016698838,0|0,0:0|0:0,0:0:0:0:
288,134,84899,2,0,L|172:134,1,87.5500016698838,0|0,0:0|0:0,0:0:0:0:
344,138,85146,1,0,0:0:0:0:
133,157,85476,5,2,0:0:0:0:
220,157,85640,1,0,0:0:0:0:
308,157,85805,1,2,0:0:0:0:
98,229,86135,2,0,L|99:346,1,87.5500016698838,2|0,0:0|0:0,0:0:0:0:
190,239,86465,1,2,0:0:0:0:
41,153,86630,2,0,L|40:261,1,87.5500016698838,0|2,0:0|0:0,0:0:0:0:
191,144,86960,6,0,L|314:144,1,87.5500016698838,0|2,0:0|0:0,0:0:0:0:
128,153,87289,2,0,L|233:153,1,87.5500016698838,0|2,0:0|0:0,0:0:0:0:
364,189,87619,2,0,L|237:189,2,87.5500016698838,0|2|0,0:0|0:0|0:0,0:0:0:0:
214,78,88113,6,0,L|214:195,1,87.5500016698838,2|0,0:0|0:0,0:0:0:0:
302,165,88443,1,2,0:0:0:0:
151,176,88608,2,0,L|257:176,1,87.5500016698838,0|2,0:0|0:0,0:0:0:0:
327,178,88938,1,0,0:0:0:0:
178,233,89102,2,0,L|81:233,1,87.5500016698838,2|0,0:0|0:0,0:0:0:0:
240,266,89432,5,6,0:0:0:0:
85,260,89597,2,0,P|27:212|102:165,1,175.100003339768,2|0,0:0|0:0,0:0:0:0:
320,211,90091,1,2,0:0:0:0:
245,202,90174,1,0,0:0:0:0:
170,193,90256,1,2,0:0:0:0:
320,211,90421,1,2,0:0:0:0:
170,193,90586,1,2,0:0:0:0:
393,148,90751,5,6,0:0:0:0:
259,109,90916,1,6,0:0:0:0:
393,148,91081,1,6,0:0:0:0:
105,197,91410,2,0,L|203:135,1,103,6|0,0:0|0:0,0:0:0:0:
337,110,91740,1,6,0:0:0:0:
114,85,91905,1,6,0:0:0:0:
319,99,92234,5,0,0:0:0:0:
365,118,92316,1,0,0:0:0:0:
398,158,92398,1,0,0:0:0:0:
409,208,92481,1,0,0:0:0:0:
395,257,92563,1,0,0:0:0:0:
361,294,92646,1,0,0:0:0:0:
313,312,92728,1,0,0:0:0:0:
262,305,92810,1,0,0:0:0:0:
221,276,92893,1,0,0:0:0:0:
197,231,92975,1,0,0:0:0:0:
196,180,93058,1,0,0:0:0:0:
220,135,93140,1,0,0:0:0:0:
261,105,93223,1,0,0:0:0:0:
311,98,93305,1,0,0:0:0:0:
485,173,93388,5,6,0:0:0:0:
341,188,93553,1,6,0:0:0:0:
485,173,93718,1,6,0:0:0:0:
196,128,94048,2,0,L|196:263,1,103,6|0,0:0|0:0,0:0:0:0:
341,225,94377,1,6,0:0:0:0:
118,176,94542,1,6,0:0:0:0:
328,112,94872,5,0,0:0:0:0:
351,157,94954,1,0,0:0:0:0:
349,208,95036,1,0,0:0:0:0:
323,252,95119,1,0,0:0:0:0:
279,278,95201,1,0,0:0:0:0:
228,280,95284,1,0,0:0:0:0:
384,239,95366,1,0,0:0:0:0:
395,190,95448,1,0,0:0:0:0:
368,148,95530,1,0,0:0:0:0:
319,138,95613,1,0,0:0:0:0:
162,140,95696,2,0,P|148:208|180:226,1,103,0|0,0:0|0:0,0:0:0:0:
220,226,95943,1,0,0:0:0:0:
55,161,96026,5,6,0:0:0:0:
276,131,96190,1,6,0:0:0:0:
55,161,96355,1,6,0:0:0:0:
345,177,96685,2,0,L|345:301,1,103,6|0,0:0|0:0,0:0:0:0:
120,277,97015,1,6,0:0:0:0:
345,177,97179,1,6,0:0:0:0:
121,99,97344,5,2,0:0:0:0:
265,84,97509,1,2,0:0:0:0:
198,103,97591,1,2,0:0:0:0:
131,122,97674,1,2,0:0:0:0:
274,184,97839,2,0,L|274:275,1,51.5,2|2,0:0|0:0,0:0:0:0:
183,246,98004,2,0,L|183:320,1,51.5,2|2,0:0|0:0,0:0:0:0:
274,184,98168,1,2,0:0:0:0:
50,172,98333,2,0,P|18:214|64:227,1,103,2|2,0:0|0:0,0:0:0:0:
118,227,98581,1,2,0:0:0:0:
317,204,98663,6,0,L|232:142,2,103,2|2|2,0:0|0:0|0:0,0:0:0:0:
180,261,99322,1,2,0:0:0:0:
317,204,99652,1,2,0:0:0:0:
172,111,99817,1,2,0:0:0:0:
276,166,100146,5,2,0:0:0:0:
173,132,100311,2,0,L|173:246,1,103,10|2,0:0|0:0,0:0:0:0:
242,240,100559,1,2,0:0:0:0:
392,250,100641,2,0,L|392:338,1,51.5,2|2,0:0|0:0,0:0:0:0:
239,306,100806,2,0,L|162:301,1,51.5,10|2,0:0|0:0,0:0:0:0:
338,238,100971,2,0,L|407:237,1,51.5,2|0,0:0|0:0,0:0:0:0:
303,170,101135,2,0,L|234:169,1,51.5,2|0,0:0|0:0,0:0:0:0:
403,126,101300,6,0,P|454:171|392:217,1,154.5,8|0,0:0|0:0,0:0:0:0:
311,208,101630,2,0,L|152:207,1,154.5,8|0,0:0|0:0,0:0:0:0:
250,143,101960,2,0,L|404:142,1,154.5,8|0,0:0|0:0,0:0:0:0:
313,62,102289,2,0,P|262:107|324:153,1,154.5,8|0,0:0|0:0,0:0:0:0:
406,164,102619,6,0,P|457:209|395:255,1,154.5,8|0,0:0|0:0,0:0:0:0:
312,262,102949,2,0,L|158:262,1,154.5,8|0,0:0|0:0,0:0:0:0:
250,114,103278,2,0,P|301:159|239:205,1,154.5,8|0,0:0|0:0,0:0:0:0:
156,216,103608,2,0,P|141:277|162:280,1,103,8|8,0:0|0:0,0:0:0:0:
225,278,103855,1,8,0:0:0:0:
381,196,103938,6,0,P|388:273|323:297,1,154.5,8|0,0:0|0:0,0:0:0:0:
233,301,104267,2,0,L|49:300,1,154.5,8|0,0:0|0:0,0:0:0:0:
172,243,104597,2,0,P|244:212|210:130,1,154.5,8|0,0:0|0:0,0:0:0:0:
141,73,104927,2,0,P|90:113|147:158,1,154.5,8|0,0:0|0:0,0:0:0:0:
237,156,105256,6,0,L|421:155,1,154.5,8|0,0:0|0:0,0:0:0:0:
299,107,105586,2,0,L|115:106,1,154.5,8|0,0:0|0:0,0:0:0:0:
238,179,105916,2,0,L|422:178,1,154.5,8|0,0:0|0:0,0:0:0:0:
299,107,106245,2,0,P|282:169|320:166,1,103,8|8,0:0|0:0,0:0:0:0:
365,174,106493,1,8,0:0:0:0:
190,264,106575,5,8,0:0:0:0:
327,285,106740,1,8,0:0:0:0:
109,201,106905,1,8,0:0:0:0:
327,285,107070,1,8,0:0:0:0:
190,264,107234,1,8,0:0:0:0:
327,285,107399,1,8,0:0:0:0:
109,201,107564,1,8,0:0:0:0:
327,285,107729,1,8,0:0:0:0:
264,275,107811,1,8,0:0:0:0:
406,205,107894,5,8,0:0:0:0:
268,236,108059,1,8,0:0:0:0:
486,152,108224,1,8,0:0:0:0:
268,236,108389,1,8,0:0:0:0:
486,152,108553,1,8,0:0:0:0:
243,198,108718,1,8,0:0:0:0:
486,152,108883,1,8,0:0:0:0:
208,145,109048,1,8,0:0:0:0:
208,145,109130,1,8,0:0:0:0:
383,188,109212,6,0,L|384:264,1,51.5,10|10,0:0|0:0,0:0:0:0:
243,266,109377,2,0,L|243:348,1,51.5,10|10,0:0|0:0,0:0:0:0:
410,150,109542,2,0,L|453:104,1,51.5,10|10,0:0|0:0,0:0:0:0:
219,227,109707,2,0,L|176:273,1,51.5,10|10,0:0|0:0,0:0:0:0:
437,111,109872,2,0,L|492:111,1,51.5,10|10,0:0|0:0,0:0:0:0:
199,185,110037,2,0,L|144:185,1,51.5,10|10,0:0|0:0,0:0:0:0:
352,141,110201,6,0,B|223:316|223:316|441:317|441:317|499:192|432:96|410:53|330:30,1,760.65501566901,2|2,0:0|0:0,0:0:0:0:
183,131,110861,2,0,L|92:131,1,72.0999977996827,2|2,0:0|0:0,0:0:0:0:
183,131,111026,2,0,B|37:131|37:131,1,144.199995599365,2|2,0:0|0:0,0:0:0:0:
18,198,111273,1,2,0:0:0:0:
48,260,111355,1,2,0:0:0:0:
113,284,111438,1,2,0:0:0:0:
302,106,111520,2,0,L|302:352,1,216.299993399048,8|0,0:3|0:0,0:0:0:0:
136,317,111850,6,0,L|46:317,1,61.7999981140137,2|0,0:0|0:0,0:0:0:0:
211,191,112015,2,0,L|211:268,1,61.7999981140137,0|0,0:0|0:0,0:0:0:0:
74,114,112179,2,0,P|70:201|172:218,1,185.399994342041,8|0,0:3|0:0,0:0:0:0:
290,184,112509,2,0,P|329:233|272:257,1,123.599996228027,2|0,0:0|0:0,0:0:0:0:
230,260,112756,1,0,0:0:0:0:
370,158,112839,2,0,L|437:157,1,61.7999981140137,8|0,0:3|0:0,0:0:0:0:
275,136,113004,6,0,L|274:266,1,123.599996228027,0|2,0:0|0:0,0:0:0:0:
401,301,113333,1,0,0:0:0:0:
339,291,113415,1,0,0:0:0:0:
278,281,113497,1,8,0:3:0:0:
494,180,113663,2,0,L|423:178,1,61.7999981140137,0|0,0:0|0:0,0:0:0:0:
293,172,113828,2,0,L|189:170,1,61.7999981140137,2|0,0:0|0:0,0:0:0:0:
376,96,113993,2,0,L|376:190,1,61.7999981140137,0|0,0:0|0:0,0:0:0:0:
231,230,114157,2,0,L|160:230,1,61.7999981140137,8|0,0:3|0:0,0:0:0:0:
314,157,114322,2,0,L|385:157,1,61.7999981140137,0|0,0:0|0:0,0:0:0:0:
185,118,114487,6,0,L|59:117,1,123.599996228027,2|0,0:0|0:0,0:0:0:0:
205,171,114734,2,0,L|290:171,1,61.7999981140137,0|8,0:0|0:3,0:0:0:0:
266,171,114899,1,0,0:0:0:0:
125,261,114982,2,0,L|48:261,1,61.7999981140137,0|0,0:0|0:0,0:0:0:0:
241,228,115146,2,0,P|303:179|236:124,1,185.399994342041,2|0,0:0|0:0,0:0:0:0:
96,104,115476,2,0,L|17:104,1,61.7999981140137,8|0,0:3|0:0,0:0:0:0:
178,123,115641,2,0,L|257:123,1,61.7999981140137,0|0,0:0|0:0,0:0:0:0:
78,207,115806,6,0,P|46:268|87:278,1,123.599996228027,2|0,0:0|0:0,0:0:0:0:
222,288,116053,2,0,L|289:288,1,61.7999981140137,0|8,0:0|0:3,0:0:0:0:
284,288,116218,1,0,0:0:0:0:
122,182,116300,2,0,P|65:219|100:271,1,123.599996228027,0|2,0:0|0:0,0:0:0:0:
144,274,116548,1,0,0:0:0:0:
275,203,116630,2,0,L|275:306,1,61.7999981140137,0|0,0:0|0:0,0:0:0:0:
121,108,116795,1,8,0:3:0:0:
93,160,116877,1,0,0:0:0:0:
116,215,116959,1,0,0:0:0:0:
174,230,117042,1,0,0:0:0:0:
318,302,117124,6,0,L|408:302,1,61.7999981140137,2|0,0:0|0:0,0:0:0:0:
243,176,117289,2,0,L|243:253,1,61.7999981140137,0|0,0:0|0:0,0:0:0:0:
380,99,117453,2,0,P|384:186|282:203,1,185.399994342041,8|0,0:3|0:0,0:0:0:0:
164,169,117784,2,0,P|125:218|182:242,1,123.599996228027,2|0,0:0|0:0,0:0:0:0:
224,245,118030,1,0,0:0:0:0:
84,143,118113,2,0,L|17:142,1,61.7999981140137,8|0,0:3|0:0,0:0:0:0:
179,121,118278,6,0,L|180:251,1,123.599996228027,0|2,0:0|0:0,0:0:0:0:
53,286,118607,1,0,0:0:0:0:
115,276,118689,1,0,0:0:0:0:
176,266,118773,1,8,0:3:0:0:
395,125,118938,2,0,L|307:124,1,61.7999981140137,0|0,0:0|0:0,0:0:0:0:
188,148,119102,2,0,L|126:148,1,61.7999981140137,2|0,0:0|0:0,0:0:0:0:
287,197,119267,2,0,L|288:305,1,61.7999981140137,2|0,0:0|0:0,0:0:0:0:
431,229,119432,2,0,L|430:337,1,61.7999981140137,8|0,0:3|0:0,0:0:0:0:
287,187,119597,2,0,L|183:182,1,61.7999981140137,2|0,0:0|0:0,0:0:0:0:
377,304,119762,6,0,P|423:237|366:211,1,154.5,12|0,0:0|0:0,0:0:0:0:
222,266,120091,1,2,0:0:0:0:
444,182,120256,2,0,P|444:258|353:276,1,154.5,12|0,0:0|0:0,0:0:0:0:
197,235,120586,1,2,0:0:0:0:
431,112,120751,2,0,P|431:188|340:206,1,154.5,12|0,0:0|0:0,0:0:0:0:
164,194,121081,5,2,0:0:0:0:
407,109,121245,2,0,P|417:170|316:204,1,154.5,12|0,0:0|0:0,0:0:0:0:
130,159,121575,1,2,0:0:0:0:
353,247,121740,1,2,0:0:0:0:
289,225,121822,1,0,0:0:0:0:
226,204,121905,1,2,0:0:0:0:
163,182,121988,1,0,0:0:0:0:
308,175,122070,2,0,L|308:273,1,51.5,2|0,0:0|0:0,0:0:0:0:
155,149,122234,2,0,L|251:148,1,51.5,2|0,0:0|0:0,0:0:0:0:
376,317,122399,6,0,L|376:251,1,61.7999981140137,2|0,0:0|0:0,0:0:0:0:
221,166,122564,2,0,L|302:165,1,61.7999981140137,0|0,0:0|0:0,0:0:0:0:
438,114,122728,2,0,P|442:201|340:218,1,185.399994342041,8|0,0:3|0:0,0:0:0:0:
222,184,123058,2,0,P|183:233|240:257,1,123.599996228027,2|0,0:0|0:0,0:0:0:0:
282,260,123305,1,0,0:0:0:0:
142,158,123388,2,0,L|75:157,1,61.7999981140137,8|0,0:3|0:0,0:0:0:0:
237,136,123553,6,0,L|238:266,1,123.599996228027,0|2,0:0|0:0,0:0:0:0:
111,301,123882,1,0,0:0:0:0:
173,291,123964,1,0,0:0:0:0:
234,281,124048,1,8,0:3:0:0:
18,180,124212,2,0,L|89:178,1,61.7999981140137,0|0,0:0|0:0,0:0:0:0:
219,172,124377,2,0,L|323:170,1,61.7999981140137,2|0,0:0|0:0,0:0:0:0:
136,96,124542,2,0,L|136:190,1,61.7999981140137,0|0,0:0|0:0,0:0:0:0:
281,230,124706,2,0,L|352:230,1,61.7999981140137,8|0,0:3|0:0,0:0:0:0:
198,157,124871,2,0,L|127:157,1,61.7999981140137,0|0,0:0|0:0,0:0:0:0:
327,118,125036,5,2,0:0:0:0:
388,117,125118,1,0,0:0:0:0:
450,117,125200,1,0,0:0:0:0:
307,171,125283,2,0,L|222:171,1,61.7999981140137,0|8,0:0|0:3,0:0:0:0:
246,171,125448,1,0,0:0:0:0:
387,261,125531,2,0,L|464:261,1,61.7999981140137,0|0,0:0|0:0,0:0:0:0:
271,228,125696,1,2,0:0:0:0:
217,204,125778,1,0,0:0:0:0:
217,146,125861,1,0,0:0:0:0:
271,123,125943,1,0,0:0:0:0:
416,104,126025,2,0,L|495:104,1,61.7999981140137,8|0,0:3|0:0,0:0:0:0:
334,123,126190,2,0,L|255:123,1,61.7999981140137,0|0,0:0|0:0,0:0:0:0:
434,207,126355,5,2,0:0:0:0:
474,243,126437,1,0,0:0:0:0:
434,280,126519,1,0,0:0:0:0:
290,288,126602,2,0,L|223:288,1,61.7999981140137,0|8,0:0|0:3,0:0:0:0:
228,288,126767,1,0,0:0:0:0:
390,182,126849,1,0,0:0:0:0:
442,208,126932,1,0,0:0:0:0:
438,266,127015,1,2,0:0:0:0:
383,284,127097,1,0,0:0:0:0:
237,203,127179,2,0,L|237:306,1,61.7999981140137,0|0,0:0|0:0,0:0:0:0:
391,108,127344,1,8,0:3:0:0:
419,160,127426,1,0,0:0:0:0:
396,215,127508,1,0,0:0:0:0:
338,230,127591,1,0,0:0:0:0:
185,242,127674,6,0,L|97:241,1,61.7999981140137,2|0,0:0|0:0,0:0:0:0:
268,124,127839,2,0,L|356:125,1,61.7999981140137,0|0,0:0|0:0,0:0:0:0:
183,162,128004,1,8,0:3:0:0:
169,220,128086,1,0,0:0:0:0:
200,271,128168,1,0,0:0:0:0:
259,285,128251,1,0,0:0:0:0:
108,181,128333,1,2,0:0:0:0:
84,235,128415,1,0,0:0:0:0:
113,288,128497,1,0,0:0:0:0:
172,297,128580,1,0,0:0:0:0:
322,255,128663,2,0,L|399:255,1,61.7999981140137,8|0,0:3|0:0,0:0:0:0:
237,129,128828,1,0,0:0:0:0:
177,133,128910,1,0,0:0:0:0:
146,183,128993,5,2,0:0:0:0:
168,239,129075,1,0,0:0:0:0:
314,294,129157,1,0,0:0:0:0:
364,263,129239,1,0,0:0:0:0:
362,204,129321,1,8,0:3:0:0:
310,176,129404,1,0,0:0:0:0:
121,162,129487,2,0,L|200:162,1,61.7999981140137,0|0,0:0|0:0,0:0:0:0:
329,126,129652,2,0,L|427:126,1,61.7999981140137,2|0,0:0|0:0,0:0:0:0:
249,193,129817,2,0,L|161:193,1,61.7999981140137,2|0,0:0|0:0,0:0:0:0:
338,76,129982,2,0,L|338:162,1,61.7999981140137,8|0,0:3|0:0,0:0:0:0:
188,59,130146,2,0,L|188:129,1,61.7999981140137,2|0,0:0|0:0,0:0:0:0:
351,169,130311,6,0,P|390:216|341:243,1,123.599996228027,12|0,0:0|0:0,0:0:0:0:
205,302,130559,2,0,P|166:255|215:228,1,123.599996228027,12|0,0:0|0:0,0:0:0:0:
361,149,130806,2,0,P|425:158|433:246,1,123.599996228027,12|0,0:0|0:0,0:0:0:0:
292,213,131053,2,0,L|131:211,1,123.599996228027,12|0,0:0|0:0,0:0:0:0:
313,69,131300,2,0,P|353:112|298:137,1,123.599996228027,12|0,0:0|0:0,0:0:0:0:
166,152,131548,6,0,P|126:195|181:220,1,123.599996228027,12|0,0:0|0:0,0:0:0:0:
323,225,131795,2,0,P|373:231|392:321,1,123.599996228027,12|0,0:0|0:0,0:0:0:0:
254,172,132042,1,14,0:0:0:0:
404,292,132124,1,14,0:0:0:0:
123,159,132289,1,2,0:0:0:0:
384,179,132454,1,2,0:0:0:0:
246,142,132619,1,2,0:0:0:0:
482,113,132784,1,2,0:0:0:0:
265,157,132949,5,10,0:0:0:0:
404,209,133113,1,2,0:0:0:0:
188,265,133278,1,10,0:0:0:0:
327,317,133442,1,2,0:0:0:0:
109,197,133608,1,10,0:0:0:0:
248,143,133772,1,2,0:0:0:0:
25,133,133938,1,10,0:0:0:0:
313,103,134102,1,10,0:0:0:0:
