osu file format v14

[General]
AudioFilename: beatmap-637391320758084451-audio.mp3
AudioLeadIn: 0
PreviewTime: 111850
Countdown: 0
SampleSet: Soft
StackLeniency: 0.7
Mode: 2
LetterboxInBreaks: 0
WidescreenStoryboard: 1

[Editor]
Bookmarks: 6355,16905,27454,38004,48553,59102,69652,80201,90751,101300,106575,111850,117124,127674,132949,134267,135916
DistanceSpacing: 0.8
BeatDivisor: 4
GridSize: 32
TimelineZoom: 1.499999

[Metadata]
Title:Platinum
TitleUnicode:Platinum
Artist:jioyi
ArtistUnicode:jioyi
Creator:-MomoX
Version:Jemzuu's Overdose
Source:VOEZ
Tags:AJamez Jemzuu CWC2021 SF NM Semi finals no mod Electronic Instrumental Video Game edm Trancecore Drumstep Bass Wobble Freeform Official Soundtrack Vol. 1
BeatmapID:3007090
BeatmapSetID:1463966

[Difficulty]
HPDrainRate:6
CircleSize:4.7
OverallDifficulty:9.4
ApproachRate:9.4
SliderMultiplier:1.92
SliderTickRate:2

[Events]
//Background and Video events
0,0,"Platinum-cropped.png",0,0
//Break Periods
2,59302,69112
//Storyboard Layer 0 (Background)
//Storyboard Layer 1 (Fail)
//Storyboard Layer 2 (Pass)
//Storyboard Layer 3 (Foreground)
//Storyboard Layer 4 (Overlay)
//Storyboard Sound Samples

[TimingPoints]
1081,329.67032967033,4,2,1,60,1,0
6355,-83.3333333333333,4,2,1,60,0,0
15586,-100,4,2,1,60,0,0
16905,-76.9230769230769,4,2,1,50,0,0
17317,-100,4,2,1,50,0,0
17564,-100,4,2,1,50,0,0
17894,-100,4,2,1,50,0,0
18223,-100,4,2,1,50,0,0
18553,-83.3333333333333,4,2,1,50,0,0
18883,-100,4,2,98,50,0,0
18924,-100,4,2,1,50,0,0
18965,-100,4,2,1,5,0,0
19048,-100,4,2,98,50,0,0
19089,-100,4,2,1,50,0,0
19212,-100,4,2,98,50,0,0
19254,-100,4,2,1,50,0,0
19542,-100,4,2,1,50,0,0
20861,-100,4,2,1,50,0,0
22179,-100,4,2,1,50,0,0
24817,-100,4,2,1,50,0,0
27454,-100,4,2,1,50,0,0
32729,-100,4,2,1,50,0,0
36685,-100,4,2,1,50,0,0
38004,-100,4,2,1,75,0,1
47234,-100,4,2,1,75,0,0
48883,-100,4,2,1,75,0,1
57784,-100,4,2,1,75,0,0
59102,-100,4,2,1,75,0,0
69652,-100,4,2,3,35,0,0
70311,-100,4,2,97,35,0,0
70394,-100,4,2,3,35,0,0
72949,-100,4,2,97,35,0,0
73032,-100,4,2,3,35,0,0
75586,-100,4,2,97,35,0,0
75669,-100,4,2,3,35,0,0
76740,-100,4,2,97,35,0,0
76823,-100,4,2,3,35,0,0
78223,-100,4,2,97,35,0,0
78306,-100,4,2,3,35,0,0
79542,-100,4,2,97,35,0,0
79625,-100,4,2,3,35,0,0
79872,-100,4,2,97,35,0,0
79955,-100,4,2,3,35,0,0
80201,-100,4,2,1,35,0,0
85476,-100,4,2,1,45,0,0
90751,-100,4,2,1,75,0,0
110201,-100,4,2,1,75,0,0
111850,-83.3333333333333,4,2,1,75,0,1
119762,-100,4,2,1,75,0,0
122399,-83.3333333333333,4,2,1,75,0,1
130311,-83.3333333333333,4,2,1,75,0,0
132289,-83.3333333333333,4,2,1,75,0,0
134267,-83.3333333333333,4,2,1,75,0,0

[Colours]
Combo1 : 228,228,203
Combo2 : 229,228,226
Combo3 : 249,235,204
Combo4 : 183,187,168

[HitObjects]
254,202,1081,5,0,0:0:0:0:
254,202,1245,1,0,0:0:0:0:
128,202,1410,1,0,1:0:0:0:
254,202,1575,2,0,L|257:100,1,96,0|0,0:0|0:0,0:0:0:0:
366,84,1905,1,0,0:0:0:0:
246,107,2070,1,0,0:0:0:0:
243,154,2152,1,0,0:0:0:0:
241,202,2234,1,0,0:0:0:0:
239,250,2317,1,0,0:0:0:0:
177,257,2399,6,0,L|68:271,1,96,0|0,0:0|0:0,0:0:0:0:
203,341,2729,1,0,1:0:0:0:
70,353,2894,2,0,L|59:218,1,96,0|0,0:0|0:0,0:0:0:0:
173,206,3223,1,0,0:0:0:0:
292,197,3388,1,0,0:0:0:0:
172,178,3553,1,0,0:0:0:0:
297,171,3718,5,0,0:0:0:0:
299,123,3800,1,0,0:0:0:0:
302,75,3882,1,0,0:0:0:0:
419,55,4048,1,0,1:0:0:0:
298,48,4212,2,0,L|290:158,1,96,0|0,0:0|0:0,0:0:0:0:
180,180,4542,1,0,0:0:0:0:
299,231,4707,1,0,0:0:0:0:
166,273,4872,1,0,0:0:0:0:
423,314,5037,5,0,0:0:0:0:
423,314,5366,1,0,0:0:0:0:
423,314,5531,1,0,0:0:0:0:
423,314,5696,1,0,0:0:0:0:
428,266,5778,1,0,0:0:0:0:
433,218,5860,1,0,0:0:0:0:
439,170,5943,1,0,0:0:0:0:
444,123,6025,1,0,0:0:0:0:
17,44,6355,6,0,L|155:29,1,115.199996484375,8|0,0:0|0:0,0:0:0:0:
293,132,6602,2,0,L|152:143,1,115.199996484375,8|0,0:0|0:0,0:0:0:0:
347,209,6850,2,0,L|478:208,1,115.199996484375,8|0,0:0|0:0,0:0:0:0:
296,384,7097,2,0,L|292:251,1,115.199996484375,8|0,0:0|0:0,0:0:0:0:
455,131,7344,2,0,L|314:129,1,115.199996484375,8|0,0:0|0:0,0:0:0:0:
399,106,7591,1,0,0:0:0:0:
235,64,7674,6,0,L|91:57,1,115.199996484375,8|0,0:0|0:0,0:0:0:0:
280,162,7921,2,0,L|291:284,1,115.199996484375,8|0,0:0|0:0,0:0:0:0:
126,320,8168,2,0,L|255:312,1,115.199996484375,8|0,0:0|0:0,0:0:0:0:
75,246,8416,2,0,L|64:102,1,115.199996484375,8|0,0:0|0:0,0:0:0:0:
235,64,8663,2,0,L|166:53,1,57.5999982421876,8|0,0:0|0:0,0:0:0:0:
25,352,8828,2,0,L|103:346,1,57.5999982421876,0|0,0:0|0:0,0:0:0:0:
249,351,8993,6,0,L|255:211,1,115.199996484375,8|0,0:0|0:0,0:0:0:0:
414,228,9240,2,0,L|422:95,1,115.199996484375,8|0,0:0|0:0,0:0:0:0:
258,135,9487,2,0,L|253:2,1,115.199996484375,8|0,0:0|0:0,0:0:0:0:
93,84,9734,2,0,L|209:74,1,115.199996484375,8|0,0:0|0:0,0:0:0:0:
45,171,9982,2,0,L|41:300,1,115.199996484375,8|0,0:0|0:0,0:0:0:0:
100,300,10229,1,0,0:0:0:0:
263,337,10311,6,0,L|135:312,1,115.199996484375,8|0,0:0|0:0,0:0:0:0:
315,256,10559,2,0,L|478:239,1,115.199996484375,8|0,0:0|0:0,0:0:0:0:
265,195,10806,2,0,L|261:71,1,115.199996484375,8|0,0:0|0:0,0:0:0:0:
98,84,11053,2,0,L|235:72,1,115.199996484375,8|0,0:0|0:0,0:0:0:0:
378,34,11300,2,0,L|318:28,1,57.5999982421876,8|0,0:0|0:0,0:0:0:0:
172,299,11465,2,0,L|243:290,1,57.5999982421876,0|0,0:0|0:0,0:0:0:0:
396,358,11630,6,0,L|250:358,1,115.199996484375,8|0,0:0|0:0,0:0:0:0:
446,297,11877,2,0,L|453:162,1,115.199996484375,8|0,0:0|0:0,0:0:0:0:
296,198,12124,2,0,L|289:121,1,57.5999982421876,8|0,0:0|0:0,0:0:0:0:
135,77,12289,2,0,L|259:63,1,115.199996484375,8|0,0:0|0:0,0:0:0:0:
83,157,12537,2,0,L|72:280,1,115.199996484375,8|0,0:0|0:0,0:0:0:0:
228,249,12784,2,0,L|230:317,1,57.5999982421876,8|0,0:0|0:0,0:0:0:0:
386,354,12949,6,0,L|259:359,1,115.199996484375,8|0,0:0|0:0,0:0:0:0:
112,290,13196,2,0,L|250:277,1,115.199996484375,8|0,0:0|0:0,0:0:0:0:
71,214,13443,2,0,L|67:140,1,57.5999982421876,8|0,0:0|0:0,0:0:0:0:
226,152,13608,2,0,L|228:18,1,115.199996484375,8|0,0:0|0:0,0:0:0:0:
387,126,13855,2,0,L|250:136,1,115.199996484375,8|0,0:0|0:0,0:0:0:0:
118,52,14102,2,0,L|183:48,1,57.5999982421876,8|0,0:0|0:0,0:0:0:0:
374,213,14267,6,0,L|450:212,1,57.5999982421876,8|0,0:0|0:0,0:0:0:0:
279,262,14432,2,0,L|276:331,1,57.5999982421876,8|0,0:0|0:0,0:0:0:0:
119,300,14597,2,0,L|107:369,1,57.5999982421876,8|0,0:0|0:0,0:0:0:0:
266,215,14762,2,0,L|268:277,1,57.5999982421876,8|0,0:0|0:0,0:0:0:0:
429,150,14927,2,0,L|457:213,1,57.5999982421876,8|0,0:0|0:0,0:0:0:0:
289,147,15091,2,0,L|288:209,1,57.5999982421876,8|0,0:0|0:0,0:0:0:0:
114,195,15256,2,0,L|77:255,1,57.5999982421876,8|0,0:0|0:0,0:0:0:0:
272,247,15421,2,0,L|316:306,1,57.5999982421876,8|0,0:0|0:0,0:0:0:0:
95,357,15586,6,0,L|58:359,1,24,2|0,0:0|0:0,0:0:0:0:
53,198,15916,2,0,L|107:171,1,48,2|2,0:0|0:0,0:0:0:0:
151,166,16081,1,2,0:0:0:0:
168,88,16245,2,0,L|114:61,1,48,2|2,0:0|0:0,0:0:0:0:
63,58,16410,1,2,0:0:0:0:
302,255,16575,2,0,L|149:268,1,144,8|0,0:3|0:0,0:0:0:0:
383,92,16905,6,0,P|414:160|296:92,1,374.399982861329,2|2,0:0|0:0,0:0:0:0:
345,88,17482,1,2,0:0:0:0:
169,48,17564,5,2,0:0:0:0:
153,66,17605,1,0,0:0:0:0:
147,89,17646,1,0,0:0:0:0:
152,112,17687,1,0,0:0:0:0:
165,132,17728,1,0,0:0:0:0:
192,144,17770,1,0,0:0:0:0:
226,147,17811,1,0,0:0:0:0:
387,234,17894,2,0,L|256:258,1,96,2|2,0:0|0:0,0:0:0:0:
244,254,18141,1,0,0:0:0:0:
68,209,18223,6,0,L|86:211,1,12,2|0,0:0|0:0,0:0:0:0:
127,182,18306,2,0,L|145:178,1,12,2|0,0:0|0:0,0:0:0:0:
280,87,18388,2,0,L|268:84,1,12,2|0,0:0|0:0,0:0:0:0:
221,75,18471,2,0,L|204:73,1,12,2|0,0:0|0:0,0:0:0:0:
61,40,18553,2,0,P|22:95|109:145,1,172.799994726563,2|0,0:0|0:0,0:0:0:0:
274,221,18883,5,2,0:0:0:0:
164,281,19048,2,0,L|148:255,2,24,2|0|0,0:0|0:0|0:0,0:0:0:0:
339,346,19212,2,0,L|165:357,1,144,2|0,0:0|0:0,0:0:0:0:
368,280,19542,5,2,0:0:0:0:
403,278,19583,1,0,0:0:0:0:
440,280,19624,1,0,0:0:0:0:
455,253,19666,1,0,0:0:0:0:
440,280,19707,1,0,0:0:0:0:
272,190,19789,5,2,0:0:0:0:
237,188,19830,1,0,0:0:0:0:
200,190,19871,1,0,0:0:0:0:
185,163,19913,1,0,0:0:0:0:
200,190,19954,1,0,0:0:0:0:
369,138,20037,5,2,0:0:0:0:
384,111,20079,1,0,0:0:0:0:
369,138,20120,1,0,0:0:0:0:
191,74,20201,6,0,L|183:29,1,24,10|0,0:0|0:0,0:0:0:0:
288,41,20366,2,0,L|296:77,1,24,2|0,0:0|0:0,0:0:0:0:
112,180,20531,2,0,L|74:184,1,24,2|0,0:0|0:0,0:0:0:0:
276,278,20696,2,0,L|306:276,1,24,2|0,0:0|0:0,0:0:0:0:
108,356,20861,5,2,0:0:0:0:
95,319,21190,1,2,0:0:0:0:
332,318,21355,2,0,L|277:311,1,48,2|0,0:0|0:0,0:0:0:0:
85,240,21520,1,2,0:0:0:0:
78,215,21685,2,0,L|135:209,1,48,0|0,0:0|0:0,0:0:0:0:
300,116,21850,2,0,L|234:111,1,48,2|0,0:0|0:0,0:0:0:0:
96,94,22015,1,0,0:0:0:0:
334,186,22179,6,0,L|169:194,1,144,2|0,0:0|0:0,0:0:0:0:
372,278,22509,6,0,L|487:288,1,96,8|0,0:0|0:0,0:0:0:0:
477,313,22715,1,0,0:0:0:0:
277,315,22839,2,0,L|262:357,1,24,0|0,0:0|0:0,0:0:0:0:
376,358,23004,1,2,0:0:0:0:
160,370,23168,5,8,0:0:0:0:
148,349,23210,1,0,0:0:0:0:
160,370,23251,1,0,0:0:0:0:
203,377,23292,1,0,0:0:0:0:
247,380,23333,1,0,0:0:0:0:
266,349,23374,1,0,0:0:0:0:
247,380,23416,1,0,0:0:0:0:
58,222,23498,6,0,L|39:222,1,12,2|0,0:0|0:0,0:0:0:0:
97,169,23581,2,0,L|119:169,1,12,0|0,0:0|0:0,0:0:0:0:
260,140,23663,2,0,L|279:140,1,12,0|0,0:0|0:0,0:0:0:0:
221,87,23746,2,0,L|199:87,1,12,0|0,0:0|0:0,0:0:0:0:
51,45,23828,6,0,L|160:27,1,96,8|0,0:0|0:0,0:0:0:0:
403,240,24157,2,0,L|284:231,1,96,0|2,0:0|0:0,0:0:0:0:
87,307,24487,1,8,0:0:0:0:
312,349,24652,1,0,0:0:0:0:
56,332,24817,5,8,0:0:0:0:
56,332,25146,1,8,0:0:0:0:
56,332,25476,1,8,0:0:0:0:
56,332,25806,1,8,0:0:0:0:
56,332,26135,1,8,0:0:0:0:
56,332,26465,5,8,0:0:0:0:
184,306,26630,1,8,0:0:0:0:
313,283,26795,2,0,L|255:274,1,48,10|10,0:0|0:0,0:0:0:0:
94,184,26960,2,0,L|154:176,1,48,10|10,0:0|0:0,0:0:0:0:
346,102,27124,6,0,L|174:86,1,144,10|0,0:0|0:0,0:0:0:0:
387,193,27454,5,2,0:0:0:0:
166,250,27619,2,0,L|183:285,1,24,0|0,0:0|0:0,0:0:0:0:
282,303,27784,1,2,0:0:0:0:
54,195,27949,2,0,L|74:160,1,24,0|0,0:0|0:0,0:0:0:0:
168,162,28113,1,2,0:0:0:0:
393,122,28278,2,0,L|362:105,1,24,0|0,0:0|0:0,0:0:0:0:
266,96,28443,1,2,0:0:0:0:
484,269,28608,2,0,L|455:270,1,24,0|0,0:0|0:0,0:0:0:0:
269,368,28773,5,2,0:0:0:0:
292,366,28814,1,0,0:0:0:0:
316,365,28855,1,0,0:0:0:0:
340,364,28896,1,0,0:0:0:0:
364,363,28937,1,0,0:0:0:0:
392,360,28979,1,0,0:0:0:0:
423,360,29020,1,0,0:0:0:0:
250,299,29102,5,2,0:0:0:0:
364,275,29267,2,0,L|365:239,1,24,0|0,0:0|0:0,0:0:0:0:
174,215,29432,1,2,0:0:0:0:
286,194,29597,2,0,L|288:153,1,24,0|0,0:0|0:0,0:0:0:0:
100,144,29762,1,2,0:0:0:0:
318,92,29927,2,0,L|290:94,1,24,2|0,0:0|0:0,0:0:0:0:
89,249,30091,5,2,0:0:0:0:
72,222,30133,1,0,0:0:0:0:
89,249,30174,1,0,0:0:0:0:
123,262,30215,1,0,0:0:0:0:
162,269,30256,1,0,0:0:0:0:
123,287,30298,1,0,0:0:0:0:
77,293,30339,1,0,0:0:0:0:
263,346,30421,5,2,0:0:0:0:
152,358,30586,2,0,L|149:331,1,24,0|0,0:0|0:0,0:0:0:0:
340,288,30751,1,2,0:0:0:0:
224,273,30916,2,0,L|222:235,1,24,0|0,0:0|0:0,0:0:0:0:
414,207,31081,1,2,0:0:0:0:
299,190,31245,2,0,L|265:182,1,24,0|0,0:0|0:0,0:0:0:0:
469,83,31410,5,2,0:0:0:0:
486,56,31452,1,0,0:0:0:0:
469,83,31493,1,0,0:0:0:0:
435,96,31534,1,0,0:0:0:0:
396,103,31575,1,0,0:0:0:0:
435,121,31617,1,0,0:0:0:0:
475,126,31658,1,0,0:0:0:0:
287,173,31740,5,2,0:0:0:0:
398,161,31905,2,0,L|401:188,1,24,0|0,0:0|0:0,0:0:0:0:
210,231,32070,1,2,0:0:0:0:
326,246,32235,2,0,L|328:284,1,24,0|0,0:0|0:0,0:0:0:0:
148,333,32399,2,0,L|119:337,1,24,2|0,0:0|0:0,0:0:0:0:
317,362,32564,2,0,L|352:361,1,24,0|0,0:0|0:0,0:0:0:0:
125,238,32729,5,2,0:0:0:0:
96,235,32770,1,0,0:0:0:0:
67,233,32811,1,0,0:0:0:0:
40,232,32852,1,0,0:0:0:0:
69,234,32893,1,0,0:0:0:0:
97,236,32935,1,0,0:0:0:0:
126,239,32976,1,0,0:0:0:0:
323,180,33059,5,2,0:0:0:0:
210,178,33223,2,0,L|205:133,1,24,0|0,0:0|0:0,0:0:0:0:
397,110,33388,1,2,0:0:0:0:
279,103,33553,2,0,L|277:70,1,24,0|0,0:0|0:0,0:0:0:0:
468,209,33718,1,2,0:0:0:0:
244,320,33883,2,0,L|212:320,1,24,0|0,0:0|0:0,0:0:0:0:
416,353,34048,5,2,0:0:0:0:
430,339,34089,1,0,0:0:0:0:
416,353,34130,1,0,0:0:0:0:
388,359,34171,1,0,0:0:0:0:
347,362,34212,1,0,0:0:0:0:
388,359,34254,1,0,0:0:0:0:
429,358,34295,1,0,0:0:0:0:
237,253,34377,5,2,0:0:0:0:
343,245,34542,2,0,L|347:212,1,24,0|0,0:0|0:0,0:0:0:0:
150,161,34707,5,2,0:0:0:0:
173,157,34748,1,0,0:0:0:0:
197,154,34789,1,0,0:0:0:0:
221,151,34830,1,0,0:0:0:0:
245,148,34871,1,0,0:0:0:0:
268,145,34913,1,0,0:0:0:0:
292,142,34954,1,0,0:0:0:0:
117,78,35037,1,2,0:0:0:0:
338,39,35201,2,0,L|302:43,1,24,2|0,0:0|0:0,0:0:0:0:
67,272,35366,5,2,0:0:0:0:
53,258,35407,1,0,0:0:0:0:
67,272,35448,1,0,0:0:0:0:
95,278,35489,1,0,0:0:0:0:
136,281,35530,1,0,0:0:0:0:
95,278,35572,1,0,0:0:0:0:
54,277,35613,1,0,0:0:0:0:
252,348,35696,5,2,0:0:0:0:
141,362,35861,2,0,L|138:336,1,24,0|0,0:0|0:0,0:0:0:0:
341,293,36026,1,2,0:0:0:0:
225,277,36190,2,0,L|221:250,1,24,0|0,0:0|0:0,0:0:0:0:
428,208,36355,1,2,0:0:0:0:
196,151,36520,2,0,L|232:143,1,24,0|0,0:0|0:0,0:0:0:0:
457,120,36685,5,2,0:0:0:0:
457,120,36767,1,2,0:0:0:0:
457,120,36850,1,2,0:0:0:0:
457,120,36932,1,2,0:0:0:0:
373,138,37015,2,0,L|370:86,1,48,2|2,0:0|0:0,0:0:0:0:
279,103,37179,2,0,L|274:49,1,48,2|2,0:0|0:0,0:0:0:0:
83,199,37344,2,0,L|141:205,1,48,2|2,0:0|0:0,0:0:0:0:
329,299,37509,2,0,L|268:311,1,48,2|2,0:0|0:0,0:0:0:0:
86,342,37674,6,0,L|82:180,1,144,8|0,0:3|0:0,0:0:0:0:
269,185,38004,6,0,L|323:176,1,48,2|0,1:0|0:0,0:0:0:0:
249,149,38168,2,0,L|192:151,2,48,0|0|8,1:0|0:0|1:0,0:0:0:0:
407,140,38416,2,0,L|408:83,1,48,0|0,1:0|0:0,0:0:0:0:
352,76,38581,1,0,0:0:0:0:
196,51,38663,2,0,L|134:49,1,48,2|0,1:0|0:0,0:0:0:0:
303,246,38828,2,0,L|360:244,2,48,0|0|8,1:0|0:0|1:0,0:0:0:0:
232,282,39075,2,0,L|289:309,1,48,0|0,1:0|0:0,0:0:0:0:
335,315,39240,1,0,0:0:0:0:
174,364,39322,6,0,L|172:310,1,48,2|0,1:0|0:0,0:0:0:0:
228,301,39487,1,0,0:0:0:0:
73,229,39570,2,0,L|6:223,2,48,0|8|0,1:0|0:0|0:0,0:0:0:0:
220,211,39817,2,0,L|219:149,1,48,0|0,1:0|0:0,0:0:0:0:
165,155,39982,1,2,0:0:0:0:
228,147,40064,2,0,L|165:127,1,48,0|0,1:0|0:0,0:0:0:0:
123,127,40229,1,0,0:0:0:0:
280,74,40311,2,0,L|329:70,1,48,8|0,1:0|0:0,0:0:0:0:
272,56,40476,2,0,L|197:64,1,48,0|0,0:0|0:0,0:0:0:0:
381,165,40641,6,0,L|450:171,1,48,2|0,1:0|0:0,0:0:0:0:
270,246,40806,2,0,L|203:252,2,48,0|0|8,1:0|0:0|1:0,0:0:0:0:
429,269,41053,2,0,L|435:333,1,48,0|0,1:0|0:0,0:0:0:0:
378,335,41218,1,0,0:0:0:0:
316,349,41300,2,0,L|308:289,1,48,2|0,1:0|0:0,0:0:0:0:
467,257,41465,2,0,L|461:188,1,48,0|0,1:0|0:0,0:0:0:0:
405,198,41630,1,8,1:0:0:0:
247,171,41712,2,0,L|253:102,1,48,0|0,1:0|0:0,0:0:0:0:
309,112,41877,1,0,0:0:0:0:
151,75,41960,6,0,L|97:78,1,48,2|0,1:0|0:0,0:0:0:0:
162,55,42124,2,0,L|222:55,1,48,0|0,0:0|1:0,0:0:0:0:
49,154,42289,2,0,L|44:229,1,48,8|0,0:0|0:0,0:0:0:0:
121,217,42454,2,0,L|128:277,1,48,0|0,1:0|0:0,0:0:0:0:
206,297,42619,2,0,L|143:306,1,48,2|0,0:0|1:0,0:0:0:0:
87,342,42784,2,0,L|161:340,1,48,0|0,0:0|0:0,0:0:0:0:
306,357,42949,2,0,L|310:303,1,48,8|0,1:0|0:0,0:0:0:0:
239,318,43113,2,0,L|228:258,1,48,0|0,0:0|0:0,0:0:0:0:
388,240,43278,6,0,L|449:238,1,48,2|0,1:0|0:0,0:0:0:0:
273,196,43443,2,0,L|203:195,2,48,0|0|8,1:0|0:0|1:0,0:0:0:0:
430,135,43690,2,0,L|507:126,2,48,0|0|0,1:0|0:0|0:0,0:0:0:0:
272,85,43938,2,0,L|197:84,1,48,2|0,1:0|0:0,0:0:0:0:
387,149,44102,2,0,L|384:84,1,48,0|0,1:0|0:0,0:0:0:0:
325,91,44267,1,8,1:0:0:0:
388,80,44350,2,0,L|450:72,2,48,0|0|0,1:0|0:0|0:0,0:0:0:0:
216,157,44597,6,0,L|220:214,1,48,2|0,1:0|0:0,0:0:0:0:
277,215,44762,1,0,0:0:0:0:
121,268,44844,2,0,L|68:272,2,48,0|8|0,1:0|0:0|0:0,0:0:0:0:
277,305,45091,2,0,L|234:338,1,48,0|0,1:0|0:0,0:0:0:0:
181,348,45256,1,2,0:0:0:0:
26,275,45339,2,0,L|63:245,1,48,0|0,1:0|0:0,0:0:0:0:
119,238,45504,1,0,0:0:0:0:
281,221,45586,2,0,L|288:152,1,48,8|0,1:0|0:0,0:0:0:0:
214,177,45751,2,0,L|208:111,1,48,0|0,0:0|0:0,0:0:0:0:
370,97,45916,6,0,L|435:89,1,48,2|0,1:0|0:0,0:0:0:0:
255,81,46081,2,0,L|248:13,1,48,0|0,1:0|0:0,0:0:0:0:
307,23,46245,1,8,1:0:0:0:
244,37,46328,2,0,L|181:42,2,48,0|0|0,1:0|0:0|0:0,0:0:0:0:
408,169,46575,2,0,L|468:175,2,48,2|0|0,1:0|0:0|1:0,0:0:0:0:
244,239,46822,2,0,L|292:258,1,48,0|8,0:0|1:0,0:0:0:0:
346,262,46987,1,0,1:0:0:0:
181,330,47070,2,0,L|89:338,1,48,0|0,0:0|0:0,0:0:0:0:
316,358,47234,5,8,1:0:0:0:
160,277,47482,1,8,1:0:0:0:
333,246,47729,1,8,1:0:0:0:
143,195,47976,1,8,1:0:0:0:
458,158,48223,1,8,1:0:0:0:
174,117,48388,2,0,L|-2:237,1,192,2|2,1:0|0:0,0:0:0:0:
355,302,48883,6,0,L|414:305,2,48,8|0|0,1:0|1:0|0:0,0:0:0:0:
288,284,49130,2,0,L|352:263,1,48,0|2,0:0|1:0,0:0:0:0:
397,258,49295,1,0,0:0:0:0:
233,223,49377,2,0,L|226:165,1,48,0|0,1:0|0:0,0:0:0:0:
286,161,49542,1,8,1:0:0:0:
450,156,49624,2,0,L|457:98,1,48,0|0,1:0|0:0,0:0:0:0:
397,94,49789,1,0,0:0:0:0:
227,76,49872,6,0,L|159:79,2,48,2|0|0,1:0|0:0|0:0,0:0:0:0:
67,173,50119,2,0,L|-4:179,2,48,0|8|0,1:0|0:0|0:0,0:0:0:0:
235,200,50366,2,0,L|235:273,1,48,0|0,1:0|0:0,0:0:0:0:
177,265,50531,1,2,0:0:0:0:
340,300,50613,2,0,L|409:306,2,48,0|0|0,0:0|0:0|0:0,0:0:0:0:
176,358,50861,2,0,L|168:303,1,48,8|0,1:0|0:0,0:0:0:0:
245,315,51026,2,0,L|248:253,1,48,0|0,0:0|0:0,0:0:0:0:
75,222,51190,6,0,L|10:215,1,48,2|0,1:0|0:0,0:0:0:0:
197,162,51355,2,0,L|258:155,2,48,0|0|8,1:0|0:0|1:0,0:0:0:0:
362,102,51602,2,0,L|434:98,2,48,0|0|0,1:0|0:0|0:0,0:0:0:0:
297,98,51850,2,0,L|292:46,1,48,2|0,1:0|0:0,0:0:0:0:
470,48,52015,2,0,L|410:104,1,48,0|0,1:0|0:0,0:0:0:0:
376,89,52179,1,8,1:0:0:0:
198,208,52262,2,0,L|258:264,1,48,0|0,1:0|0:0,0:0:0:0:
292,249,52426,1,0,0:0:0:0:
475,311,52509,6,0,L|478:238,1,48,2|0,1:0|0:0,0:0:0:0:
419,248,52674,1,0,0:0:0:0:
353,246,52756,2,0,L|349:170,1,48,0|8,1:0|0:0,0:0:0:0:
411,188,52921,1,0,0:0:0:0:
240,129,53004,2,0,L|176:129,2,48,0|0|2,1:0|0:0|0:0,0:0:0:0:
308,125,53251,2,0,L|310:62,1,48,0|0,1:0|0:0,0:0:0:0:
245,63,53416,1,0,0:0:0:0:
66,248,53498,2,0,L|131:244,1,48,8|0,1:0|0:0,0:0:0:0:
299,338,53663,2,0,L|231:346,1,48,0|0,0:0|0:0,0:0:0:0:
74,351,53828,6,0,L|11:344,1,48,2|0,1:0|0:0,0:0:0:0:
200,333,53993,2,0,L|202:273,1,48,0|0,1:0|0:0,0:0:0:0:
142,271,54157,1,8,1:0:0:0:
77,244,54240,2,0,L|121:213,1,48,0|0,1:0|0:0,0:0:0:0:
176,207,54405,1,0,0:0:0:0:
353,223,54487,2,0,L|354:157,1,48,2|0,1:0|0:0,0:0:0:0:
179,130,54652,2,0,L|174:63,1,48,0|0,1:0|0:0,0:0:0:0:
234,66,54817,1,8,1:0:0:0:
393,63,54899,2,0,L|349:94,1,48,0|0,1:0|0:0,0:0:0:0:
294,100,55064,1,0,0:0:0:0:
457,153,55146,6,0,L|463:224,1,48,2|0,1:0|0:0,0:0:0:0:
403,221,55311,1,0,0:0:0:0:
242,275,55394,2,0,L|174:269,2,48,0|8|0,1:0|0:0|0:0,0:0:0:0:
306,318,55641,2,0,L|238:327,2,48,0|0|2,1:0|0:0|0:0,0:0:0:0:
148,359,55888,2,0,L|150:288,1,48,0|0,1:0|0:0,0:0:0:0:
210,293,56053,1,0,0:0:0:0:
379,263,56135,2,0,L|444:258,1,48,8|0,1:0|0:0,0:0:0:0:
266,212,56300,2,0,L|261:143,1,48,0|0,0:0|0:0,0:0:0:0:
449,155,56465,6,0,L|456:90,1,48,2|0,0:0|0:0,0:0:0:0:
377,108,56630,2,0,L|386:51,1,48,0|0,0:0|0:0,0:0:0:0:
203,255,56795,2,0,L|196:190,1,48,8|0,0:0|0:0,0:0:0:0:
275,208,56960,2,0,L|266:151,1,48,0|0,0:0|0:0,0:0:0:0:
86,155,57124,2,0,L|74:98,1,48,0|0,0:0|0:0,0:0:0:0:
253,102,57289,2,0,L|258:40,1,48,0|0,0:0|0:0,0:0:0:0:
74,248,57454,2,0,L|9:246,1,48,8|0,0:0|0:0,0:0:0:0:
223,343,57619,2,0,L|303:333,1,48,0|0,0:0|0:0,0:0:0:0:
74,351,57784,6,0,P|52:287|154:235,1,192,6|0,0:0|0:0,0:0:0:0:
379,178,58278,2,0,L|160:158,1,192,6|0,0:0|0:0,0:0:0:0:
420,85,58773,1,8,0:0:0:0:
180,77,58938,1,8,0:0:0:0:
486,207,59102,1,0,0:0:0:0:
252,199,69652,5,2,0:0:0:0:
252,199,69982,1,2,0:0:0:0:
484,334,70311,2,0,L|272:328,1,192,2|2,0:0|0:0,0:0:0:0:
46,159,70971,2,0,L|143:147,1,96,2|2,0:0|0:0,0:0:0:0:
392,69,71465,2,0,L|178:69,2,192,2|2|0,0:0|0:0|0:0,0:0:0:0:
251,197,72289,5,2,0:0:0:0:
251,197,72619,1,2,0:0:0:0:
486,223,72949,1,2,0:0:0:0:
486,223,73278,1,2,0:0:0:0:
218,340,73608,2,0,L|104:344,1,96,2|2,0:0|0:0,0:0:0:0:
381,322,74102,2,0,L|384:109,2,192,2|2|0,0:0|0:0|0:0,0:0:0:0:
237,271,74927,5,2,0:0:0:0:
237,271,75256,1,2,0:0:0:0:
15,146,75586,2,0,L|218:104,1,192,2|2,0:0|0:0,0:0:0:0:
465,122,76245,5,2,0:0:0:0:
174,336,76740,2,0,L|466:286,1,288,2|2,0:0|0:0,0:0:0:0:
201,191,77564,6,0,L|-2:167,2,192,2|2|2,0:0|0:0|0:0,0:0:0:0:
409,173,78553,1,2,0:0:0:0:
173,341,78883,1,2,0:0:0:0:
171,245,79047,1,2,0:0:0:0:
170,149,79212,1,2,0:0:0:0:
433,239,79542,2,0,L|461:26,1,192,2|2,0:0|0:0,0:0:0:0:
31,73,80201,5,0,0:0:0:0:
31,73,80366,1,0,0:0:0:0:
31,73,80531,1,0,0:0:0:0:
254,129,80861,1,0,0:0:0:0:
27,220,81190,2,0,L|138:226,1,96,0|0,0:0|0:0,0:0:0:0:
283,224,81520,5,2,3:0:0:0:
283,224,81685,1,0,0:0:0:0:
283,224,82015,1,0,0:0:0:0:
283,224,82344,1,0,0:0:0:0:
185,269,82509,1,0,0:0:0:0:
306,328,82674,1,0,0:0:0:0:
441,348,82839,6,0,L|452:164,1,144,0|0,0:0|0:0,0:0:0:0:
251,144,83333,2,0,L|416:106,1,144,0|0,0:0|0:0,0:0:0:0:
203,64,83828,1,0,0:0:0:0:
445,29,84157,6,0,L|445:199,1,144,2|0,3:0|0:0,0:0:0:0:
253,173,84652,2,0,L|244:341,1,144,0|0,0:0|0:0,0:0:0:0:
53,357,85146,1,0,0:0:0:0:
304,366,85476,5,2,0:0:0:0:
304,366,85641,1,0,0:0:0:0:
304,366,85806,1,2,0:0:0:0:
100,342,86135,1,2,0:0:0:0:
316,289,86465,2,0,L|206:265,1,96,2|0,0:0|0:0,0:0:0:0:
59,256,86795,5,2,0:0:0:0:
59,256,86960,1,0,0:0:0:0:
59,256,87124,1,2,0:0:0:0:
181,231,87289,1,0,0:0:0:0:
181,231,87454,1,2,0:0:0:0:
310,202,87619,1,0,0:0:0:0:
180,158,87784,1,2,0:0:0:0:
311,132,87949,1,0,0:0:0:0:
85,232,88113,6,0,L|71:14,1,192,2|2,0:0|0:0,0:0:0:0:
223,109,88608,2,0,L|25:141,1,192,0|0,0:0|0:0,0:0:0:0:
195,211,89102,2,0,L|410:222,1,192,2|6,0:0|0:0,0:0:0:0:
139,340,89597,6,0,P|125:275|226:212,1,192,2|0,0:0|0:0,0:0:0:0:
366,155,90091,2,0,L|301:130,1,48,2|0,0:0|0:0,0:0:0:0:
261,130,90256,1,2,0:0:0:0:
125,55,90421,2,0,L|232:43,1,96,2|2,0:0|0:0,0:0:0:0:
461,174,90751,5,6,0:0:0:0:
243,235,90916,1,6,0:0:0:0:
462,275,91081,1,6,0:0:0:0:
249,337,91410,1,6,0:0:0:0:
35,331,91740,1,6,0:0:0:0:
282,247,91905,5,6,0:0:0:0:
273,164,92234,2,0,L|208:172,1,48,0|0,0:0|0:0,0:0:0:0:
287,156,92399,1,0,0:0:0:0:
314,154,92440,1,0,0:0:0:0:
335,139,92481,1,0,0:0:0:0:
342,116,92522,1,0,0:0:0:0:
333,94,92563,1,0,0:0:0:0:
280,79,92646,1,0,0:0:0:0:
212,73,92729,6,0,L|205:146,1,48,0|0,0:0|0:0,0:0:0:0:
276,144,92894,2,0,L|285:198,1,48,0|0,0:0|0:0,0:0:0:0:
210,214,93059,2,0,L|148:224,1,48,0|0,0:0|0:0,0:0:0:0:
233,246,93223,2,0,L|321:257,1,48,0|0,0:0|0:0,0:0:0:0:
85,332,93388,6,0,L|70:200,1,96,6|6,0:0|0:0,0:0:0:0:
316,210,93718,1,6,0:0:0:0:
73,155,94048,1,6,0:0:0:0:
317,126,94377,1,6,0:0:0:0:
50,69,94542,5,6,0:0:0:0:
46,164,94872,2,0,L|112:168,1,48,0|0,0:0|0:0,0:0:0:0:
160,216,95037,2,0,L|98:219,1,48,0|0,0:0|0:0,0:0:0:0:
42,269,95201,2,0,L|109:274,1,48,0|0,0:0|0:0,0:0:0:0:
277,342,95366,2,0,L|288:272,1,48,0|0,0:0|0:0,0:0:0:0:
102,363,95531,2,0,L|88:298,1,48,0|0,0:0|0:0,0:0:0:0:
285,261,95696,2,0,L|292:202,1,48,0|0,0:0|0:0,0:0:0:0:
217,210,95861,2,0,L|208:146,1,48,0|0,0:0|0:0,0:0:0:0:
403,104,96026,6,0,L|520:82,1,96,6|6,0:0|0:0,0:0:0:0:
256,54,96355,1,6,0:0:0:0:
499,88,96685,1,6,0:0:0:0:
244,215,97015,2,0,L|112:209,1,96,6|6,0:0|0:0,0:0:0:0:
417,166,97344,6,0,L|427:268,1,96,2|2,0:0|0:0,0:0:0:0:
374,277,97591,1,2,0:0:0:0:
191,350,97674,1,2,0:0:0:0:
306,302,97839,2,0,L|238:306,1,48,2|2,0:0|0:0,0:0:0:0:
315,279,98004,2,0,L|255:277,1,48,2|2,0:0|0:0,0:0:0:0:
90,234,98168,1,2,0:0:0:0:
195,182,98333,2,0,L|242:184,1,48,2|0,0:0|0:0,0:0:0:0:
186,159,98498,2,0,L|233:157,1,48,2|2,0:0|0:0,0:0:0:0:
435,157,98663,5,2,0:0:0:0:
435,157,98828,1,2,0:0:0:0:
435,157,98993,1,2,0:0:0:0:
234,76,99322,1,2,0:0:0:0:
30,82,99652,1,2,0:0:0:0:
292,187,99817,5,2,0:0:0:0:
292,187,100146,1,2,0:0:0:0:
152,258,100311,2,0,L|263:269,1,96,10|2,0:0|0:0,0:0:0:0:
297,273,100559,1,2,0:0:0:0:
232,301,100641,2,0,L|292:299,1,48,2|2,0:0|0:0,0:0:0:0:
461,341,100806,5,10,0:0:0:0:
340,358,100971,1,2,0:0:0:0:
461,341,101135,1,2,0:0:0:0:
191,215,101300,6,0,L|75:208,1,96,8|0,0:0|0:0,0:0:0:0:
239,137,101630,2,0,L|448:120,2,192,8|8|8,0:0|0:0|0:0,0:0:0:0:
477,258,102619,5,8,0:0:0:0:
276,297,102949,1,8,0:0:0:0:
63,309,103278,1,8,0:0:0:0:
288,349,103608,1,8,0:0:0:0:
168,201,103773,2,0,L|215:201,1,48,8|8,0:0|0:0,0:0:0:0:
395,93,103938,6,0,L|179:65,3,192,8|8|8|8,0:0|0:0|0:0|0:0,0:0:0:0:
457,194,105256,5,8,0:0:0:0:
238,233,105586,1,8,0:0:0:0:
15,277,105916,1,8,0:0:0:0:
259,344,106245,2,0,L|379:324,1,96,8|8,0:0|0:0,0:0:0:0:
298,307,106493,1,8,0:0:0:0:
125,184,106575,5,8,0:0:0:0:
19,166,106740,1,8,0:0:0:0:
168,120,106905,1,8,0:0:0:0:
44,91,107070,1,8,0:0:0:0:
208,58,107234,1,8,0:0:0:0:
77,27,107399,1,8,0:0:0:0:
301,130,107564,1,8,0:0:0:0:
164,200,107729,2,0,L|219:203,1,48,8|8,0:0|0:0,0:0:0:0:
386,189,107894,5,8,0:0:0:0:
492,207,108059,1,8,0:0:0:0:
343,253,108224,1,8,0:0:0:0:
467,282,108389,1,8,0:0:0:0:
303,315,108553,1,8,0:0:0:0:
434,346,108718,1,8,0:0:0:0:
215,251,108883,1,8,0:0:0:0:
441,233,109048,2,0,L|354:233,1,48,8|8,0:0|0:0,0:0:0:0:
201,178,109212,6,0,L|198:115,1,48,10|10,0:0|0:0,0:0:0:0:
268,128,109377,2,0,L|279:67,1,48,10|10,0:0|0:0,0:0:0:0:
111,109,109542,2,0,L|133:53,1,48,10|10,0:0|0:0,0:0:0:0:
201,65,109707,2,0,L|238:33,1,48,10|10,0:0|0:0,0:0:0:0:
49,211,109872,2,0,L|92:177,1,48,10|10,0:0|0:0,0:0:0:0:
259,179,110037,2,0,L|314:175,1,48,10|10,0:0|0:0,0:0:0:0:
113,301,110201,6,0,L|-6:308,1,96,2|0,0:0|0:0,0:0:0:0:
267,355,110531,2,0,L|306:346,1,24,0|0,0:0|0:0,0:0:0:0:
323,264,110861,2,0,L|255:255,1,48,2|2,0:0|0:0,0:0:0:0:
81,190,111026,1,2,0:0:0:0:
37,113,111190,2,0,L|94:96,1,48,2|2,0:0|0:0,0:0:0:0:
281,91,111355,1,2,0:0:0:0:
16,292,111520,6,0,L|135:287,1,96,8|0,0:3|0:0,0:0:0:0:
394,207,111850,6,0,L|252:192,1,115.199996484375,2|0,0:0|0:0,0:0:0:0:
221,191,112097,1,0,0:0:0:0:
423,106,112179,2,0,L|433:239,1,115.199996484375,8|0,0:3|0:0,0:0:0:0:
283,289,112509,2,0,L|361:319,1,57.5999982421876,2|0,0:0|0:0,0:0:0:0:
406,309,112674,1,0,0:0:0:0:
179,357,112839,1,8,0:3:0:0:
415,358,113004,2,0,L|264:324,1,115.199996484375,0|2,0:0|0:0,0:0:0:0:
357,315,113251,1,0,0:0:0:0:
166,261,113333,2,0,L|34:244,1,115.199996484375,0|8,0:0|0:3,0:0:0:0:
299,229,113663,6,0,L|299:106,1,115.199996484375,0|2,0:0|0:0,0:0:0:0:
233,92,113910,1,0,0:0:0:0:
161,88,113993,1,0,0:0:0:0:
394,56,114157,1,8,0:3:0:0:
152,23,114322,1,0,0:0:0:0:
413,164,114487,6,0,L|420:300,1,115.199996484375,2|0,0:0|0:0,0:0:0:0:
358,300,114734,1,0,0:0:0:0:
169,340,114817,1,8,0:3:0:0:
285,289,114982,2,0,L|408:272,1,115.199996484375,0|2,0:0|0:0,0:0:0:0:
155,202,115311,2,0,L|28:195,1,115.199996484375,0|8,0:0|0:3,0:0:0:0:
262,151,115641,1,0,0:0:0:0:
34,115,115806,2,0,L|57:234,1,115.199996484375,2|0,0:0|0:0,0:0:0:0:
118,257,116053,1,0,0:0:0:0:
189,269,116135,1,8,0:3:0:0:
431,109,116300,6,0,L|288:98,1,115.199996484375,0|2,0:0|0:0,0:0:0:0:
377,151,116548,1,0,0:0:0:0:
455,161,116630,1,0,0:0:0:0:
223,250,116795,1,8,0:3:0:0:
460,267,116960,1,0,0:0:0:0:
201,353,117124,6,0,L|190:225,1,115.199996484375,2|0,0:0|0:0,0:0:0:0:
335,236,117454,1,8,0:3:0:0:
91,156,117619,2,0,L|217:128,1,115.199996484375,0|2,0:0|0:0,0:0:0:0:
261,124,117866,1,0,0:0:0:0:
446,44,117949,2,0,L|370:21,1,57.5999982421876,0|0,0:0|0:0,0:0:0:0:
328,33,118113,1,8,0:3:0:0:
471,136,118278,1,0,0:0:0:0:
221,291,118443,6,0,L|144:282,1,57.5999982421876,2|0,0:0|0:0,0:0:0:0:
348,292,118608,2,0,L|485:296,1,115.199996484375,0|8,0:0|0:3,0:0:0:0:
208,204,118938,1,0,0:0:0:0:
349,194,119102,1,2,0:0:0:0:
111,137,119267,1,2,0:0:0:0:
352,102,119432,1,8,0:3:0:0:
101,54,119597,2,0,L|181:42,1,57.5999982421876,2|0,0:0|0:0,0:0:0:0:
370,125,119762,6,0,L|190:179,1,144,12|0,0:0|0:0,0:0:0:0:
406,221,120091,2,0,L|409:291,1,48,2|0,0:0|0:0,0:0:0:0:
221,338,120256,2,0,L|380:319,1,144,12|0,0:0|0:0,0:0:0:0:
154,261,120586,2,0,L|76:250,1,48,2|0,0:0|0:0,0:0:0:0:
299,227,120751,2,0,P|314:166|241:128,1,144,12|0,0:0|0:0,0:0:0:0:
432,80,121081,2,0,L|494:79,1,48,2|0,0:0|0:0,0:0:0:0:
263,300,121245,6,0,P|240:239|323:209,1,144,12|0,0:0|0:0,0:0:0:0:
102,172,121575,2,0,L|37:163,1,48,2|0,0:0|0:0,0:0:0:0:
246,110,121740,6,0,L|314:102,1,48,2|0,0:0|0:0,0:0:0:0:
117,69,121905,1,2,0:0:0:0:
369,208,122070,2,0,L|506:217,1,96,2|2,0:0|0:0,0:0:0:0:
178,337,122399,6,0,L|180:196,1,115.199996484375,2|0,0:0|0:0,0:0:0:0:
241,214,122646,1,0,0:0:0:0:
42,86,122729,2,0,L|32:219,1,115.199996484375,8|0,0:3|0:0,0:0:0:0:
276,294,123058,2,0,L|198:324,1,57.5999982421876,2|0,0:0|0:0,0:0:0:0:
153,314,123223,1,0,0:0:0:0:
404,350,123388,1,8,0:3:0:0:
153,314,123553,6,0,L|28:300,1,115.199996484375,0|2,0:0|0:0,0:0:0:0:
105,272,123800,1,0,0:0:0:0:
323,191,123883,2,0,L|191:174,1,115.199996484375,0|8,0:0|0:3,0:0:0:0:
269,151,124130,1,0,0:0:0:0:
476,204,124212,6,0,L|476:81,1,115.199996484375,0|2,0:0|0:0,0:0:0:0:
409,49,124459,1,0,0:0:0:0:
332,40,124542,1,0,0:0:0:0:
96,60,124706,1,8,0:3:0:0:
332,40,124871,1,0,0:0:0:0:
81,196,125036,6,0,L|199:209,1,115.199996484375,2|0,0:0|0:0,0:0:0:0:
376,333,125284,2,0,L|245:342,1,115.199996484375,0|0,0:0|0:0,0:0:0:0:
465,317,125531,6,0,L|475:188,1,115.199996484375,0|2,0:0|0:0,0:0:0:0:
323,226,125861,2,0,L|316:112,1,115.199996484375,0|8,0:0|0:3,0:0:0:0:
161,77,126190,1,0,0:0:0:0:
435,32,126355,2,0,L|412:151,1,115.199996484375,2|0,0:0|0:0,0:0:0:0:
351,174,126602,1,0,0:0:0:0:
280,186,126684,1,8,0:3:0:0:
14,70,126850,6,0,L|157:59,1,115.199996484375,0|2,0:0|0:0,0:0:0:0:
200,81,127097,1,0,0:0:0:0:
281,89,127179,1,0,0:0:0:0:
45,205,127344,1,8,0:3:0:0:
284,292,127509,1,0,0:0:0:0:
33,356,127674,6,0,L|34:229,1,115.199996484375,2|0,0:0|0:0,0:0:0:0:
103,224,127921,1,0,0:0:0:0:
298,186,128004,2,0,L|155:184,1,115.199996484375,8|0,0:3|0:0,0:0:0:0:
245,159,128251,1,0,0:0:0:0:
443,210,128333,1,2,0:0:0:0:
465,159,128415,1,0,0:0:0:0:
439,110,128497,1,0,0:0:0:0:
384,101,128580,1,0,0:0:0:0:
194,102,128663,2,0,L|190:39,1,57.5999982421876,8|0,0:3|0:0,0:0:0:0:
381,31,128828,6,0,L|321:60,1,57.5999982421876,0|0,0:0|0:0,0:0:0:0:
257,77,128993,2,0,L|351:94,1,57.5999982421876,2|0,0:0|0:0,0:0:0:0:
132,153,129157,2,0,L|137:234,1,57.5999982421876,0|0,0:0|0:0,0:0:0:0:
202,230,129322,2,0,L|269:234,1,57.5999982421876,8|0,0:3|0:0,0:0:0:0:
57,243,129487,5,0,0:0:0:0:
34,293,129569,1,0,0:0:0:0:
60,342,129651,1,2,0:0:0:0:
115,351,129734,1,0,0:0:0:0:
267,350,129817,1,2,0:0:0:0:
422,344,129899,1,0,0:0:0:0:
259,266,129982,6,0,L|191:261,1,57.5999982421876,8|0,0:3|0:0,0:0:0:0:
414,180,130146,2,0,L|490:169,1,57.5999982421876,2|0,0:0|0:0,0:0:0:0:
259,131,130311,6,0,L|121:122,1,115.199996484375,12|0,0:0|0:0,0:0:0:0:
340,47,130559,2,0,L|465:35,1,115.199996484375,12|0,0:0|0:0,0:0:0:0:
275,138,130806,2,0,L|271:273,1,115.199996484375,12|0,0:0|0:0,0:0:0:0:
87,321,131053,2,0,L|214:314,1,115.199996484375,12|0,0:0|0:0,0:0:0:0:
25,251,131300,6,0,L|21:124,1,115.199996484375,12|0,0:0|0:0,0:0:0:0:
209,82,131548,2,0,L|87:65,1,115.199996484375,12|0,0:0|0:0,0:0:0:0:
279,156,131795,2,0,L|447:138,1,115.199996484375,12|0,0:0|0:0,0:0:0:0:
225,238,132042,1,14,0:0:0:0:
55,310,132124,2,0,L|189:322,1,115.199996484375,14|2,0:0|0:0,0:0:0:0:
230,331,132372,1,0,0:0:0:0:
431,329,132454,5,2,0:0:0:0:
190,215,132619,1,2,0:0:0:0:
452,181,132784,1,2,0:0:0:0:
184,119,132949,5,10,0:0:0:0:
324,100,133113,1,2,0:0:0:0:
56,48,133278,1,10,0:0:0:0:
199,27,133443,1,2,0:0:0:0:
460,255,133608,1,10,0:0:0:0:
312,240,133773,1,2,0:0:0:0:
51,310,133938,1,10,0:0:0:0:
320,356,134102,5,10,0:0:0:0:
