osu file format v14

[General]
AudioFilename: beatmap-637391320758084451-audio.mp3
AudioLeadIn: 0
PreviewTime: 111850
Countdown: 0
SampleSet: Soft
StackLeniency: 0.7
Mode: 2
LetterboxInBreaks: 0
WidescreenStoryboard: 1

[Editor]
Bookmarks: 6355,16905,27454,38004,48553,59102,69652,80201,90751,101300,106575,111850,117124,127674,132949,134267,135916
DistanceSpacing: 0.8
BeatDivisor: 4
GridSize: 16
TimelineZoom: 2.199999

[Metadata]
Title:Platinum
TitleUnicode:Platinum
Artist:jioyi
ArtistUnicode:jioyi
Creator:-MomoX
Version:Cup
Source:VOEZ
Tags:AJamez Jemzuu CWC2021 SF NM Semi finals no mod Electronic Instrumental Video Game edm Trancecore Drumstep Bass Wobble Freeform Official Soundtrack Vol. 1
BeatmapID:3007088
BeatmapSetID:1463966

[Difficulty]
HPDrainRate:3
CircleSize:2
OverallDifficulty:6
ApproachRate:6
SliderMultiplier:1.29
SliderTickRate:1

[Events]
//Background and Video events
0,0,"Platinum-cropped.png",0,0
//Break Periods
2,59302,68602
//Storyboard Layer 0 (Background)
//Storyboard Layer 1 (Fail)
//Storyboard Layer 2 (Pass)
//Storyboard Layer 3 (Foreground)
//Storyboard Layer 4 (Overlay)
//Storyboard Sound Samples

[TimingPoints]
1081,329.67032967033,4,2,1,60,1,0
11630,-100,4,2,1,60,0,0
16905,-100,4,2,1,50,0,0
17317,-100,4,2,1,50,0,0
17564,-100,4,2,1,50,0,0
17894,-100,4,2,1,50,0,0
18223,-100,4,2,1,50,0,0
18553,-100,4,2,1,50,0,0
18883,-100,4,2,98,50,0,0
18924,-100,4,2,1,50,0,0
18965,-100,4,2,1,5,0,0
19048,-100,4,2,98,50,0,0
19089,-100,4,2,1,50,0,0
19212,-100,4,2,98,50,0,0
19254,-100,4,2,1,50,0,0
19542,-100,4,2,1,50,0,0
20861,-100,4,2,1,50,0,0
22179,-100,4,2,1,50,0,0
24817,-100,4,2,1,50,0,0
27454,-100,4,2,1,50,0,0
32729,-100,4,2,1,50,0,0
36685,-100,4,2,1,50,0,0
38004,-100,4,2,1,75,0,1
47234,-100,4,2,1,75,0,0
48883,-100,4,2,1,75,0,1
57784,-100,4,2,1,75,0,0
59102,-100,4,2,1,75,0,0
69652,-100,4,2,3,35,0,0
70311,-100,4,2,97,35,0,0
70394,-100,4,2,3,35,0,0
72949,-100,4,2,97,35,0,0
73032,-100,4,2,3,35,0,0
75586,-100,4,2,97,35,0,0
75669,-100,4,2,3,35,0,0
76740,-100,4,2,97,35,0,0
76823,-100,4,2,3,35,0,0
78223,-100,4,2,97,35,0,0
78306,-100,4,2,3,35,0,0
79542,-100,4,2,97,35,0,0
79625,-100,4,2,3,35,0,0
79872,-100,4,2,97,35,0,0
79955,-100,4,2,3,35,0,0
80201,-100,4,2,1,35,0,0
85476,-100,4,2,1,45,0,0
90751,-100,4,2,1,75,0,0
110201,-100,4,2,1,75,0,0
111850,-100,4,2,1,75,0,1
119762,-100,4,2,1,75,0,0
122399,-100,4,2,1,75,0,1
130311,-100,4,2,1,75,0,0
132289,-100,4,2,1,75,0,0
134267,-100,4,2,1,75,0,0

[Colours]
Combo1 : 228,228,203
Combo2 : 229,228,226
Combo3 : 249,235,204
Combo4 : 183,187,168

[HitObjects]
261,126,1081,5,0,0:0:0:0:
402,110,1410,2,0,P|427:222|288:279,1,258,0|0,1:0|0:0,0:0:0:0:
177,98,2399,5,0,0:0:0:0:
35,122,2729,2,0,P|32:205|186:291,1,258,0|0,1:0|0:0,0:0:0:0:
308,295,3718,5,0,0:0:0:0:
451,280,4048,2,0,P|468:192|327:109,1,258,0|0,1:0|0:0,0:0:0:0:
202,72,5037,6,0,P|70:148|230:240,1,387,0|0,0:0|0:0,0:0:0:0:
361,63,6355,6,0,P|388:194|187:317,1,387,8|8,0:0|0:0,0:0:0:0:
47,84,7674,6,0,P|57:260|242:337,1,387,8|8,0:0|0:0,0:0:0:0:
387,40,8993,6,0,P|439:134|256:277,1,387,8|8,0:0|0:0,0:0:0:0:
102,47,10311,6,0,P|48:107|232:256,1,387,8|8,0:0|0:0,0:0:0:0:
376,220,11630,6,0,P|438:158|363:103,1,193.5,8|8,0:0|0:0,0:0:0:0:
297,104,12289,2,0,L|83:104,1,193.5,8|8,0:0|0:0,0:0:0:0:
181,174,12949,6,0,L|395:174,1,193.5,8|8,0:0|0:0,0:0:0:0:
297,104,13608,2,0,L|83:104,1,193.5,8|8,0:0|0:0,0:0:0:0:
181,46,14267,6,0,P|403:137|300:331,1,516,8|2,0:0|0:0,0:0:0:0:
302,330,15916,6,0,L|174:330,2,129,2|2|8,0:0|0:0|0:3,0:0:0:0:
147,93,16905,6,0,P|65:192|151:240,1,258,2|2,0:0|0:0,0:0:0:0:
276,250,17894,1,2,0:0:0:0:
112,146,18223,6,0,L|111:291,1,129,2|2,0:0|0:0,0:0:0:0:
239,197,18883,2,0,L|85:193,1,129,2|2,0:0|0:0,0:0:0:0:
265,90,19542,6,0,P|364:130|272:246,1,258,2|10,0:0|0:0,0:0:0:0:
186,225,20531,1,2,0:0:0:0:
315,195,20861,5,2,0:0:0:0:
185,148,21190,2,0,L|50:155,2,129,2|2|2,0:0|0:0|0:0,0:0:0:0:
341,117,22179,6,0,L|340:264,1,129,2|8,0:0|0:0,0:0:0:0:
212,209,22839,2,0,L|62:209,1,129,0|8,0:0|0:0,0:0:0:0:
239,78,23498,6,0,L|240:225,1,129,2|8,0:0|0:0,0:0:0:0:
111,163,24157,1,0,0:0:0:0:
175,163,24322,1,2,0:0:0:0:
240,163,24487,1,8,0:0:0:0:
395,39,24817,6,0,P|405:286|63:335,1,645,8|8,0:0|0:0,0:0:0:0:
215,187,26795,2,0,L|367:187,1,129,10|10,0:0|0:0,0:0:0:0:
202,100,27454,6,0,L|200:237,1,129,2|2,0:0|0:0,0:0:0:0:
334,174,28113,2,0,L|486:174,1,129,2|2,0:0|0:0,0:0:0:0:
333,257,28773,6,0,L|181:257,1,129,2|2,0:0|0:0,0:0:0:0:
357,72,29432,2,0,P|379:125|324:168,1,129,2|2,0:0|0:0,0:0:0:0:
177,166,30091,6,0,L|40:166,1,129,2|2,0:0|0:0,0:0:0:0:
177,166,30751,2,0,L|314:166,1,129,2|2,0:0|0:0,0:0:0:0:
179,183,31410,6,0,L|179:19,1,129,2|2,0:0|0:0,0:0:0:0:
307,97,32070,2,0,L|443:96,1,129,2|2,0:0|0:0,0:0:0:0:
281,248,32729,6,0,L|281:109,1,129,2|2,0:0|0:0,0:0:0:0:
410,158,33388,2,0,L|409:12,1,129,2|2,0:0|0:0,0:0:0:0:
254,131,34048,6,0,L|110:131,1,129,2|2,0:0|0:0,0:0:0:0:
254,131,34707,2,0,L|253:280,1,129,2|2,0:0|0:0,0:0:0:0:
96,217,35366,6,0,L|227:217,1,129,2|2,0:0|0:0,0:0:0:0:
357,180,36026,2,0,L|355:324,1,129,2|2,0:0|0:0,0:0:0:0:
201,77,36685,6,0,P|125:182|302:315,1,387,2|8,0:0|0:3,0:0:0:0:
443,117,38004,6,0,L|441:253,1,129,2|8,1:0|1:0,0:0:0:0:
312,219,38663,2,0,L|181:219,1,129,2|8,1:0|1:0,0:0:0:0:
338,110,39322,6,0,L|484:110,1,129,2|8,1:0|0:0,0:0:0:0:
338,110,39982,2,0,L|192:110,1,129,2|8,0:0|1:0,0:0:0:0:
337,194,40641,6,0,L|337:334,1,129,2|8,1:0|1:0,0:0:0:0:
208,291,41300,2,0,L|63:291,1,129,2|8,1:0|1:0,0:0:0:0:
235,60,41960,6,0,L|233:237,1,129,2|8,1:0|0:0,0:0:0:0:
106,144,42619,2,0,L|235:144,1,129,2|8,0:0|1:0,0:0:0:0:
79,221,43278,6,0,L|79:388,1,129,2|8,1:0|1:0,0:0:0:0:
210,254,43938,2,0,L|356:253,1,129,2|8,1:0|1:0,0:0:0:0:
208,95,44597,6,0,L|208:257,1,129,2|8,1:0|0:0,0:0:0:0:
338,180,45256,2,0,L|472:180,1,129,2|8,0:0|1:0,0:0:0:0:
312,44,45916,6,0,P|117:151|127:291,1,387,2|8,1:0|1:0,0:0:0:0:
282,303,47234,6,0,L|471:264,2,193.5,8|8|8,1:0|1:0|1:0,0:0:0:0:
65,134,48883,5,8,1:0:0:0:
195,135,49212,2,0,L|347:135,1,129,2|8,1:0|1:0,0:0:0:0:
168,234,49872,6,0,L|28:234,1,129,2|8,1:0|0:0,0:0:0:0:
168,234,50531,2,0,L|308:234,1,129,2|8,0:0|1:0,0:0:0:0:
168,65,51190,6,0,L|168:220,1,129,2|8,1:0|1:0,0:0:0:0:
300,150,51850,2,0,L|457:150,1,129,2|8,1:0|1:0,0:0:0:0:
274,256,52509,6,0,L|274:87,1,129,2|8,1:0|0:0,0:0:0:0:
405,66,53168,2,0,L|405:226,1,129,2|8,0:0|1:0,0:0:0:0:
248,142,53828,6,0,L|97:142,1,129,2|8,1:0|1:0,0:0:0:0:
248,142,54487,2,0,L|399:142,1,129,2|8,1:0|1:0,0:0:0:0:
221,222,55146,6,0,L|222:369,1,129,2|8,1:0|0:0,0:0:0:0:
350,223,55806,2,0,L|218:222,1,129,2|8,0:0|1:0,0:0:0:0:
376,45,56465,6,0,P|435:151|263:328,1,387,2|8,0:0|0:0,0:0:0:0:
128,110,57784,6,0,L|313:246,2,193.5,6|6|8,0:0|0:0|0:0,0:0:0:0:
283,81,59102,5,0,0:0:0:0:
267,91,69652,5,2,0:0:0:0:
267,91,69982,2,0,P|129:183|148:251,1,258,2|2,0:0|0:0,0:0:0:0:
273,273,70971,5,2,0:0:0:0:
273,273,71465,2,0,L|72:257,1,193.5,2|2,0:0|0:0,0:0:0:0:
80,254,72289,5,2,0:0:0:0:
209,42,72619,2,0,P|306:81|284:240,1,258,2|2,0:0|0:0,0:0:0:0:
177,262,73608,5,2,0:0:0:0:
177,262,74102,2,0,L|378:246,1,193.5,2|2,0:0|0:0,0:0:0:0:
369,246,74927,5,2,0:0:0:0:
241,44,75256,2,0,P|161:146|266:177,1,258,2|2,0:0|0:0,0:0:0:0:
371,176,76245,5,2,0:0:0:0:
371,176,76740,2,0,L|146:169,1,193.5,2|2,0:0|0:0,0:0:0:0:
177,169,77564,5,2,0:0:0:0:
256,192,77894,12,2,79872,0:0:0:0:
298,108,80201,6,0,P|376:162|276:266,1,258,0|0,0:0|0:0,0:0:0:0:
122,134,81355,6,0,P|108:240|266:288,1,258,0|0,0:0|0:0,0:0:0:0:
357,144,82344,2,0,L|357:240,1,64.5,0|0,0:0|0:0,0:0:0:0:
228,71,82839,6,0,P|124:120|235:305,1,387,0|0,0:0|0:0,0:0:0:0:
359,42,84157,6,0,P|379:160|188:309,1,387,2|0,3:0|0:0,0:0:0:0:
318,128,85476,6,0,L|318:287,1,129,2|2,0:0|0:0,0:0:0:0:
189,83,86135,2,0,L|189:242,1,129,2|2,0:0|0:0,0:0:0:0:
344,209,86795,6,0,L|480:209,1,129,2|2,0:0|0:0,0:0:0:0:
318,146,87454,2,0,L|182:146,1,129,2|2,0:0|0:0,0:0:0:0:
320,289,88113,6,0,P|385:231|319:175,1,193.5,2|0,0:0|0:0,0:0:0:0:
192,155,88938,2,0,L|192:239,1,64.5,0|2,0:0|0:0,0:0:0:0:
322,124,89432,6,0,L|389:214,1,64.5,6|2,0:0|0:0,0:0:0:0:
167,182,90091,2,0,L|10:182,1,129,2|2,0:0|0:0,0:0:0:0:
194,115,90751,6,0,L|361:116,1,129,6|6,0:0|0:0,0:0:0:0:
194,115,91410,2,0,L|195:291,1,129,6|6,0:0|0:0,0:0:0:0:
260,196,91905,1,6,0:0:0:0:
389,140,92234,6,0,P|441:196|295:329,1,322.5,0|0,0:0|0:0,0:0:0:0:
151,137,93388,6,0,L|150:295,1,129,6|6,0:0|0:0,0:0:0:0:
279,254,94048,2,0,L|422:253,1,129,6|6,0:0|0:0,0:0:0:0:
407,253,94542,1,6,0:0:0:0:
275,57,94872,6,0,P|162:79|189:282,1,322.5,0|0,0:0|0:0,0:0:0:0:
309,257,96026,6,0,L|441:257,1,129,6|6,0:0|0:0,0:0:0:0:
308,168,96685,2,0,L|176:168,1,129,6|6,0:0|0:0,0:0:0:0:
244,97,97179,1,6,0:0:0:0:
309,59,97344,6,0,L|495:116,2,193.5,2|2|2,0:0|0:0|0:0,0:0:0:0:
154,102,98663,5,2,0:0:0:0:
269,173,98993,1,2,0:0:0:0:
154,102,99322,1,2,0:0:0:0:
39,176,99652,1,2,0:0:0:0:
39,176,99817,1,2,0:0:0:0:
168,184,100146,5,2,0:0:0:0:
232,172,100311,2,0,P|254:249|163:300,1,193.5,10|10,0:0|0:0,0:0:0:0:
104,284,100971,1,2,0:0:0:0:
259,82,101300,6,0,L|261:242,1,129,8|8,0:0|0:0,0:0:0:0:
129,139,101960,2,0,L|127:299,1,129,8|8,0:0|0:0,0:0:0:0:
258,311,102619,6,0,L|256:151,1,129,8|8,0:0|0:0,0:0:0:0:
388,254,103279,2,0,L|390:94,1,129,8|8,0:0|0:0,0:0:0:0:
235,89,103938,6,0,L|88:89,1,129,8|8,0:0|0:0,0:0:0:0:
235,186,104597,2,0,L|382:186,1,129,8|8,0:0|0:0,0:0:0:0:
236,313,105256,6,0,L|236:184,1,129,8|8,0:0|0:0,0:0:0:0:
364,186,105916,2,0,L|364:57,1,129,8|8,0:0|0:0,0:0:0:0:
208,31,106575,5,8,0:0:0:0:
197,146,106904,1,8,0:0:0:0:
265,250,107234,1,8,0:0:0:0:
390,264,107564,1,8,0:0:0:0:
235,80,107894,5,8,0:0:0:0:
127,139,108223,1,8,0:0:0:0:
131,261,108553,1,8,0:0:0:0:
243,313,108883,1,8,0:0:0:0:
397,102,109212,6,0,P|448:184|245:343,1,387,10|2,0:0|0:0,0:0:0:0:
121,184,110531,5,0,0:0:0:0:
254,183,110861,2,0,P|262:264|207:276,1,129,2|2,0:0|0:0,0:0:0:0:
102,253,111520,1,8,0:3:0:0:
256,122,111850,6,0,L|407:121,1,129,2|8,0:0|0:3,0:0:0:0:
255,211,112509,2,0,L|107:211,1,129,2|8,0:0|0:3,0:0:0:0:
281,109,113168,6,0,L|281:272,1,129,2|8,0:0|0:3,0:0:0:0:
152,243,113828,2,0,L|23:242,1,129,2|8,0:0|0:3,0:0:0:0:
177,84,114487,6,0,L|321:84,1,129,2|8,0:0|0:3,0:0:0:0:
179,84,115146,2,0,L|179:248,1,129,2|8,0:0|0:3,0:0:0:0:
335,168,115806,6,0,L|479:168,1,129,2|8,0:0|0:3,0:0:0:0:
337,168,116465,2,0,L|161:168,1,129,2|8,0:0|0:3,0:0:0:0:
363,300,117124,6,0,L|364:124,1,129,2|8,0:0|0:3,0:0:0:0:
232,215,117784,2,0,L|86:211,1,129,2|8,0:0|0:3,0:0:0:0:
259,188,118443,6,0,L|259:28,1,129,2|8,0:0|0:3,0:0:0:0:
126,238,119102,2,0,L|127:80,1,129,2|8,0:0|0:3,0:0:0:0:
283,146,119762,6,0,L|452:269,3,193.5,12|12|12|12,0:0|0:0|0:0|0:0,0:0:0:0:
206,156,121740,2,0,L|205:328,1,129,2|2,0:0|0:0,0:0:0:0:
361,272,122399,6,0,L|494:271,1,129,2|8,0:0|0:3,0:0:0:0:
361,272,123059,2,0,L|212:270,1,129,2|8,0:0|0:3,0:0:0:0:
387,118,123718,6,0,L|387:295,1,129,2|8,0:0|0:3,0:0:0:0:
259,211,124377,2,0,L|408:206,1,129,2|8,0:0|0:3,0:0:0:0:
232,73,125037,6,0,L|231:244,1,129,2|8,0:0|0:3,0:0:0:0:
360,173,125696,2,0,L|492:172,1,129,2|8,0:0|0:3,0:0:0:0:
336,260,126355,6,0,L|176:260,1,129,2|8,0:0|0:3,0:0:0:0:
336,141,127015,2,0,P|351:216|296:242,1,129,2|8,0:0|0:3,0:0:0:0:
159,202,127674,6,0,L|31:202,1,129,2|8,0:0|0:3,0:0:0:0:
160,137,128333,2,0,L|288:137,1,129,2|8,0:0|0:3,0:0:0:0:
135,67,128993,5,2,0:0:0:0:
101,187,129322,1,8,0:3:0:0:
169,293,129652,1,2,0:0:0:0:
292,313,129982,1,8,0:3:0:0:
140,211,130311,6,0,L|326:75,3,193.5,12|12|12|12,0:0|0:0|0:0|0:0,0:0:0:0:
101,145,132289,2,0,L|101:294,1,129,2|2,0:0|0:0,0:0:0:0:
258,92,132949,5,10,0:0:0:0:
362,191,133278,1,10,0:0:0:0:
269,302,133608,1,10,0:0:0:0:
146,303,133938,1,10,0:0:0:0:
146,303,134102,1,10,0:0:0:0:
