osu file format v14

[General]
AudioFilename: audio.mp3
AudioLeadIn: 0
PreviewTime: 144405
Countdown: 0
SampleSet: Soft
StackLeniency: 0.2
Mode: 0
LetterboxInBreaks: 0
WidescreenStoryboard: 1

[Editor]
Bookmarks: 18142,26054,33966,40889,41218,41548,44185,56383,57043,67592,67922,78801,84076,99900,113087
DistanceSpacing: 0.85
BeatDivisor: 4
GridSize: 16
TimelineZoom: 1

[Metadata]
Title:Cyanine
TitleUnicode:Cyanine
Artist:jioyi
ArtistUnicode:jioyi
Creator:xChorse
Version:exclamation mark
Source:
Tags:
BeatmapID:1535936
BeatmapSetID:652833

[Difficulty]
HPDrainRate:4
CircleSize:4
OverallDifficulty:9
ApproachRate:9.6
SliderMultiplier:2
SliderTickRate:1

[Events]
//Background and Video events
0,0,"bg.jpg",0,0
//Break Periods
2,56913,64295
//Storyboard Layer 0 (Background)
//Storyboard Layer 1 (Fail)
//Storyboard Layer 2 (Pass)
//Storyboard Layer 3 (Foreground)
//Storyboard Sound Samples

[TimingPoints]
1659,329.67032967033,4,2,1,40,1,0
1659,-500,4,2,1,70,0,0
15505,-200,4,2,1,70,0,0
16411,-200,4,2,1,70,0,0
16452,-200,4,2,1,30,0,0
16494,-600,4,2,1,50,0,0
18142,329.67032967033,4,2,1,100,1,0
19460,-66.6666666666667,4,2,1,100,0,0
19790,-57.1428571428571,4,2,1,100,0,0
20120,-100,4,2,1,100,0,0
23416,-66.6666666666667,4,2,1,100,0,0
23746,-57.1428571428571,4,2,1,100,0,0
24076,-50,4,2,1,100,0,0
24240,-100,4,2,1,100,0,0
25724,-66.6666666666667,4,2,1,100,0,0
26054,-100,4,2,1,100,0,0
27372,-66.6666666666667,4,2,1,100,0,0
27702,-57.1428571428571,4,2,1,100,0,0
28032,-100,4,2,1,100,0,0
31328,-57.1428571428571,4,2,1,100,0,0
31658,-50,4,2,1,100,0,0
31988,-66.6666666666667,4,2,1,100,0,0
33966,-83.3333333333333,4,2,1,100,0,1
34131,-83.3333333333333,4,2,1,100,0,0
40889,-57.1428571428571,4,2,1,100,0,0
41218,-50,4,2,1,100,0,0
41548,-133.333333333333,4,2,1,100,0,0
41878,-50,4,2,1,100,0,1
42043,-50,4,2,1,100,0,0
42372,-83.3333333333333,4,2,1,100,0,0
48801,-100,4,2,1,100,0,0
49131,-133.333333333333,4,2,1,100,0,0
49460,-200,4,2,1,100,0,0
49790,-100,4,2,1,100,0,0
50779,-90.9090909090909,4,2,1,100,0,0
51768,-83.3333333333333,4,2,1,100,0,0
52757,-76.9230769230769,4,2,1,100,0,0
53746,-71.4285714285714,4,2,1,100,0,0
54735,-66.6666666666667,4,2,1,100,0,0
55724,-100,4,2,1,100,0,0
56054,-80,4,2,1,100,0,0
56383,-66.6666666666667,4,2,1,100,0,0
65614,-66.6666666666667,4,2,1,5,0,0
65944,-66.6666666666667,4,2,1,15,0,0
66273,-66.6666666666667,4,2,1,25,0,0
66603,-66.6666666666667,4,2,1,35,0,0
66933,-66.6666666666667,4,2,1,45,0,0
67262,-66.6666666666667,4,2,1,55,0,0
67427,-66.6666666666667,4,2,1,65,0,0
67592,-66.6666666666667,4,2,1,85,0,0
67757,-66.6666666666667,4,2,1,95,0,0
67922,-66.6666666666667,4,2,1,100,0,0
68251,-100,4,2,1,80,0,0
68746,-133.333333333333,4,2,1,60,0,0
69240,-800,4,2,1,50,0,0
70889,-133.333333333333,4,2,1,70,0,0
71383,-100,4,2,1,80,0,0
71878,-800,4,2,1,50,0,0
73196,-100,4,2,1,80,0,0
73526,-133.333333333333,4,2,1,60,0,0
74021,-153.846153846153,4,2,1,70,0,0
74515,-181.818181818181,4,2,1,50,0,0
75504,-181.818181818181,4,2,1,50,0,0
78801,-181.818181818181,4,2,1,70,0,0
84076,-181.818181818181,4,2,1,80,0,0
89350,-181.818181818181,4,2,1,50,0,0
90669,-181.818181818181,4,2,1,55,0,0
91988,-181.818181818181,4,2,1,60,0,0
93306,-181.818181818181,4,2,1,65,0,0
94625,-181.818181818181,4,2,1,70,0,0
95944,-181.818181818181,4,2,1,75,0,0
97262,-181.818181818181,4,2,1,80,0,0
98581,-181.818181818181,4,2,1,85,0,0
98911,-100,4,2,1,100,0,0
99076,-90.9090909090909,4,2,1,100,0,0
99240,-83.3333333333333,4,2,1,100,0,0
99405,-76.9230769230769,4,2,1,100,0,0
99570,-71.4285714285714,4,2,1,100,0,0
99735,-66.6666666666667,4,2,1,100,0,0
99900,-100,4,2,1,100,0,0
109790,-50,4,2,1,100,0,0
110449,-200,4,2,1,100,0,0
112757,-40,4,2,1,100,0,1
113087,-200,4,2,1,100,0,0
113746,-50,4,2,1,100,0,1
114076,-100,4,2,1,100,0,1
114240,-50,4,2,1,100,0,1
114735,-50,4,2,1,100,0,1
115065,-50,4,2,1,100,0,1
115229,-100,4,2,1,100,0,1
115559,-66.6666666666667,4,2,1,100,0,1
115724,-100,4,2,1,100,0,1
116383,-50,4,2,1,100,0,1
116713,-100,4,2,1,100,0,1
116878,-50,4,2,1,100,0,1
117372,-50,4,2,1,100,0,1
117702,-50,4,2,1,100,0,1
118032,-133.333333333333,4,2,1,100,0,0
118361,-100,4,2,1,100,0,1
119021,-50,4,2,1,100,0,1
119350,-100,4,2,1,100,0,1
119515,-50,4,2,1,100,0,1
120010,-50,4,2,1,100,0,1
120339,-50,4,2,1,100,0,1
120504,-100,4,2,1,100,0,1
120999,-80,4,2,1,100,0,0
123636,-100,4,2,1,100,0,1
124295,-50,4,2,1,100,0,1
124625,-100,4,2,1,100,0,1
124790,-50,4,2,1,100,0,1
125284,-50,4,2,1,100,0,1
125614,-50,4,2,1,100,0,1
125779,-100,4,2,1,100,0,1
126933,-50,4,2,1,100,0,1
127180,-100,4,2,1,100,0,1
127427,-50,4,2,1,100,0,1
127757,-100,4,2,1,100,0,1
127922,-50,4,2,1,100,0,1
128251,-50,4,2,1,100,0,1
128581,-100,4,2,1,100,0,1
128911,-66.6666666666667,4,2,1,100,0,1
129570,-50,4,2,1,100,0,1
130065,-100,4,2,1,100,0,1
130477,-50,4,2,1,100,0,1
130889,-50,4,2,1,100,0,1
131054,-100,4,2,1,100,0,1
131383,-50,4,2,1,100,0,1
131548,-80,4,2,1,100,0,0
134185,-100,4,2,1,100,0,0
139460,-100,4,2,1,100,0,0
139790,-90.9090909090909,4,2,1,100,0,0
140120,-83.3333333333333,4,2,1,100,0,0
140449,-76.9230769230769,4,2,1,100,0,0
140779,-66.6666666666667,4,2,1,100,0,0
141109,-62.5,4,2,1,100,0,0
141438,-58.8235294117647,4,2,1,100,0,0
141768,-55.5555555555556,4,2,1,100,0,0
142098,-66.6666666666667,4,2,1,70,0,1
142180,-66.6666666666667,4,2,1,70,0,0
142427,-50,4,2,1,80,0,1
142510,-50,4,2,1,80,0,0
142757,-30,4,2,1,90,0,1
142839,-30,4,2,1,90,0,0
143087,-20,4,2,1,100,0,1
143169,-20,4,2,1,100,0,0
143416,-50,4,2,1,100,0,1
143499,-50,4,2,1,60,0,0
143581,-50,4,2,1,100,0,1
143663,-50,4,2,1,60,0,0
143746,-50,4,2,1,100,0,1
143828,-50,4,2,1,60,0,0
143911,-50,4,2,1,100,0,1
143993,-50,4,2,1,60,0,0
144076,-50,4,2,1,100,0,1
144158,-50,4,2,1,60,0,0
144240,-50,4,2,1,100,0,1
144323,-50,4,2,1,60,0,0
144405,-200,4,2,1,100,0,0
144652,-200,4,2,1,30,0,0
144735,-66.6666666666667,4,2,1,100,0,1
163196,-66.6666666666667,4,2,1,100,0,0
163856,-133.333333333333,4,2,1,100,0,0
165834,-57.1428571428571,4,2,1,100,0,1
181658,-100,4,2,1,100,0,1
181823,-90.9090909090909,4,2,1,100,0,1
181988,-83.3333333333333,4,2,1,100,0,1
182152,-76.9230769230769,4,2,1,100,0,1
182317,-71.4285714285714,4,2,1,100,0,1
182482,-66.6666666666667,4,2,1,100,0,1
182647,-62.5,4,2,1,100,0,1
182977,-71.4285714285714,4,2,1,100,0,1
183142,-66.6666666666667,4,2,1,100,0,1
183306,-62.5,4,2,1,100,0,1
183471,-58.8235294117647,4,2,1,100,0,1
183636,-55.5555555555556,4,2,1,100,0,1
183801,-52.6315789473684,4,2,1,100,0,1
183966,-50,4,2,1,100,0,1
185614,-66.6666666666667,4,2,1,100,0,0
186933,-166.666666666667,4,2,1,100,0,1
187098,-66.6666666666667,4,2,1,100,0,0

[HitObjects]
216,152,1659,6,0,L|136:144,1,80,0|0,0:0|0:0,0:0:0:0:
123,157,2648,1,2,0:0:0:0:
216,152,3307,5,2,0:0:0:0:
216,152,3637,2,0,L|296:144,1,80,0|2,0:0|0:0,0:0:0:0:
295,144,4626,2,0,L|254:148,2,40,0|0|0,0:0|0:0|0:0,0:0:0:0:
367,243,5450,5,0,0:0:0:0:
216,152,5615,1,2,0:0:0:0:
216,152,5944,2,0,L|136:160,1,80,0|2,0:0|0:0,0:0:0:0:
136,159,7593,6,0,P|149:184|153:203,1,40,2|0,0:0|0:0,0:0:0:0:
150,283,8252,1,2,0:0:0:0:
151,195,8582,1,0,0:0:0:0:
150,283,8911,2,0,P|170:286|193:284,1,40,2|0,0:0|0:0,0:0:0:0:
189,284,9571,6,0,P|142:278|106:290,1,80,2|0,0:0|0:0,0:0:0:0:
268,288,10560,2,0,L|274:208,1,80,2|0,0:0|0:0,0:0:0:0:
151,195,11384,5,0,0:0:0:0:
219,135,11549,1,2,0:0:0:0:
219,135,12208,5,0,0:0:0:0:
274,208,12538,2,0,L|268:288,1,80,2|2,0:0|0:0,0:0:0:0:
355,165,13527,2,0,L|361:245,1,80,2|0,0:0|0:0,0:0:0:0:
355,165,14516,1,2,0:0:0:0:
355,165,15505,6,0,B|319:151|283:164|283:164|239:100|173:107,1,200,2|0,0:0|0:0,0:0:0:0:
115,163,16411,6,0,L|114:185,1,12.5,0|0,0:0|0:0,0:0:0:0:
131,187,16494,6,0,B|151:236|140:278|140:278|155:265|167:248,1,133.333333333333,2|0,0:0|0:0,0:0:0:0:
166,248,18142,6,0,P|224:264|270:248,1,100,4|0,0:0|0:0,0:0:0:0:
291,227,18389,1,0,0:0:0:0:
278,242,18471,1,4,0:0:0:0:
131,187,18636,2,0,L|127:127,1,50,0|0,0:0|0:0,0:0:0:0:
336,144,18801,1,4,0:0:0:0:
127,137,18966,1,0,0:0:0:0:
340,32,19131,1,4,0:0:0:0:
108,117,19295,1,0,0:0:0:0:
355,164,19460,6,0,B|374:187|410:193|410:193|363:210|345:269,1,150.000005722046,4|0,0:0|0:0,0:0:0:0:
435,312,19707,1,0,0:0:0:0:
446,288,19790,6,0,L|462:67,1,175.00000166893,8|0,0:0|0:0,0:0:0:0:
340,32,20120,1,4,0:0:0:0:
220,113,20284,1,0,0:0:0:0:
222,138,20366,1,0,0:0:0:0:
224,163,20449,2,0,L|229:235,1,50,4|0,0:0|0:0,0:0:0:0:
458,113,20614,1,0,0:0:0:0:
456,138,20696,1,0,0:0:0:0:
454,163,20779,6,0,L|449:235,1,50,4|0,0:0|0:0,0:0:0:0:
259,206,20944,1,0,0:0:0:0:
261,231,21026,1,0,0:0:0:0:
263,256,21109,2,0,L|268:328,1,50,4|0,0:0|0:0,0:0:0:0:
420,206,21273,5,0,0:0:0:0:
418,230,21355,1,0,0:0:0:0:
416,255,21437,1,4,0:0:0:0:
414,280,21520,1,0,0:0:0:0:
412,305,21602,1,0,0:0:0:0:
410,330,21685,1,0,0:0:0:0:
371,360,21768,5,4,0:0:0:0:
372,312,21850,1,0,0:0:0:0:
375,264,21932,1,0,0:0:0:0:
380,217,22015,1,0,0:0:0:0:
382,169,22098,6,0,P|324:185|278:169,1,100,4|0,0:0|0:0,0:0:0:0:
257,148,22345,1,0,0:0:0:0:
270,163,22427,1,4,0:0:0:0:
459,113,22592,2,0,L|519:117,1,50,0|0,0:0|0:0,0:0:0:0:
330,83,22757,1,4,0:0:0:0:
467,205,22922,1,0,0:0:0:0:
409,35,23087,1,4,0:0:0:0:
375,264,23251,1,0,0:0:0:0:
193,120,23416,6,0,L|6:106,1,150.000005722046,4|0,0:0|0:0,0:0:0:0:
167,197,23663,1,0,0:0:0:0:
192,205,23746,6,0,B|230:206|257:176|257:176|302:230|378:202,1,175.00000166893,8|0,0:0|0:0,0:0:0:0:
345,110,23993,1,0,0:0:0:0:
327,125,24076,6,0,B|308:171|332:207|332:207|321:251|321:251|343:289|317:358,1,200,6|0,0:0|0:0,0:0:0:0:
250,355,24322,1,0,0:0:0:0:
225,353,24405,2,0,L|152:347,1,50,4|0,0:0|0:0,0:0:0:0:
86,176,24570,1,0,0:0:0:0:
87,200,24652,1,0,0:0:0:0:
90,225,24735,6,0,L|95:297,1,50,4|0,0:0|0:0,0:0:0:0:
233,376,24900,1,0,0:0:0:0:
209,375,24982,1,0,0:0:0:0:
184,372,25065,2,0,L|111:366,1,50,4|0,0:0|0:0,0:0:0:0:
37,182,25229,1,0,0:0:0:0:
35,157,25312,1,0,0:0:0:0:
57,167,25394,5,4,0:0:0:0:
59,192,25477,1,0,0:0:0:0:
61,217,25559,1,0,0:0:0:0:
62,242,25641,1,0,0:0:0:0:
93,274,25724,6,0,P|134:277|197:207,1,75.0000028610231,4|0,0:0|0:0,0:0:0:0:
246,96,25889,2,0,P|222:130|252:219,1,75.0000028610231,4|0,0:0|0:0,0:0:0:0:
404,282,26054,6,0,P|346:298|300:282,1,100,4|0,0:0|0:0,0:0:0:0:
279,261,26301,1,0,0:0:0:0:
292,276,26383,1,4,0:0:0:0:
423,205,26548,2,0,L|427:145,1,50,0|0,0:0|0:0,0:0:0:0:
218,162,26713,1,4,0:0:0:0:
427,155,26878,1,0,0:0:0:0:
214,50,27043,1,4,0:0:0:0:
446,135,27207,1,0,0:0:0:0:
217,247,27372,6,0,B|180:248|152:217|152:217|155:276|77:318,1,150.000005722046,4|0,0:0|0:0,0:0:0:0:
67,219,27619,1,0,0:0:0:0:
56,195,27702,6,0,L|40:-26,1,175.00000166893,8|0,0:0|0:0,0:0:0:0:
144,194,28032,1,4,0:0:0:0:
237,120,28196,1,0,0:0:0:0:
239,95,28278,1,0,0:0:0:0:
240,69,28361,2,0,L|244:20,1,50,4|0,0:0|0:0,0:0:0:0:
50,120,28526,1,0,0:0:0:0:
48,95,28608,1,0,0:0:0:0:
46,69,28691,6,0,L|43:20,1,50,4|0,0:0|0:0,0:0:0:0:
256,152,28856,1,0,0:0:0:0:
258,127,28938,1,0,0:0:0:0:
259,101,29021,2,0,L|262:51,1,50,4|0,0:0|0:0,0:0:0:0:
60,244,29185,5,0,0:0:0:0:
58,220,29267,1,0,0:0:0:0:
32,192,29349,1,4,0:0:0:0:
30,168,29433,1,0,0:0:0:0:
28,143,29515,1,0,0:0:0:0:
26,118,29598,1,0,0:0:0:0:
22,66,29680,2,0,L|19:16,3,50,4|0|0|0,0:0|0:0|0:0|0:0,0:0:0:0:
113,174,30010,5,4,0:0:0:0:
149,190,30092,1,0,0:0:0:0:
189,192,30174,1,0,0:0:0:0:
226,178,30257,1,0,0:0:0:0:
256,152,30339,5,4,0:0:0:0:
283,117,30421,1,0,0:0:0:0:
325,104,30503,1,0,0:0:0:0:
367,119,30586,1,0,0:0:0:0:
392,155,30668,5,4,0:0:0:0:
391,199,30751,1,0,0:0:0:0:
365,235,30833,1,0,0:0:0:0:
323,249,30916,1,0,0:0:0:0:
281,237,30998,5,4,0:0:0:0:
239,252,31081,1,0,0:0:0:0:
214,288,31163,1,0,0:0:0:0:
215,332,31246,1,0,0:0:0:0:
241,368,31328,6,0,B|306:373|306:373|290:366|256:339,3,87.500000834465,4|0|0|0,0:0|0:0|0:0|0:0,0:0:0:0:
214,288,31658,6,0,B|146:283|146:283|166:277|190:259,3,100,8|0|0|0,0:0|0:0|0:0|0:0,0:0:0:0:
281,237,31988,6,0,P|287:194|277:157,3,75.0000028610231,6|0|0|0,0:0|0:0|0:0|0:0,0:0:0:0:
214,288,32317,1,4,0:0:0:0:
195,287,32399,1,0,0:0:0:0:
176,283,32481,1,0,0:0:0:0:
159,276,32564,1,0,0:0:0:0:
143,267,32647,5,4,0:0:0:0:
111,286,32729,1,0,0:0:0:0:
74,291,32811,1,0,0:0:0:0:
38,283,32894,1,0,0:0:0:0:
8,261,32976,1,8,0:0:0:0:
241,368,33142,1,12,0:0:0:0:
422,323,33306,6,0,L|420:360,2,37.5000014305115,0|0|0,0:0|0:0|0:0,0:0:0:0:
372,284,33471,1,0,0:0:0:0:
374,259,33553,1,0,0:0:0:0:
375,233,33636,2,0,L|379:153,1,75.0000028610231,0|0,0:0|0:0,0:0:0:0:
206,50,33801,2,0,L|209:124,1,75.0000028610231,0|0,0:0|0:0,0:0:0:0:
139,282,33966,6,0,P|65:296|1:228,1,119.999996337891,6|0,0:0|0:0,0:0:0:0:
0,161,34295,1,4,0:0:0:0:
275,188,34460,2,0,L|368:183,1,59.9999981689454,2|0,0:0|0:0,0:0:0:0:
287,345,34625,1,8,0:0:0:0:
87,214,34790,1,2,0:0:0:0:
301,106,34955,2,0,L|434:100,1,119.999996337891,6|0,0:0|0:0,0:0:0:0:
275,188,35284,6,0,P|229:152|216:95,1,119.999996337891,4|0,0:0|0:0,0:0:0:0:
367,20,35614,1,8,0:0:0:0:
462,158,35779,1,0,0:0:0:0:
460,182,35861,1,0,0:0:0:0:
458,207,35944,2,0,L|449:371,1,119.999996337891,6|0,0:0|0:0,0:0:0:0:
301,106,36273,2,0,L|309:270,1,119.999996337891,6|0,0:0|0:0,0:0:0:0:
215,116,36603,6,0,P|228:58|275:23,1,119.999996337891,10|0,0:0|0:0,0:0:0:0:
391,214,36933,2,0,P|377:271|331:307,1,119.999996337891,6|0,0:0|0:0,0:0:0:0:
124,243,37262,1,4,0:0:0:0:
306,225,37427,1,0,0:0:0:0:
98,325,37592,1,10,0:0:0:0:
331,307,37757,1,0,0:0:0:0:
355,305,37839,1,0,0:0:0:0:
380,303,37922,6,0,L|544:294,1,119.999996337891,6|0,0:0|0:0,0:0:0:0:
306,225,38251,1,4,0:0:0:0:
485,215,38416,1,0,0:0:0:0:
261,103,38581,1,8,0:0:0:0:
512,295,38746,1,0,0:0:0:0:
261,103,38911,2,0,L|96:94,1,119.999996337891,6|0,0:0|0:0,0:0:0:0:
286,21,39240,6,0,P|332:56|345:114,1,119.999996337891,6|0,0:0|0:0,0:0:0:0:
338,145,39488,1,0,0:0:0:0:
318,169,39570,1,8,0:0:0:0:
114,94,39735,1,2,0:0:0:0:
318,169,39900,2,0,L|482:160,1,119.999996337891,6|0,0:0|0:0,0:0:0:0:
375,286,40229,1,4,0:0:0:0:
450,144,40394,1,0,0:0:0:0:
275,259,40559,5,8,0:0:0:0:
261,103,40724,1,0,0:0:0:0:
449,245,40889,6,0,P|440:341|361:369,1,175.00000166893,6|0,0:0|0:0,0:0:0:0:
295,265,41218,6,0,P|365:202|449:245,1,200,6|0,0:0|0:0,0:0:0:0:
376,370,41548,6,0,P|336:362|297:315,1,75.0000028610231,4|0,0:0|0:0,0:0:0:0:
441,53,41878,6,0,B|467:93|442:145|442:145|451:170|451:170|430:207|448:244,1,200,6|0,0:0|0:0,0:0:0:0:
376,370,42207,1,4,0:0:0:0:
305,172,42372,2,0,L|309:78,1,59.9999981689454,2|0,0:0|0:0,0:0:0:0:
512,210,42537,1,8,0:0:0:0:
255,301,42702,1,0,0:0:0:0:
512,210,42867,2,0,L|505:90,1,119.999996337891,6|0,0:0|0:0,0:0:0:0:
433,52,43114,1,0,0:0:0:0:
423,38,43196,6,0,P|368:16|310:39,1,119.999996337891,4|0,0:0|0:0,0:0:0:0:
203,206,43526,1,8,0:0:0:0:
367,104,43691,1,0,0:0:0:0:
118,195,43856,2,0,P|132:252|178:288,1,119.999996337891,6|0,0:0|0:0,0:0:0:0:
305,172,44185,2,0,L|310:140,4,29.9999990844727,6|0|2|0|0,0:0|0:0|0:0|0:0|0:0,0:0:0:0:
284,351,44515,5,8,0:0:0:0:
398,290,44680,1,0,0:0:0:0:
178,288,44845,2,0,P|132:252|118:195,1,119.999996337891,6|0,0:0|0:0,0:0:0:0:
227,123,45174,2,0,P|273:159|287:216,1,119.999996337891,6|0,0:0|0:0,0:0:0:0:
270,303,45421,5,0,0:0:0:0:
297,314,45504,1,8,0:0:0:0:
324,290,45587,1,0,0:0:0:0:
351,301,45670,1,2,0:0:0:0:
378,277,45751,1,0,0:0:0:0:
398,290,45834,6,0,L|391:170,1,119.999996337891,6|0,0:0|0:0,0:0:0:0:
227,123,46163,5,4,0:0:0:0:
390,153,46328,2,0,L|478:158,1,59.9999981689454
233,104,46493,1,8,0:0:0:0:
383,171,46658,1,0,0:0:0:0:
342,90,46823,5,4,0:0:0:0:
214,193,46988,2,0,L|139:241,1,59.9999981689454
326,77,47152,1,4,0:0:0:0:
229,205,47318,1,0,0:0:0:0:
390,153,47482,2,0,L|510:160,1,119.999996337891,8|0,0:0|0:0,0:0:0:0:
512,246,47729,1,0,0:0:0:0:
506,263,47812,6,0,P|469:309|412:319,1,119.999996337891,6|0,0:0|0:0,0:0:0:0:
223,240,48142,1,4,0:0:0:0:
390,153,48306,2,0,L|394:59,1,59.9999981689454,2|0,0:0|0:0,0:0:0:0:
273,79,48471,1,8,0:0:0:0:
276,318,48636,1,0,0:0:0:0:
171,221,48801,6,0,L|164:101,1,100,4|0,0:0|0:0,0:0:0:0:
255,143,49048,1,0,0:0:0:0:
270,154,49131,6,0,L|275:54,1,75.0000028610231,4|0,0:0|0:0,0:0:0:0:
373,90,49378,1,0,0:0:0:0:
388,101,49460,6,0,L|384:44,1,50,10|0,0:0|0:0,0:0:0:0:
100,80,49790,5,4,0:0:0:0:
107,124,49900,1,0,0:0:0:0:
114,168,50010,1,0,0:0:0:0:
178,97,50120,5,4,0:0:0:0:
185,141,50230,1,0,0:0:0:0:
192,185,50340,1,0,0:0:0:0:
256,80,50449,6,0,L|246:14,2,66.6666666666667,8|0|0,0:0|0:0|0:0,0:0:0:0:
429,112,50779,5,4,0:0:0:0:
421,160,50889,1,0,0:0:0:0:
413,208,50999,1,0,0:0:0:0:
342,129,51109,5,4,0:0:0:0:
334,179,51219,1,0,0:0:0:0:
327,227,51329,1,0,0:0:0:0:
256,112,51438,6,0,L|266:39,2,73.3333355712891,8|0|0,0:0|0:0|0:0,0:0:0:0:
69,144,51768,5,4,0:0:0:0:
77,196,51878,1,0,0:0:0:0:
85,249,51988,1,0,0:0:0:0:
162,164,52098,5,4,0:0:0:0:
171,217,52208,1,0,0:0:0:0:
179,270,52318,1,0,0:0:0:0:
256,144,52427,6,0,L|244:64,2,79.9999975585938,8|0|0,0:0|0:0|0:0,0:0:0:0:
459,176,52757,5,4,0:0:0:0:
449,233,52867,1,0,0:0:0:0:
440,290,52977,1,0,0:0:0:0:
357,198,53087,5,4,0:0:0:0:
348,255,53197,1,0,0:0:0:0:
339,312,53307,1,0,0:0:0:0:
256,176,53416,6,0,L|268:90,2,86.6666626993817,8|0|0,0:0|0:0|0:0,0:0:0:0:
38,208,53746,5,4,0:0:0:0:
47,269,53856,1,0,0:0:0:0:
57,331,53966,1,0,0:0:0:0:
147,231,54076,5,4,0:0:0:0:
157,293,54186,1,0,0:0:0:0:
166,355,54296,1,0,0:0:0:0:
256,208,54405,6,0,L|242:115,2,93.3333304850261,8|0|0,0:0|0:0|0:0,0:0:0:0:
491,208,54735,5,4,0:0:0:0:
480,274,54845,1,0,0:0:0:0:
470,340,54955,1,0,0:0:0:0:
373,233,55065,5,4,0:0:0:0:
363,299,55175,1,0,0:0:0:0:
352,365,55285,1,0,0:0:0:0:
256,208,55394,6,0,L|270:109,2,100.000003814697,8|0|0,0:0|0:0|0:0,0:0:0:0:
157,293,55724,6,0,L|71:281,1,66.6666666666667,8|0,0:0|0:0,0:0:0:0:
38,208,55944,1,4,0:0:0:0:
256,208,56054,6,0,L|342:196,1,83.3333333333333,8|0,0:0|0:0,0:0:0:0:
391,272,56274,1,4,0:0:0:0:
128,311,56383,6,0,L|27:296,1,100.000003814697,8|0,0:0|0:0,0:0:0:0:
17,193,56603,1,4,0:0:0:0:
243,314,56713,1,6,0:0:0:0:
256,192,65614,12,0,67922,0:0:0:0:
370,177,68251,6,0,B|334:203|286:199|286:199|367:200|402:275|387:331,1,250,4|0,0:0|0:0,0:0:0:0:
309,320,68746,6,0,B|320:300|311:275|282:275|282:275|218:310|159:263,1,187.500007152558,4|0,0:0|0:0,0:0:0:0:
227,188,69240,6,0,L|231:94,1,93.75,4|0,0:0|0:0,0:0:0:0:
254,83,70559,2,0,L|253:59,1,18.75,10|0,0:0|0:0,0:0:0:0:
304,145,70889,6,0,B|323:127|331:100|331:100|410:152|472:79,1,187.500007152558,4|0,0:0|0:0,0:0:0:0:
454,96,71383,6,0,P|421:253|483:277,1,250,4|0,0:0|0:0,0:0:0:0:
501,294,71878,6,0,L|407:298,1,93.75,4|0,0:0|0:0,0:0:0:0:
316,355,73196,6,0,P|286:362|261:362,1,50,2|0,0:0|0:0,0:0:0:0:
166,268,73361,2,0,P|190:263|215:263,1,50
316,355,73526,6,0,P|388:336|326:294,1,187.500007152558,4|0,0:0|0:0,0:0:0:0:
326,294,74021,6,0,P|272:242|346:236,1,162.499992561341,4|0,0:0|0:0,0:0:0:0:
329,219,74515,6,0,P|401:200|292:143,1,302.500009231568,4|0,0:0|0:0,0:0:0:0:
291,144,75504,2,0,B|255:161|220:145|220:145|183:131|146:147,1,137.500004196167,4|0,0:0|0:0,0:0:0:0:
125,160,75999,2,0,L|130:210,1,27.5000008392334,0|0,0:0|0:0,0:0:0:0:
184,241,76163,2,0,B|199:289|181:351|181:351|193:320|230:294,2,165.000005035401,4|4|4,0:0|0:0|0:0,0:0:0:0:
329,101,78801,6,0,L|269:105,1,55.0000016784668,0|0,3:0|3:0,3:0:0:0:
215,163,79130,1,0,3:0:0:0:
137,134,79295,2,0,P|89:144|58:202,1,110.000003356934,0|0,3:0|3:0,3:0:0:0:
49,275,79790,1,0,3:0:0:0:
117,320,79954,6,0,L|198:325,1,82.5000025177003,0|0,3:0|3:0,3:0:0:0:
220,342,80284,1,0,3:0:0:0:
272,248,80449,1,0,3:0:0:0:
215,163,80614,2,0,L|210:108,1,55.0000016784668,0|0,3:0|3:0,3:0:0:0:
134,189,80944,2,0,L|138:134,1,55.0000016784668,0|0,3:0|3:0,3:0:0:0:
57,156,81273,1,0,3:0:0:0:
217,244,81438,6,0,L|271:247,1,55.0000016784668,0|0,3:0|3:0,3:0:0:0:
349,220,81767,1,8,3:0:0:0:
416,267,81932,2,0,P|464:257|495:199,1,110.000003356934,0|0,3:0|3:0,3:0:0:0:
472,127,82427,1,8,3:0:0:0:
408,74,82591,6,0,L|327:69,1,82.5000025177003,0|0,3:0|3:0,3:0:0:0:
307,77,82921,1,0,3:0:0:0:
234,38,83086,1,8,3:0:0:0:
164,81,83251,2,0,L|159:149,1,55.0000016784668,0|0,3:0|3:0,3:0:0:0:
311,132,83581,2,0,L|307:77,1,55.0000016784668,0|8,3:0|3:0,3:0:0:0:
237,178,83910,1,0,3:0:0:0:
164,81,84076,6,0,L|160:135,1,55.0000016784668,0|0,3:0|3:0,3:0:0:0:
166,220,84405,1,8,3:0:0:0:
304,216,84570,2,0,P|353:205|395:143,1,110.000003356934,0|0,3:0|3:0,3:0:0:0:
362,56,85065,1,8,3:0:0:0:
464,169,85229,6,0,L|469:250,1,82.5000025177003,0|0,3:0|3:0,3:0:0:0:
461,270,85559,1,0,3:0:0:0:
390,160,85724,1,8,3:0:0:0:
461,270,85889,2,0,L|456:338,1,55.0000016784668,0|0,3:0|3:0,3:0:0:0:
360,372,86218,2,0,L|356:317,1,55.0000016784668,0|8,3:0|3:0,3:0:0:0:
259,270,86548,1,0,3:0:0:0:
257,297,86630,1,8,3:0:0:0:
255,324,86713,5,8,3:0:0:0:
356,317,86878,1,0,3:0:0:0:
232,371,87043,1,8,3:0:0:0:
356,317,87207,6,0,L|361:235,1,82.5000025177003,0|0,3:0|3:0,3:0:0:0:
379,221,87537,1,0,3:0:0:0:
255,271,87702,1,8,3:0:0:0:
396,212,87867,1,0,3:0:0:0:
272,133,88032,5,2,3:0:0:0:
256,192,88114,12,0,89021,0:0:0:0:
137,93,89350,6,0,L|61:86,1,55.0000016784668,4|0,0:0|0:0,0:0:0:0:
211,133,89680,2,0,L|287:126,1,55.0000016784668,0|0,0:0|0:0,0:0:0:0:
126,79,90010,2,0,L|50:72,1,55.0000016784668,8|0,0:0|0:0,0:0:0:0:
200,119,90340,2,0,L|276:112,1,55.0000016784668,0|0,0:0|0:0,0:0:0:0:
375,291,90669,6,0,L|451:298,1,55.0000016784668,4|0,0:0|0:0,0:0:0:0:
301,251,90999,2,0,L|225:258,1,55.0000016784668,0|0,0:0|0:0,0:0:0:0:
386,305,91328,2,0,L|462:312,1,55.0000016784668,8|0,0:0|0:0,0:0:0:0:
312,265,91659,2,0,L|236:272,1,55.0000016784668,0|0,0:0|0:0,0:0:0:0:
137,93,91988,6,0,L|61:86,1,55.0000016784668,4|0,0:0|0:0,0:0:0:0:
126,79,92318,2,0,L|71:73,1,55.0000016784668,0|0,0:0|0:0,0:0:0:0:
265,127,92648,2,0,L|211:133,1,55.0000016784668,8|0,0:0|0:0,0:0:0:0:
254,113,92978,2,0,L|200:119,1,55.0000016784668,0|0,0:0|0:0,0:0:0:0:
375,291,93306,6,0,L|451:298,1,55.0000016784668,4|0,0:0|0:0,0:0:0:0:
386,305,93636,2,0,L|440:310,1,55.0000016784668,0|0,0:0|0:0,0:0:0:0:
246,256,93966,2,0,L|301:251,1,55.0000016784668,8|0,0:0|0:0,0:0:0:0:
257,270,94296,2,0,L|312:265,1,55.0000016784668,0|0,0:0|0:0,0:0:0:0:
137,93,94625,6,0,L|61:86,1,55.0000016784668,4|0,0:0|0:0,0:0:0:0:
211,133,94955,2,0,L|287:126,1,55.0000016784668,0|0,0:0|0:0,0:0:0:0:
71,73,95285,2,0,L|126:79,1,55.0000016784668,8|0,0:0|0:0,0:0:0:0:
254,113,95615,2,0,L|200:119,1,55.0000016784668,0|0,0:0|0:0,0:0:0:0:
375,291,95944,6,0,L|451:298,1,55.0000016784668,4|0,0:0|0:0,0:0:0:0:
301,251,96274,2,0,L|225:258,1,55.0000016784668,0|0,0:0|0:0,0:0:0:0:
440,310,96603,2,0,L|386:305,1,55.0000016784668,8|0,0:0|0:0,0:0:0:0:
257,270,96934,2,0,L|312:265,1,55.0000016784668,0|0,0:0|0:0,0:0:0:0:
200,119,97262,6,0,L|205:173,1,55.0000016784668,4|0,0:0|0:0,0:0:0:0:
312,265,97592,2,0,L|306:319,1,55.0000016784668,0|0,0:0|0:0,0:0:0:0:
169,194,97922,2,0,L|164:140,1,55.0000016784668,8|0,0:0|0:0,0:0:0:0:
276,286,98252,2,0,L|270:340,1,55.0000016784668,0|0,0:0|0:0,0:0:0:0:
205,173,98581,6,0,L|199:118,1,55.0000016784668,4|0,0:0|0:0,0:0:0:0:
343,117,98911,6,0,P|371:122|412:112,1,50,2|0,0:0|0:0,0:0:0:0:
396,147,99076,6,0,P|369:143|345:132,1,55.0000016784668,2|0,0:0|0:0,0:0:0:0:
343,147,99240,6,0,P|364:165|405:177,1,59.9999981689454,2|0,0:0|0:0,0:0:0:0:
383,203,99405,6,0,P|356:186|337:160,1,64.9999970245363,2|0,0:0|0:0,0:0:0:0:
328,172,99569,6,0,P|337:198|366:230,1,64.9999970245363,2|0,0:0|0:0,0:0:0:0:
338,250,99735,6,0,P|319:218|316:181,1,75.0000028610231,2|0,0:0|0:0,0:0:0:0:
205,173,99900,6,0,L|72:163,1,100,6|0,0:0|0:0,0:0:0:0:
12,224,100229,1,4,0:0:0:0:
94,297,100395,1,2,0:0:0:0:
119,295,100477,1,0,0:0:0:0:
144,293,100560,2,0,L|193:289,1,50,4|0,0:0|0:0,0:0:0:0:
254,176,100724,2,0,L|204:172,1,50,2|0,0:0|0:0,0:0:0:0:
272,319,100889,2,0,L|376:311,1,100,6|0,0:0|0:0,0:0:0:0:
383,203,101218,5,4,0:0:0:0:
371,311,101383,1,0,0:0:0:0:
459,243,101548,2,0,P|468:189|418:125,1,100,4|0,0:0|0:0,0:0:0:0:
430,131,101796,1,0,0:0:0:0:
406,120,101878,2,0,L|356:116,1,50,4|0,0:0|0:0,0:0:0:0:
284,243,102043,2,0,L|288:193,1,50,0|0,0:0|0:0,0:0:0:0:
292,79,102207,2,0,L|242:75,1,50,6|0,0:0|0:0,0:0:0:0:
170,202,102372,2,0,L|174:152,1,50,0|0,0:0|0:0,0:0:0:0:
178,38,102537,6,0,L|78:30,1,100,6|0,0:0|0:0,0:0:0:0:
15,145,102867,1,4,0:0:0:0:
170,202,103032,1,2,0:0:0:0:
195,200,103114,1,0,0:0:0:0:
220,198,103197,2,0,L|269:194,1,50,4|0,0:0|0:0,0:0:0:0:
406,120,103361,2,0,L|357:116,1,50,2|0,0:0|0:0,0:0:0:0:
284,243,103526,2,0,L|383:250,1,100,6|0,0:0|0:0,0:0:0:0:
415,272,103773,1,0,0:0:0:0:
415,272,103856,6,0,B|433:307|430:341|430:341|477:294,1,100,4|0,0:0|0:0,0:0:0:0:
486,227,104103,1,0,0:0:0:0:
488,202,104186,2,0,L|492:153,1,50,4|0,0:0|0:0,0:0:0:0:
360,165,104350,1,0,0:0:0:0:
358,140,104432,1,0,0:0:0:0:
356,115,104515,2,0,L|352:66,1,50,4|0,0:0|0:0,0:0:0:0:
284,243,104680,2,0,L|280:292,1,50,6|0,0:0|0:0,0:0:0:0:
170,202,104845,2,0,L|174:251,1,50,6|0,0:0|0:0,0:0:0:0:
311,282,105010,2,0,L|305:355,1,50,6|0,0:0|0:0,0:0:0:0:
91,271,105174,5,2,0:0:0:0:
71,236,105256,1,0,0:0:0:0:
66,196,105339,1,4,0:0:0:0:
76,158,105421,1,0,0:0:0:0:
99,126,105503,1,4,0:0:0:0:
133,104,105586,1,0,0:0:0:0:
172,97,105669,6,0,L|221:93,1,50,6|0,0:0|0:0,0:0:0:0:
360,165,105834,2,0,L|311:161,1,50,4|0,0:0|0:0,0:0:0:0:
170,76,105999,2,0,L|224:81,1,50,4|0,0:0|0:0,0:0:0:0:
361,185,106164,2,0,L|309:172,1,50,6|0,0:0|0:0,0:0:0:0:
173,53,106328,2,0,L|230:69,1,50,4|0,0:0|0:0,0:0:0:0:
358,208,106493,5,6,0:0:0:0:
373,245,106575,1,0,0:0:0:0:
371,285,106657,1,4,0:0:0:0:
353,320,106740,1,0,0:0:0:0:
322,345,106822,1,4,0:0:0:0:
284,355,106905,1,0,0:0:0:0:
245,348,106988,6,0,L|196:344,1,50,4|0,0:0|0:0,0:0:0:0:
66,196,107152,2,0,L|115:192,1,50,6|0,0:0|0:0,0:0:0:0:
371,285,107317,2,0,L|322:281,1,50,4|0,0:0|0:0,0:0:0:0:
192,133,107482,2,0,L|241:129,1,50,4|0,0:0|0:0,0:0:0:0:
497,222,107647,2,0,L|448:218,1,50,4|0,0:0|0:0,0:0:0:0:
318,70,107812,5,6,0:0:0:0:
360,45,107894,1,4,0:0:0:0:
410,45,107976,1,4,0:0:0:0:
452,69,108059,1,4,0:0:0:0:
477,112,108141,1,4,0:0:0:0:
476,162,108224,1,4,0:0:0:0:
451,204,108306,1,4,0:0:0:0:
407,228,108388,1,4,0:0:0:0:
358,227,108471,6,4,L|352:265,2,25,4|4|4,0:0|0:0|0:0,0:0:0:0:
314,198,108636,5,4,0:0:0:0:
290,240,108718,1,4,0:0:0:0:
246,264,108801,1,6,0:0:0:0:
197,264,108883,1,4,0:0:0:0:
154,238,108965,1,4,0:0:0:0:
130,196,109048,1,4,0:0:0:0:
148,152,109131,6,0,L|177:127,2,25,4|0|0,0:0|0:0|0:0,0:0:0:0:
117,122,109295,6,0,L|127:99,2,25,4|0|0,0:0|0:0|0:0,0:0:0:0:
76,107,109460,6,0,L|76:68,2,25,6|0|0,0:0|0:0|0:0,0:0:0:0:
33,112,109625,6,0,L|22:89,2,25,4|0|0,0:0|0:0|0:0,0:0:0:0:
28,153,109790,6,0,L|25:214,6,50,4|0|0|0|0|0|0,0:0|0:0|0:0|0:0|0:0|0:0|0:0,0:0:0:0:
55,198,110120,6,0,L|56:237,13,25,4|0|0|0|0|0|0|0|0|0|0|0|0|0,0:0|0:0|0:0|0:0|0:0|0:0|0:0|0:0|0:0|0:0|0:0|0:0|0:0|0:0,0:0:0:0:
82,243,110449,6,0,B|134:227|157:149|157:149|204:200|274:197|274:197|237:256|265:323|265:323|200:304|145:354|145:354|146:296|110:282|110:282|108:318|139:339,1,650,0|0,0:0|0:0,0:0:0:0:
123,324,112757,6,0,B|105:283|128:241|128:241|105:232|105:232|156:163|102:87,1,250,10|0,0:0|0:0,0:0:0:0:
404,263,113087,6,0,P|346:243|396:207,1,150
293,334,113746,6,0,B|225:256|273:164|273:164|231:232|146:211,1,300,8|0,0:0|0:0,0:0:0:0:
148,212,114076,1,4,0:0:0:0:
247,71,114240,6,0,P|350:100|318:235,1,200,8|0,0:0|0:0,0:0:0:0:
293,334,114570,1,0,0:0:0:0:
148,212,114735,6,0,B|85:226|71:293|71:293|70:246|41:223|41:223|75:184|64:136|64:136|54:158,1,300,8|0,0:0|0:0,0:0:0:0:
147,74,115065,6,0,L|246:70,1,100,8|0,0:0|0:0,0:0:0:0:
364,180,115229,2,0,L|358:229,1,50,4|0,0:0|0:0,0:0:0:0:
302,307,115394,6,0,L|304:331,2,25,2|0|0,0:0|0:0|0:0,0:0:0:0:
219,268,115559,6,0,L|215:230,2,37.5000014305115,2|0|0,0:0|0:0|0:0,0:0:0:0:
136,307,115724,6,0,P|111:303|68:306,1,50,4|0,0:0|0:0,0:0:0:0:
0,197,115889,2,0,P|15:216|34:255,1,50,0|0,0:0|0:0,0:0:0:0:
189,205,116054,2,0,P|165:214|129:238,1,50,4|0,0:0|0:0,0:0:0:0:
61,100,116219,2,0,P|64:125|62:168,1,50,0|0,0:0|0:0,0:0:0:0:
252,139,116383,6,0,P|351:74|236:45,1,300,8|0,0:0|0:0,0:0:0:0:
223,65,116713,1,4,0:0:0:0:
261,221,116878,6,0,P|403:163|410:18,1,300,8|0,0:0|0:0,0:0:0:0:
402,9,117207,1,0,0:0:0:0:
61,100,117372,2,0,B|79:163|45:229|45:229|84:219|92:187,1,200,8|0,0:0|0:0,0:0:0:0:
223,65,117702,2,0,B|231:33|269:23|269:23|231:89|255:157,1,200,8|0,0:0|0:0,0:0:0:0:
392,100,118032,6,0,P|363:93|386:115,1,75.0000028610231,2|0,0:0|0:0,0:0:0:0:
65,233,118361,6,0,B|43:248|35:279|35:279|44:225|15:186|15:186|121:216|163:102,1,300,4|0,0:0|0:0,0:0:0:0:
260,220,119021,6,0,B|314:232|348:187|348:187|397:237|486:195,1,200,8|0,0:0|0:0,0:0:0:0:
272,67,119350,6,0,L|223:65,1,50,4|0,0:0|0:0,0:0:0:0:
65,233,119515,6,0,B|146:237|146:237|184:217|184:217|268:220,1,200,8|0,0:0|0:0,0:0:0:0:
173,62,119845,1,0,0:0:0:0:
214,312,120010,2,0,P|310:307|361:226,1,200,8|0,0:0|0:0,0:0:0:0:
173,62,120339,6,0,B|104:59|104:59|151:80,1,100,8|0,0:0|0:0,0:0:0:0:
272,67,120504,6,0,L|352:63,1,50,4|0,0:0|0:0,0:0:0:0:
454,133,120669,2,0,L|373:129,1,50,4|0,0:0|0:0,0:0:0:0:
311,229,120834,2,0,L|391:225,1,50,0|0,0:0|0:0,0:0:0:0:
214,312,120999,6,0,P|164:268|162:177,1,125,2|0,0:0|0:0,0:0:0:0:
161,173,121246,1,0,0:0:0:0:
157,193,121328,1,8,0:0:0:0:
214,312,121493,1,2,0:0:0:0:
244,314,121576,1,0,0:0:0:0:
276,331,121658,1,2,0:0:0:0:
306,333,121741,1,0,0:0:0:0:
354,318,121823,1,8,0:0:0:0:
462,132,121988,5,2,0:0:0:0:
465,91,122070,1,0,0:0:0:0:
434,118,122152,1,2,0:0:0:0:
432,143,122235,1,0,0:0:0:0:
430,168,122317,6,0,P|469:190|512:195,1,62.5,2|0,0:0|0:0,0:0:0:0:
331,317,122482,2,0,P|348:290|358:261,1,62.5,8|0,0:0|0:0,0:0:0:0:
313,164,122647,2,0,B|284:162|250:143|250:143|215:158|135:155,1,125,0|0,0:0|0:0,0:0:0:0:
118,188,122894,1,0,0:0:0:0:
102,204,122977,2,0,L|110:299,1,62.5,8|0,0:0|0:0,0:0:0:0:
171,317,123142,2,0,L|169:340,3,15.625
217,323,123306,2,0,P|280:299|334:319,1,125,0|0,0:0|0:0,0:0:0:0:
397,350,123636,6,0,P|358:330|453:323,1,300,4|0,0:0|0:0,0:0:0:0:
265,266,124295,6,0,P|366:159|513:206,1,300,8|0,0:0|0:0,0:0:0:0:
497,104,124625,6,0,P|445:87|418:85,1,50,4|0,0:0|0:0,0:0:0:0:
194,247,124790,6,0,P|239:159|319:100,1,200,8|0,0:0|0:0,0:0:0:0:
403,290,125120,1,0,0:0:0:0:
194,247,125284,6,0,B|219:192|187:127|187:127|212:171|281:191,1,200,8|0,0:0|0:0,0:0:0:0:
174,333,125614,6,0,P|132:309|106:248,1,100,8|0,0:0|0:0,0:0:0:0:
318,204,125779,6,0,P|304:225|286:242,1,50,4|0,0:0|0:0,0:0:0:0:
38,189,125944,2,0,L|28:54,1,100,6|0,0:0|0:0,0:0:0:0:
136,96,126273,5,4,0:0:0:0:
169,111,126355,1,0,0:0:0:0:
207,110,126437,1,0,0:0:0:0:
240,93,126520,1,0,0:0:0:0:
263,64,126602,1,0,0:0:0:0:
245,24,126685,1,0,0:0:0:0:
247,71,126767,1,0,0:0:0:0:
269,113,126849,1,4,0:0:0:0:
318,102,126933,6,0,B|337:137|316:184|316:184|354:248|314:306,1,200,8|0,0:0|0:0,0:0:0:0:
233,245,127180,6,0,P|208:238|183:235,1,50,4|4,0:0|0:0,0:0:0:0:
378,356,127427,6,0,P|415:249|394:157,1,200,8|0,0:0|0:0,0:0:0:0:
432,69,127674,2,0,P|479:123|528:133,1,100,4|4,0:0|0:0,0:0:0:0:
303,54,127922,6,0,B|235:49|235:49|187:78|187:78|68:68,1,200,8|0,0:0|0:0,0:0:0:0:
85,70,128169,1,4,0:0:0:0:
31,159,128251,6,0,P|28:239|87:141,1,300,8|0,0:0|0:0,0:0:0:0:
23,323,128581,6,0,P|128:322|190:263,1,150,2|0,0:0|0:0,0:0:0:0:
308,158,128911,6,0,P|202:168|163:268,1,225.000008583069,2|0,0:0|0:0,0:0:0:0:
162,298,129240,1,0,0:0:0:0:
263,251,129405,1,4,0:0:0:0:
103,195,129570,6,0,P|47:190|5:206,1,100,8|0,0:0|0:0,0:0:0:0:
193,152,129735,2,0,P|238:119|283:112,1,100,0|0,0:0|0:0,0:0:0:0:
88,112,129900,2,0,P|42:79|-2:72,1,100,0|0,0:0|0:0,0:0:0:0:
163,72,130065,6,0,P|170:47|183:26,1,50,4|0,0:0|0:0,0:0:0:0:
178,238,130229,6,0,L|167:337,1,100,4|0,0:0|0:0,0:0:0:0:
223,382,130477,1,8,0:0:0:0:
263,251,130559,6,0,B|312:253|342:179|342:179|363:241|433:248,1,200,2|0,0:0|0:0,0:0:0:0:
495,228,130806,1,0,0:0:0:0:
438,148,130889,6,0,B|428:114|438:76|438:76|448:92|448:121,1,100,8|0,0:0|0:0,0:0:0:0:
241,158,131054,6,0,P|184:144|233:84,1,150,4|0,0:0|0:0,0:0:0:0:
333,65,131383,1,8,0:0:0:0:
135,33,131548,6,0,B|113:39|79:29|79:29|40:16|-5:30,1,125,2|0,0:0|0:0,0:0:0:0:
103,195,131878,1,0,0:0:0:0:
240,83,132043,2,0,B|271:73|304:81|304:81|332:65|332:65|385:85|431:62,1,187.5,6|0,0:0|0:0,0:0:0:0:
512,138,132372,2,0,P|453:118|421:66,1,125,2|0,0:0|0:0,0:0:0:0:
506,50,132702,6,0,L|493:237,1,187.5,6|0,0:0|0:0,0:0:0:0:
409,254,133032,2,0,B|415:154|415:154|378:209|307:191,1,187.5,6|0,0:0|0:0,0:0:0:0:
305,60,133361,2,0,P|327:82|342:110,1,62.5,6|0,0:0|0:0,0:0:0:0:
245,142,133526,2,0,P|189:163|108:132,1,125,8|0,0:0|0:0,0:0:0:0:
40,211,133773,1,0,0:0:0:0:
36,229,133856,1,0,0:0:0:0:
53,239,133938,1,0,0:0:0:0:
66,226,134021,1,0,0:0:0:0:
58,210,134103,1,0,0:0:0:0:
40,211,134185,6,0,L|44:314,1,100,10|0,3:2|3:0,3:0:0:0:
126,368,134515,1,0,3:0:0:0:
203,304,134680,1,0,3:0:0:0:
227,303,134762,1,0,3:0:0:0:
252,300,134845,1,8,3:0:0:0:
44,310,135010,1,0,3:0:0:0:
211,289,135174,1,0,3:0:0:0:
235,288,135256,1,0,3:0:0:0:
260,285,135339,1,0,3:0:0:0:
284,284,135422,1,0,3:0:0:0:
309,281,135504,6,0,L|313:181,1,100,8|0,3:0|3:0,3:0:0:0:
302,157,135751,1,0,3:0:0:0:
302,157,135834,1,8,3:0:0:0:
394,274,135999,2,0,P|375:336|324:366,1,100,8|0,3:0|3:0,3:0:0:0:
317,366,136246,2,0,L|217:370,1,100,8|0,3:0|3:0,3:0:0:0:
200,382,136493,1,8,3:0:0:0:
108,307,136658,1,0,3:0:0:0:
107,283,136740,1,0,3:0:0:0:
106,259,136823,6,0,L|101:159,1,100,10|0,3:0|3:0,3:0:0:0:
12,71,137152,1,0,3:0:0:0:
101,159,137317,1,0,3:0:0:0:
125,158,137399,1,0,3:0:0:0:
150,155,137482,1,8,3:0:0:0:
0,230,137647,1,0,3:0:0:0:
114,144,137811,1,0,3:0:0:0:
138,143,137893,1,0,3:0:0:0:
163,140,137976,1,0,3:0:0:0:
187,139,138059,1,0,3:0:0:0:
212,136,138141,6,0,L|217:36,1,100,8|0,3:0|3:0,3:0:0:0:
196,27,138388,1,0,3:0:0:0:
196,27,138471,1,8,3:0:0:0:
297,129,138636,2,0,P|288:177|253:212,1,100,8|0,3:0|3:0,3:0:0:0:
209,234,138883,2,0,L|204:333,1,100,8|0,3:0|3:0,3:0:0:0:
223,352,139131,1,8,3:0:0:0:
293,178,139295,1,0,3:0:0:0:
294,154,139378,1,0,3:0:0:0:
297,129,139460,6,0,P|271:136|223:124,1,50,6|0,0:0|0:0,0:0:0:0:
146,131,139625,2,0,P|172:124|220:136,1,50,0|0,0:0|0:0,0:0:0:0:
294,148,139790,2,0,P|267:148|224:124,1,55.0000016784668,0|0,0:0|0:0,0:0:0:0:
148,111,139955,2,0,P|175:111|218:135,1,55.0000016784668,0|0,0:0|0:0,0:0:0:0:
287,166,140120,2,0,P|261:159|225:125,1,59.9999981689454,0|0,0:0|0:0,0:0:0:0:
155,93,140284,2,0,P|181:100|217:134,1,59.9999981689454,0|0,0:0|0:0,0:0:0:0:
275,182,140449,2,0,P|252:169|226:126,1,64.9999970245363,0|0,0:0|0:0,0:0:0:0:
167,77,140613,2,0,P|190:90|216:133,1,64.9999970245363,0|0,0:0|0:0,0:0:0:0:
286,200,140779,6,0,P|256:178|236:147,1,75.0000028610231,6|0,0:0|0:0,0:0:0:0:
156,59,140943,2,0,P|186:81|206:112,1,75.0000028610231,0|0,0:0|0:0,0:0:0:0:
312,183,141109,2,0,P|274:171|243:146,1,80,0|0,0:0|0:0,0:0:0:0:
135,77,141273,2,0,P|173:91|205:116,1,80,0|0,0:0|0:0,0:0:0:0:
332,161,141438,2,0,P|290:158|251:142,1,85.0000016212464,0|0,0:0|0:0,0:0:0:0:
110,99,141602,2,0,P|152:101|191:117,1,85.0000016212464,0|0,0:0|0:0,0:0:0:0:
347,132,141768,2,0,P|302:140|258:136,1,89.9999972534181,0|0,0:0|0:0,0:0:0:0:
90,139,141933,2,0,P|136:130|182:136,1,89.9999972534181,0|0,0:0|0:0,0:0:0:0:
326,265,142098,6,0,P|324:286|330:315,6,37.5000014305115,6|0|0|0|0|0|0,0:0|0:0|0:0|0:0|0:0|0:0|0:0,0:0:0:0:
339,238,142427,6,0,P|340:213|336:188,6,50
352,265,142757,6,0,P|363:285|370:251,6,83.3333333333333,6|0|0|0|0|0|0,0:0|0:0|0:0|0:0|0:0|0:0|0:0,0:0:0:0:
360,245,143087,6,0,P|391:218|380:267,6,125,0|0|0|0|0|0|0,0:0|0:0|0:0|0:0|0:0|0:0|0:0,0:0:0:0:
304,263,143416,6,0,P|254:277|174:217,1,100,4|0,0:0|0:0,0:0:0:0:
170,197,143581,2,0,P|181:147|273:107,1,100,2|0,0:0|0:0,0:0:0:0:
292,112,143746,2,0,P|329:148|318:247,1,100,2|0,0:0|0:0,0:0:0:0:
210,284,143911,6,0,P|166:242|179:122,1,100,0|0,0:0|0:0,0:0:0:0:
198,105,144076,2,0,P|257:87|354:160,1,100,2|0,0:0|0:0,0:0:0:0:
359,182,144241,2,0,P|345:242|234:290,1,100,2|0,0:0|0:0,0:0:0:0:
253,179,144405,6,0,B|240:180|234:201|250:219|278:203|275:190|266:171|250:178,1,75,8|0,0:0|0:0,0:0:0:0:
255,177,144735,6,0,L|39:187,1,150.000005722046,4|0,0:0|0:0,0:0:0:0:
320,270,145065,2,0,L|469:262,1,150.000005722046,8|0,0:0|0:0,0:0:0:0:
485,190,145312,2,0,P|470:151|484:71,1,75.0000028610231,0|0,0:0|0:0,0:0:0:0:
377,35,145477,1,0,0:0:0:0:
382,53,145559,2,0,P|379:90|365:124,1,75.0000028610231,4|0,0:0|0:0,0:0:0:0:
469,262,145724,2,0,P|483:227|485:190,1,75.0000028610231,10|0,0:0|0:0,0:0:0:0:
281,66,145889,1,0,0:0:0:0:
253,67,145971,1,0,0:0:0:0:
225,70,146054,6,0,B|192:79|166:67|166:67|142:78|142:78|102:63|34:84,1,150.000005722046,4|0,0:0|0:0,0:0:0:0:
287,314,146383,2,0,B|320:305|346:317|346:317|370:306|370:306|410:321|478:300,1,150.000005722046,8|0,0:0|0:0,0:0:0:0:
485,190,146631,2,0,P|482:152|468:118,1,75.0000028610231,0|0,0:0|0:0,0:0:0:0:
286,146,146795,1,0,0:0:0:0:
281,164,146877,2,0,P|283:201|297:235,1,75.0000028610231,4|0,0:0|0:0,0:0:0:0:
383,177,147043,2,0,L|388:284,1,75.0000028610231,10|0,0:0|0:0,0:0:0:0:
465,336,147207,2,0,L|468:261,1,75.0000028610231,0|0,0:0|0:0,0:0:0:0:
353,28,147372,6,0,L|363:238,1,150.000005722046,4|0,0:0|0:0,0:0:0:0:
287,314,147620,1,0,0:0:0:0:
269,319,147702,2,0,P|231:316|197:302,1,75.0000028610231,8|0,0:0|0:0,0:0:0:0:
119,210,147867,1,0,0:0:0:0:
118,182,147949,1,0,0:0:0:0:
115,154,148032,2,0,L|111:79,1,75.0000028610231,0|0,0:0|0:0,0:0:0:0:
256,109,148196,2,0,L|259:34,1,75.0000028610231,4|0,0:0|0:0,0:0:0:0:
82,270,148361,2,0,L|74:120,1,150.000005722046,10|0,0:0|0:0,0:0:0:0:
196,180,148609,1,0,0:0:0:0:
207,200,148691,6,0,P|269:214|354:148,1,150.000005722046,4|0,0:0|0:0,0:0:0:0:
125,32,149021,2,0,L|117:181,1,150.000005722046,8|0,0:0|0:0,0:0:0:0:
107,314,149268,1,0,0:0:0:0:
125,319,149350,2,0,P|162:316|196:302,1,75.0000028610231,0|0,0:0|0:0,0:0:0:0:
340,174,149515,1,4,0:0:0:0:
341,202,149597,1,0,0:0:0:0:
344,230,149680,2,0,L|347:304,1,75.0000028610231,10|0,0:0|0:0,0:0:0:0:
467,129,149845,2,0,L|463:203,1,75.0000028610231,0|0,0:0|0:0,0:0:0:0:
255,9,150010,6,0,B|264:43|252:75|252:75|264:100|264:100|257:132|263:168,1,150.000005722046,4|0,0:0|0:0,0:0:0:0:
456,349,150339,2,0,B|460:326|453:294|453:294|465:269|465:269|453:237|462:203,1,150.000005722046,8|0,0:0|0:0,0:0:0:0:
382,227,150587,2,0,P|344:224|310:210,1,75.0000028610231,0|0,0:0|0:0,0:0:0:0:
473,113,150751,1,0,0:0:0:0:
478,131,150833,2,0,P|476:168|462:202,1,75.0000028610231,4|0,0:0|0:0,0:0:0:0:
347,304,150999,2,0,L|272:301,1,75.0000028610231,10|0,0:0|0:0,0:0:0:0:
146,179,151163,2,0,L|71:182,1,75.0000028610231
227,241,151328,6,0,P|247:169|201:93,1,150.000005722046,4|0,0:0|0:0,0:0:0:0:
370,363,151658,2,0,P|350:291|396:215,1,150.000005722046,8|0,0:0|0:0,0:0:0:0:
478,131,151905,2,0,L|403:128,1,75.0000028610231,0|0,0:0|0:0,0:0:0:0:
227,241,152070,1,0,0:0:0:0:
199,242,152152,1,4,0:0:0:0:
169,232,152235,1,0,0:0:0:0:
141,231,152317,2,0,L|138:156,1,75.0000028610231,10|0,0:0|0:0,0:0:0:0:
219,29,152482,2,0,L|215:103,1,75.0000028610231,0|0,0:0|0:0,0:0:0:0:
327,229,152647,6,0,P|399:241|460:201,1,150.000005722046,4|0,0:0|0:0,0:0:0:0:
265,169,152977,2,0,P|246:204|247:267,1,75.0000028610231,8|0,0:0|0:0,0:0:0:0:
377,141,153142,2,0,P|334:75|262:52,1,150.000005722046,0|0,0:0|0:0,0:0:0:0:
148,108,153389,1,0,0:0:0:0:
153,126,153471,2,0,P|151:163|137:197,1,75.0000028610231,4|0,0:0|0:0,0:0:0:0:
83,293,153636,2,0,L|233:301,1,150.000005722046,10|0,0:0|0:0,0:0:0:0:
327,229,153883,1,0,0:0:0:0:
330,201,153966,6,0,B|339:168|327:142|327:142|338:118|338:118|326:80|348:15,1,150.000005722046,4|0,0:0|0:0,0:0:0:0:
87,53,154295,1,8,0:0:0:0:
137,245,154460,1,4,0:0:0:0:
152,258,154543,1,0,0:0:0:0:
167,271,154625,2,0,P|204:273|238:287,1,75.0000028610231,2|0,0:0|0:0,0:0:0:0:
460,337,154790,2,0,P|422:334|388:320,1,75.0000028610231,6|0,0:0|0:0,0:0:0:0:
327,229,154955,1,10,0:0:0:0:
343,195,155037,1,8,0:0:0:0:
348,158,155119,1,8,0:0:0:0:
340,122,155202,1,8,0:0:0:0:
289,84,155284,6,0,L|73:94,1,150.000005722046,4|0,0:0|0:0,0:0:0:0:
311,346,155614,2,0,L|460:338,1,150.000005722046,8|0,0:0|0:0,0:0:0:0:
490,248,155861,2,0,P|475:209|489:129,1,75.0000028610231,0|0,0:0|0:0,0:0:0:0:
391,62,156026,1,0,0:0:0:0:
401,90,156108,2,0,P|398:127|384:161,1,75.0000028610231,4|0,0:0|0:0,0:0:0:0:
181,303,156273,2,0,P|195:269|198:232,1,75.0000028610231,10|0,0:0|0:0,0:0:0:0:
211,49,156438,1,0,0:0:0:0:
178,50,156520,1,0,0:0:0:0:
145,53,156603,6,0,B|112:62|86:50|86:50|62:61|62:61|22:46|-46:67,1,150.000005722046,4|0,0:0|0:0,0:0:0:0:
198,232,156933,2,0,B|231:223|257:235|257:235|281:224|281:224|321:239|389:218,1,150.000005722046,8|0,0:0|0:0,0:0:0:0:
331,331,157180,2,0,P|368:328|402:314,1,75.0000028610231,0|0,0:0|0:0,0:0:0:0:
385,137,157344,1,0,0:0:0:0:
357,127,157427,2,0,P|320:129|286:143,1,75.0000028610231,4|0,0:0|0:0,0:0:0:0:
343,228,157592,2,0,L|417:224,1,75.0000028610231,10|0,0:0|0:0,0:0:0:0:
190,101,157757,2,0,L|115:97,1,75.0000028610231,0|0,0:0|0:0,0:0:0:0:
363,209,157922,6,0,L|512:201,1,150.000005722046,4|0,0:0|0:0,0:0:0:0:
412,309,158169,1,0,0:0:0:0:
384,319,158251,2,0,P|346:316|312:302,1,75.0000028610231,8|0,0:0|0:0,0:0:0:0:
198,242,158416,1,0,0:0:0:0:
197,209,158498,1,0,0:0:0:0:
194,176,158581,2,0,L|190:101,1,75.0000028610231,0|0,0:0|0:0,0:0:0:0:
335,131,158745,2,0,L|338:56,1,75.0000028610231,4|0,0:0|0:0,0:0:0:0:
100,315,158911,2,0,L|92:165,1,150.000005722046,10|0,0:0|0:0,0:0:0:0:
270,197,159158,1,0,0:0:0:0:
286,222,159240,6,0,P|348:236|433:170,1,150.000005722046,4|0,0:0|0:0,0:0:0:0:
23,100,159570,2,0,L|31:249,1,150.000005722046,8|0,0:0|0:0,0:0:0:0:
100,315,159817,1,0,0:0:0:0:
123,330,159899,2,0,P|160:327|194:313,1,75.0000028610231
282,166,160064,1,4,0:0:0:0:
283,194,160146,1,0,0:0:0:0:
286,222,160229,2,0,L|289:296,1,75.0000028610231,10|0,0:0|0:0,0:0:0:0:
489,122,160394,2,0,L|485:196,1,75.0000028610231,0|0,0:0|0:0,0:0:0:0:
275,20,160559,6,0,B|284:54|272:86|272:86|284:111|284:111|277:143|283:179,1,150.000005722046,4|0,0:0|0:0,0:0:0:0:
100,315,160889,2,0,B|104:292|97:260|97:260|109:235|109:235|97:203|106:169,1,150.000005722046,8|0,0:0|0:0,0:0:0:0:
209,148,161136,2,0,P|243:163|281:165,1,75.0000028610231
367,220,161300,1,0,0:0:0:0:
350,242,161383,2,0,P|352:279|366:313,1,75.0000028610231,4|0,0:0|0:0,0:0:0:0:
467,129,161548,2,0,L|392:126,1,75.0000028610231,10|0,0:0|0:0,0:0:0:0:
210,218,161712,2,0,L|285:221,1,75.0000028610231,0|0,0:0|0:0,0:0:0:0:
487,139,161878,6,0,L|479:288,1,150.000005722046,4|0,0:0|0:0,0:0:0:0:
91,165,162207,2,0,L|99:314,1,150.000005722046,8|0,0:0|0:0,0:0:0:0:
220,319,162455,1,0,0:0:0:0:
228,290,162537,2,0,P|225:253|211:219,1,75.0000028610231,0|0,0:0|0:0,0:0:0:0:
183,54,162702,1,4,0:0:0:0:
211,55,162784,1,0,0:0:0:0:
239,58,162867,2,0,L|314:62,1,75.0000028610231,10|0,0:0|0:0,0:0:0:0:
371,168,163032,1,0,0:0:0:0:
399,167,163114,1,8,0:0:0:0:
427,164,163197,6,0,B|463:162|484:130|484:130|494:271,1,150.000005722046,6|0,0:0|0:0,0:0:0:0:
210,218,163526,2,0,L|135:214,1,75.0000028610231,0|0,0:0|0:0,0:0:0:0:
72,148,163691,1,4,0:0:0:0:
265,150,163856,6,0,P|297:223|249:295,1,150.000005722046,8|0,0:0|0:0,0:0:0:0:
135,214,164350,1,4,0:0:0:0:
242,26,164515,5,6,0:0:0:0:
256,192,164598,12,0,165504,0:0:0:0:
201,271,165834,6,0,B|158:289|110:271|110:271|60:246|-16:286,1,175.00000166893,4|0,0:0|0:0,0:0:0:0:
311,113,166163,2,0,B|354:95|402:113|402:113|452:138|528:98,1,175.00000166893,8|0,0:0|0:0,0:0:0:0:
505,236,166411,2,0,P|511:278|497:319,1,87.500000834465,0|0,0:0|0:0,0:0:0:0:
348,308,166576,1,0,0:0:0:0:
341,262,166658,2,0,P|356:221|389:193,1,87.500000834465,4|0,0:0|0:0,0:0:0:0:
426,272,166823,2,0,B|426:342|426:342|397:294,1,87.500000834465,10|0,0:0|0:0,0:0:0:0:
255,232,166988,1,0,0:0:0:0:
254,194,167070,1,0,0:0:0:0:
251,156,167153,6,0,B|236:128|246:85|246:85|216:174|87:139,1,175.00000166893,4|0,0:0|0:0,0:0:0:0:
387,40,167482,2,0,B|402:68|392:111|392:111|422:22|551:57,1,175.00000166893,8|0,0:0|0:0,0:0:0:0:
474,134,167729,2,0,L|470:221,1,87.500000834465,0|0,0:0|0:0,0:0:0:0:
358,329,167894,1,0,0:0:0:0:
335,339,167976,2,0,P|292:345|251:331,1,87.500000834465,4|0,0:0|0:0,0:0:0:0:
202,224,168142,2,0,P|217:183|250:155,1,87.500000834465,10|0,0:0|0:0,0:0:0:0:
368,166,168306,2,0,P|394:199|403:242,1,87.500000834465,0|0,0:0|0:0,0:0:0:0:
138,317,168471,6,0,B|34:325|34:325|75:312|114:263,1,175.00000166893,4|0,0:0|0:0,0:0:0:0:
230,86,168718,1,0,0:0:0:0:
246,85,168801,2,0,B|350:77|350:77|309:90|270:139,1,175.00000166893,8|0,0:0|0:0,0:0:0:0:
291,238,169048,1,0,0:0:0:0:
324,252,169131,2,0,P|366:243|400:216,1,87.500000834465,0|0,0:0|0:0,0:0:0:0:
154,114,169295,1,4,0:0:0:0:
126,115,169377,1,0,0:0:0:0:
98,118,169460,2,0,B|51:120|51:120|114:148,1,87.500000834465,10|0,0:0|0:0,0:0:0:0:
403,129,169625,1,0,0:0:0:0:
431,128,169707,1,0,0:0:0:0:
459,125,169790,6,0,B|507:123|507:123|447:175|471:261,1,175.00000166893,4|0,0:0|0:0,0:0:0:0:
138,317,170120,2,0,B|90:319|90:319|150:267|126:181,1,175.00000166893,8|0,0:0|0:0,0:0:0:0:
98,118,170367,1,0,0:0:0:0:
80,92,170449,2,0,P|73:49|87:8,1,87.500000834465
303,21,170614,2,0,P|260:29|227:57,1,87.500000834465,4|0,0:0|0:0,0:0:0:0:
285,189,170779,2,0,B|334:199|356:239|356:239|391:201|460:211,1,175.00000166893,10|0,0:0|0:0,0:0:0:0:
441,334,171026,1,0,0:0:0:0:
425,298,171109,6,0,B|434:273|423:234|423:234|433:209|433:209|411:162|439:112,1,175.00000166893,4|0,0:0|0:0,0:0:0:0:
79,114,171438,2,0,B|95:147|77:194|77:194|87:219|87:219|76:258|85:283,1,175.00000166893,8|0,0:0|0:0,0:0:0:0:
166,256,171685,2,0,P|208:264|242:291,1,87.500000834465,0|0,0:0|0:0,0:0:0:0:
323,318,171850,1,0,0:0:0:0:
342,299,171933,2,0,P|375:272|418:263,1,87.500000834465,4|0,0:0|0:0,0:0:0:0:
431,128,172098,2,0,L|339:124,1,87.500000834465,10|0,0:0|0:0,0:0:0:0:
153,120,172262,2,0,L|244:116,1,87.500000834465
134,211,172427,6,0,P|65:150|93:49,1,175.00000166893,4|0,0:0|0:0,0:0:0:0:
511,81,172757,2,0,P|515:166|450:219,1,175.00000166893,8|0,0:0|0:0,0:0:0:0:
415,226,173004,2,0,B|352:220|325:162|325:162|322:212|362:275,1,175.00000166893,0|0,0:0|0:0,0:0:0:0:
431,128,173251,1,4,0:0:0:0:
430,100,173333,1,0,0:0:0:0:
427,72,173416,2,0,B|425:25|425:25|397:88,1,87.500000834465,10|0,0:0|0:0,0:0:0:0:
342,299,173581,2,0,B|325:335|325:335|323:288,1,87.500000834465
281,57,173746,6,0,B|248:48|222:60|222:60|198:49|198:49|141:68|92:39,1,175.00000166893,4|0,0:0|0:0,0:0:0:0:
262,192,174076,2,0,B|247:205|247:205|255:138,1,87.500000834465,8|0,0:0|0:0,0:0:0:0:
100,114,174240,2,0,B|116:85|111:48|111:48|138:106|115:152,1,175.00000166893
26,216,174488,1,0,0:0:0:0:
15,255,174570,2,0,P|17:292|48:337,1,87.500000834465,4|0,0:0|0:0,0:0:0:0:
280,272,174735,2,0,L|106:264,1,175.00000166893,10|0,0:0|0:0,0:0:0:0:
415,325,174982,1,0,0:0:0:0:
418,297,175065,6,0,B|427:264|415:238|415:238|426:214|426:214|414:176|436:111,1,175.00000166893,4|0,0:0|0:0,0:0:0:0:
87,53,175394,1,8,0:0:0:0:
243,224,175559,1,0,0:0:0:0:
290,222,175641,1,0,0:0:0:0:
338,217,175724,2,0,L|426:214,1,87.500000834465,2|0,0:0|0:0,0:0:0:0:
87,53,175889,2,0,L|-1:49,1,87.500000834465,6|0,0:0|0:0,0:0:0:0:
394,326,176054,1,8,0:0:0:0:
426,275,176136,1,8,0:0:0:0:
426,214,176218,1,8,0:0:0:0:
393,164,176301,1,8,0:0:0:0:
338,140,176383,6,0,B|305:131|279:143|279:143|255:132|255:132|198:151|149:122,1,175.00000166893,10|0,0:0|0:0,0:0:0:0:
43,333,176713,2,0,B|74:324|100:336|100:336|124:325|124:325|181:344|211:324,1,175.00000166893,8|0,0:0|0:0,0:0:0:0:
394,326,176960,2,0,P|435:340|477:333,1,87.500000834465
243,224,177125,1,0,0:0:0:0:
223,208,177207,2,0,P|209:167|216:124,1,87.500000834465,4|0,0:0|0:0,0:0:0:0:
492,40,177372,2,0,L|479:299,1,175.00000166893,10|0,0:0|0:0,0:0:0:0:
394,326,177620,1,0,0:0:0:0:
365,342,177702,6,0,P|274:323|248:222,1,175.00000166893,4|0,0:0|0:0,0:0:0:0:
51,61,178032,2,0,P|89:135|173:148,1,175.00000166893,8|0,0:0|0:0,0:0:0:0:
299,140,178279,2,0,L|386:135,1,87.500000834465,0|0,0:0|0:0,0:0:0:0:
210,225,178444,1,0,0:0:0:0:
177,226,178526,2,0,L|89:230,1,87.500000834465,4|0,0:0|0:0,0:0:0:0:
424,213,178691,2,0,P|458:186|473:145,1,87.500000834465,10|0,0:0|0:0,0:0:0:0:
260,61,178856,2,0,P|226:87|211:128,1,87.500000834465,0|0,0:0|0:0,0:0:0:0:
57,338,179021,6,0,L|48:163,1,175.00000166893,4|0,0:0|0:0,0:0:0:0:
210,225,179268,1,0,0:0:0:0:
228,243,179350,2,0,P|261:270|304:278,1,87.500000834465,8|0,0:0|0:0,0:0:0:0:
425,213,179515,1,0,0:0:0:0:
424,185,179597,1,0,0:0:0:0:
421,157,179680,2,0,L|416:69,1,87.500000834465,0|0,0:0|0:0,0:0:0:0:
177,16,179845,2,0,L|181:103,1,87.500000834465,4|0,0:0|0:0,0:0:0:0:
456,299,180010,2,0,L|447:124,1,175.00000166893,10|0,0:0|0:0,0:0:0:0:
264,148,180257,1,0,0:0:0:0:
248,175,180339,6,0,P|170:203|92:106,1,175.00000166893,4|0,0:0|0:0,0:0:0:0:
401,46,180669,2,0,L|392:220,1,175.00000166893,8|0,0:0|0:0,0:0:0:0:
226,269,180916,1,0,0:0:0:0:
207,274,180998,2,0,P|170:275|93:252,1,87.500000834465
447,124,181163,1,4,0:0:0:0:
446,152,181245,1,0,0:0:0:0:
443,180,181328,2,0,L|438:267,1,87.500000834465,10|0,0:0|0:0,0:0:0:0:
183,115,181493,1,8,0:0:0:0:
185,77,181575,1,8,0:0:0:0:
187,40,181658,6,0,P|228:50|275:40,1,50,4|0,0:0|0:0,0:0:0:0:
401,46,181823,6,0,P|360:36|313:46,1,55.0000016784668,0|0,0:0|0:0,0:0:0:0:
187,40,181988,2,0,P|227:49|274:39,1,59.9999981689454,0|0,0:0|0:0,0:0:0:0:
401,46,182152,6,0,P|360:36|313:46,1,64.9999970245363,0|0,0:0|0:0,0:0:0:0:
187,40,182317,2,0,P|228:50|275:40,1,69.9999978637696,0|0,0:0|0:0,0:0:0:0:
401,46,182482,6,0,P|360:36|313:46,1,75.0000028610231,0|0,0:0|0:0,0:0:0:0:
187,40,182647,2,0,P|228:50|275:40,1,80,0|0,0:0|0:0,0:0:0:0:
443,180,182812,5,4,0:0:0:0:
442,208,182894,1,4,0:0:0:0:
439,236,182977,2,0,P|404:264|356:267,1,69.9999978637696,4|0,0:0|0:0,0:0:0:0:
121,324,183142,2,0,P|156:296|204:293,1,75.0000028610231,0|0,0:0|0:0,0:0:0:0:
439,236,183306,2,0,P|404:264|356:267,1,80,0|0,0:0|0:0,0:0:0:0:
121,324,183471,2,0,P|156:296|204:293,1,85.0000016212464,0|0,0:0|0:0,0:0:0:0:
439,236,183636,2,0,P|404:264|356:267,1,89.9999972534181,0|0,0:0|0:0,0:0:0:0:
121,324,183801,2,0,P|156:296|204:293,1,94.9999974632264,0|0,0:0|0:0,0:0:0:0:
439,236,183966,2,0,P|402:265|339:259,1,100,0|0,0:0|0:0,0:0:0:0:
148,220,184131,5,0,0:0:0:0:
120,219,184213,1,0,0:0:0:0:
92,216,184296,2,0,P|64:181|60:117,1,100,4|0,0:0|0:0,0:0:0:0:
131,111,184460,5,4,0:0:0:0:
174,129,184542,1,0,0:0:0:0:
223,132,184624,1,4,0:0:0:0:
268,115,184707,1,0,0:0:0:0:
294,80,184789,1,4,0:0:0:0:
335,53,184872,1,0,0:0:0:0:
384,42,184955,5,8,0:0:0:0:
439,65,185037,1,0,0:0:0:0:
475,112,185119,1,4,0:0:0:0:
483,170,185202,1,0,0:0:0:0:
460,225,185284,1,4,0:0:0:0:
413,262,185367,1,0,0:0:0:0:
355,269,185449,1,4,0:0:0:0:
299,217,185531,1,0,0:0:0:0:
234,252,185614,6,0,L|230:336,1,75.0000028610231,4|0,0:0|0:0,0:0:0:0:
92,253,185779,5,2,0:0:0:0:
150,205,185861,1,0,0:0:0:0:
167,131,185944,1,10,0:0:0:0:
144,59,186026,2,0,P|102:22|47:24,1,75.0000028610231
317,296,186191,1,2,0:0:0:0:
380,293,186274,1,2,0:0:0:0:
426,250,186356,2,0,L|429:175,1,75.0000028610231,2|0,0:0|0:0,0:0:0:0:
256,192,186521,1,2,0:0:0:0:
256,192,186603,2,0,B|266:221|256:240|256:240|288:192|256:144,1,150.000005722046,4|0,0:0|0:0,0:0:0:0:
162,191,186933,5,0,0:0:0:0:
256,192,187015,12,0,189570,0:0:0:0:
