osu file format v14

[General]
AudioFilename: audio.mp3
AudioLeadIn: 0
PreviewTime: 21513
Countdown: 0
SampleSet: Normal
StackLeniency: 0.7
Mode: 3
LetterboxInBreaks: 0
SpecialStyle: 0
WidescreenStoryboard: 0

[Editor]
DistanceSpacing: 1
BeatDivisor: 4
GridSize: 4
TimelineZoom: 1.119999

[Metadata]
Title:haitai but it's piano ver
TitleUnicode:haitai but it's piano ver
Artist:jhlee0133
ArtistUnicode:jhlee0133
Creator:x Arow
Version:Mage's NM
Source:はいたい七葉
Tags:haitai nanafa yuimaru world piano meme ending Arow Gemu Charlotte Mage Maxus Tofu1222 mbomb
BeatmapID:1394024
BeatmapSetID:650760

[Difficulty]
HPDrainRate:7.5
CircleSize:4
OverallDifficulty:7.2
ApproachRate:5
SliderMultiplier:0.800000005960464
SliderTickRate:1

[Events]
//Background and Video events
0,0,"justsomevirtuososplazinginpool.jpg",0,0
//Break Periods
//Storyboard Layer 0 (Background)
//Storyboard Layer 1 (Fail)
//Storyboard Layer 2 (Pass)
//Storyboard Layer 3 (Foreground)
//Storyboard Sound Samples

[TimingPoints]
179.851141242676,333.333333333333,4,1,0,5,1,0
21513,-100,4,1,0,5,0,1
30679,-100,4,1,0,5,0,0
32179,-100,4,1,0,5,0,1
40179,-100,4,1,0,5,0,0

[Colours]
Combo1 : 255,128,192
Combo2 : 0,255,168
Combo3 : 253,234,96
Combo4 : 0,191,255

[HitObjects]
320,192,179,5,0,0:0:0:0:
320,192,346,1,0,0:0:0:0:
64,192,513,1,0,0:0:0:0:
192,192,679,1,0,0:0:0:0:
448,192,846,1,0,0:0:0:0:
192,192,1179,1,0,0:0:0:0:
320,192,1346,1,0,0:0:0:0:
64,192,1513,1,0,0:0:0:0:
192,192,1679,1,0,0:0:0:0:
448,192,1846,1,0,0:0:0:0:
64,192,2013,1,0,0:0:0:0:
320,192,2179,1,0,0:0:0:0:
320,192,2513,1,0,0:0:0:0:
192,192,2846,1,0,0:0:0:0:
192,192,3013,1,0,0:0:0:0:
448,192,3179,1,0,0:0:0:0:
320,192,3346,1,0,0:0:0:0:
64,192,3513,1,0,0:0:0:0:
448,192,3679,1,0,0:0:0:0:
192,192,3846,1,0,0:0:0:0:
320,192,4013,1,0,0:0:0:0:
64,192,4179,1,0,0:0:0:0:
192,192,4346,1,0,0:0:0:0:
448,192,4513,1,0,0:0:0:0:
320,192,4679,1,0,0:0:0:0:
64,192,4846,1,0,0:0:0:0:
448,192,5179,1,0,0:0:0:0:
192,192,5513,1,0,0:0:0:0:
192,192,5679,1,0,0:0:0:0:
448,192,5846,1,0,0:0:0:0:
64,192,6013,1,0,0:0:0:0:
320,192,6179,1,0,0:0:0:0:
448,192,6346,1,0,0:0:0:0:
192,192,6513,1,0,0:0:0:0:
64,192,6679,1,0,0:0:0:0:
448,192,6846,1,0,0:0:0:0:
192,192,7013,1,0,0:0:0:0:
320,192,7179,1,0,0:0:0:0:
64,192,7346,1,0,0:0:0:0:
192,192,7513,1,0,0:0:0:0:
192,192,7846,1,0,0:0:0:0:
320,192,8179,1,0,0:0:0:0:
320,192,8346,1,0,0:0:0:0:
64,192,8513,1,0,0:0:0:0:
448,192,8679,1,0,0:0:0:0:
192,192,8846,1,0,0:0:0:0:
320,192,9013,1,0,0:0:0:0:
64,192,9179,1,0,0:0:0:0:
192,192,9346,1,0,0:0:0:0:
448,192,9513,1,0,0:0:0:0:
320,192,9679,5,0,0:0:0:0:
192,192,9846,1,0,0:0:0:0:
64,192,10013,1,0,0:0:0:0:
448,192,10179,1,0,0:0:0:0:
320,192,10179,1,0,0:0:0:0:
192,192,10513,1,0,0:0:0:0:
64,192,10846,128,0,11513:0:0:0:0:
448,192,11013,1,0,0:0:0:0:
192,192,11179,1,0,0:0:0:0:
320,192,11346,1,0,0:0:0:0:
448,192,11513,128,0,11846:0:0:0:0:
64,192,11679,1,0,0:0:0:0:
192,192,11846,128,0,12179:0:0:0:0:
448,192,12013,1,0,0:0:0:0:
320,192,12179,128,0,13179:0:0:0:0:
64,192,12346,1,0,0:0:0:0:
448,192,12513,1,0,0:0:0:0:
192,192,12679,1,0,0:0:0:0:
64,192,12846,1,0,0:0:0:0:
448,192,13013,1,0,0:0:0:0:
64,192,13179,128,0,13346:0:0:0:0:
192,192,13346,128,0,13513:0:0:0:0:
448,192,13513,128,0,13846:0:0:0:0:
192,192,13679,1,0,0:0:0:0:
320,192,13846,128,0,14179:0:0:0:0:
64,192,14013,1,0,0:0:0:0:
192,192,14179,128,0,14513:0:0:0:0:
320,192,14346,1,0,0:0:0:0:
64,192,14513,128,0,14846:0:0:0:0:
192,192,14679,1,0,0:0:0:0:
320,192,14846,128,0,16179:0:0:0:0:
448,192,15013,1,0,0:0:0:0:
192,192,15179,1,0,0:0:0:0:
64,192,15346,1,0,0:0:0:0:
448,192,15513,1,0,0:0:0:0:
64,192,15679,1,0,0:0:0:0:
192,192,15846,1,0,0:0:0:0:
448,192,16013,1,0,0:0:0:0:
64,192,16179,1,0,0:0:0:0:
192,192,16346,1,0,0:0:0:0:
64,192,16513,1,0,0:0:0:0:
320,192,16679,1,0,0:0:0:0:
192,192,16846,1,0,0:0:0:0:
448,192,17013,1,0,0:0:0:0:
192,192,17179,1,0,0:0:0:0:
64,192,17346,1,0,0:0:0:0:
320,192,17513,1,0,0:0:0:0:
192,192,17679,1,0,0:0:0:0:
320,192,17846,1,0,0:0:0:0:
64,192,18013,1,0,0:0:0:0:
448,192,18179,1,0,0:0:0:0:
192,192,18346,1,0,0:0:0:0:
448,192,18513,1,0,0:0:0:0:
320,192,18679,1,0,0:0:0:0:
64,192,18846,1,0,0:0:0:0:
192,192,19013,1,0,0:0:0:0:
448,192,19179,1,0,0:0:0:0:
64,192,19346,1,0,0:0:0:0:
320,192,19513,1,0,0:0:0:0:
192,192,19679,1,0,0:0:0:0:
64,192,19846,1,0,0:0:0:0:
320,192,20013,1,0,0:0:0:0:
448,192,20013,1,0,0:0:0:0:
320,192,20346,1,0,0:0:0:0:
320,192,20513,1,0,0:0:0:0:
192,192,20679,1,0,0:0:0:0:
192,192,20846,1,0,0:0:0:0:
448,192,21013,1,0,0:0:0:0:
320,192,21096,1,0,0:0:0:0:
192,192,21179,1,0,0:0:0:0:
64,192,21263,1,0,0:0:0:0:
448,192,21346,1,0,0:0:0:0:
64,192,21513,128,0,21679:0:0:0:0:
320,192,21679,1,0,0:0:0:0:
64,192,21846,128,0,22013:0:0:0:0:
448,192,22013,1,0,0:0:0:0:
192,192,22179,1,0,0:0:0:0:
64,192,22346,1,0,0:0:0:0:
448,192,22513,1,0,0:0:0:0:
320,192,22679,1,0,0:0:0:0:
64,192,22846,128,0,23013:0:0:0:0:
192,192,23013,128,0,23179:0:0:0:0:
320,192,23179,128,0,23346:0:0:0:0:
448,192,23346,128,0,23513:0:0:0:0:
64,192,23513,1,0,0:0:0:0:
192,192,23679,128,0,23846:0:0:0:0:
320,192,23846,128,0,24013:0:0:0:0:
64,192,24013,128,0,24179:0:0:0:0:
448,192,24179,128,0,24346:0:0:0:0:
192,192,24346,1,0,0:0:0:0:
448,192,24513,128,0,24679:0:0:0:0:
64,192,24679,1,0,0:0:0:0:
320,192,24846,1,0,0:0:0:0:
448,192,25013,1,0,0:0:0:0:
192,192,25179,1,0,0:0:0:0:
64,192,25346,1,0,0:0:0:0:
448,192,25513,128,0,25679:0:0:0:0:
320,192,25679,128,0,25846:0:0:0:0:
192,192,25846,128,0,26013:0:0:0:0:
64,192,26013,128,0,26179:0:0:0:0:
64,192,26346,1,0,0:0:0:0:
448,192,26513,1,0,0:0:0:0:
192,192,26679,1,0,0:0:0:0:
64,192,26846,128,0,27013:0:0:0:0:
448,192,26846,128,0,27013:0:0:0:0:
320,192,27013,128,0,27179:0:0:0:0:
192,192,27179,128,0,27346:0:0:0:0:
448,192,27179,128,0,27346:0:0:0:0:
64,192,27346,128,0,27513:0:0:0:0:
64,192,27679,1,0,0:0:0:0:
320,192,27846,1,0,0:0:0:0:
192,192,28013,1,0,0:0:0:0:
64,192,28179,128,0,28346:0:0:0:0:
448,192,28179,128,0,28346:0:0:0:0:
192,192,28346,128,0,28513:0:0:0:0:
320,192,28513,128,0,28679:0:0:0:0:
64,192,28513,128,0,28679:0:0:0:0:
448,192,28679,128,0,28846:0:0:0:0:
448,192,29013,1,0,0:0:0:0:
192,192,29179,1,0,0:0:0:0:
320,192,29346,128,0,29513:0:0:0:0:
192,192,29513,128,0,29679:0:0:0:0:
448,192,29679,1,0,0:0:0:0:
64,192,29846,128,0,30013:0:0:0:0:
320,192,30013,1,0,0:0:0:0:
192,192,30179,128,0,30346:0:0:0:0:
320,192,30346,128,0,30513:0:0:0:0:
64,192,30513,1,0,0:0:0:0:
448,192,30679,1,0,0:0:0:0:
448,192,31013,1,0,0:0:0:0:
64,192,31179,1,0,0:0:0:0:
448,192,31346,1,0,0:0:0:0:
64,192,31513,1,0,0:0:0:0:
448,192,31679,1,0,0:0:0:0:
320,192,31846,1,0,0:0:0:0:
64,192,32013,1,0,0:0:0:0:
192,192,32179,128,0,32346:0:0:0:0:
448,192,32346,1,0,0:0:0:0:
192,192,32513,128,0,32679:0:0:0:0:
320,192,32679,1,0,0:0:0:0:
64,192,32846,1,0,0:0:0:0:
192,192,33013,1,0,0:0:0:0:
448,192,33179,1,0,0:0:0:0:
320,192,33346,1,0,0:0:0:0:
64,192,33513,128,0,33679:0:0:0:0:
192,192,33679,128,0,33846:0:0:0:0:
320,192,33846,128,0,34013:0:0:0:0:
448,192,34013,128,0,34179:0:0:0:0:
64,192,34179,1,0,0:0:0:0:
192,192,34346,128,0,34513:0:0:0:0:
64,192,34513,128,0,34679:0:0:0:0:
448,192,34679,1,0,0:0:0:0:
320,192,34846,128,0,35013:0:0:0:0:
192,192,35013,1,0,0:0:0:0:
320,192,35179,128,0,35346:0:0:0:0:
64,192,35346,1,0,0:0:0:0:
448,192,35513,1,0,0:0:0:0:
192,192,35679,1,0,0:0:0:0:
320,192,35846,1,0,0:0:0:0:
64,192,36013,1,0,0:0:0:0:
448,192,36179,128,0,36346:0:0:0:0:
320,192,36346,128,0,36513:0:0:0:0:
192,192,36513,128,0,36679:0:0:0:0:
64,192,36679,128,0,36846:0:0:0:0:
448,192,37013,1,0,0:0:0:0:
192,192,37179,1,0,0:0:0:0:
320,192,37346,1,0,0:0:0:0:
64,192,37513,128,0,37679:0:0:0:0:
448,192,37513,128,0,37679:0:0:0:0:
192,192,37679,128,0,37846:0:0:0:0:
320,192,37846,128,0,38013:0:0:0:0:
448,192,37846,128,0,38013:0:0:0:0:
64,192,38013,128,0,38179:0:0:0:0:
64,192,38346,1,0,0:0:0:0:
320,192,38513,1,0,0:0:0:0:
192,192,38679,1,0,0:0:0:0:
64,192,38846,128,0,39013:0:0:0:0:
448,192,38846,128,0,39013:0:0:0:0:
320,192,39013,128,0,39179:0:0:0:0:
192,192,39179,128,0,39346:0:0:0:0:
64,192,39179,128,0,39346:0:0:0:0:
448,192,39346,128,0,39513:0:0:0:0:
448,192,39679,1,0,0:0:0:0:
192,192,39846,1,0,0:0:0:0:
320,192,40013,128,0,40179:0:0:0:0:
64,192,40179,128,0,40346:0:0:0:0:
448,192,40179,128,0,40346:0:0:0:0:
192,192,40346,128,0,40513:0:0:0:0:
320,192,40513,128,0,40679:0:0:0:0:
448,192,40679,128,0,40846:0:0:0:0:
192,192,40846,128,0,41013:0:0:0:0:
64,192,40846,128,0,41013:0:0:0:0:
320,192,41013,128,0,41179:0:0:0:0:
448,192,41179,128,0,41346:0:0:0:0:
64,192,41346,1,0,0:0:0:0:
192,192,41346,1,0,0:0:0:0:
192,192,41846,1,0,0:0:0:0:
448,192,41846,1,0,0:0:0:0:
448,192,42179,1,0,0:0:0:0:
320,192,42179,1,0,0:0:0:0:
