osu file format v14

[General]
AudioFilename: audio.mp3
AudioLeadIn: 0
PreviewTime: 21513
Countdown: 0
SampleSet: Normal
StackLeniency: 0.7
Mode: 3
LetterboxInBreaks: 0
SpecialStyle: 0
WidescreenStoryboard: 0

[Editor]
DistanceSpacing: 1
BeatDivisor: 2
GridSize: 4
TimelineZoom: 0.8199991

[Metadata]
Title:haitai but it's piano ver
TitleUnicode:haitai but it's piano ver
Artist:jhlee0133
ArtistUnicode:jhlee0133
Creator:x Arow
Version:EZ
Source:はいたい七葉
Tags:haitai nanafa yuimaru world piano meme ending Arow Gemu Charlotte Mage Maxus Tofu1222 mbomb
BeatmapID:1382073
BeatmapSetID:650760

[Difficulty]
HPDrainRate:7
CircleSize:4
OverallDifficulty:7
ApproachRate:5
SliderMultiplier:0.800000005960464
SliderTickRate:1

[Events]
//Background and Video events
0,0,"justsomevirtuososplazinginpool.jpg",0,0
//Break Periods
//Storyboard Layer 0 (Background)
//Storyboard Layer 1 (Fail)
//Storyboard Layer 2 (Pass)
//Storyboard Layer 3 (Foreground)
//Storyboard Sound Samples

[TimingPoints]
179.851141242676,333.333333333333,4,1,0,10,1,0
21513,-100,4,1,0,10,0,1
30679,-100,4,1,0,10,0,0
32179,-100,4,1,0,10,0,1
40179,-100,4,1,0,10,0,0

[Colours]
Combo1 : 255,128,192
Combo2 : 0,255,168
Combo3 : 253,234,96
Combo4 : 0,191,255

[HitObjects]
64,192,179,5,0,0:0:0:0:
320,192,846,1,0,0:0:0:0:
192,192,1513,1,0,0:0:0:0:
448,192,2179,1,0,0:0:0:0:
64,192,2846,1,0,0:0:0:0:
192,192,3179,1,0,0:0:0:0:
320,192,3513,1,0,0:0:0:0:
448,192,3846,1,0,0:0:0:0:
320,192,4179,1,0,0:0:0:0:
192,192,4513,1,0,0:0:0:0:
192,192,4846,1,0,0:0:0:0:
64,192,4846,1,0,0:0:0:0:
448,192,5179,1,0,0:0:0:0:
64,192,5513,1,0,0:0:0:0:
64,192,5846,1,0,0:0:0:0:
64,192,6179,1,0,0:0:0:0:
448,192,6846,1,0,0:0:0:0:
448,192,7179,1,0,0:0:0:0:
448,192,7513,1,0,0:0:0:0:
320,192,8179,1,0,0:0:0:0:
192,192,8513,1,0,0:0:0:0:
320,192,8846,1,0,0:0:0:0:
192,192,9179,1,0,0:0:0:0:
320,192,9513,1,0,0:0:0:0:
192,192,9846,1,0,0:0:0:0:
192,192,10179,1,0,0:0:0:0:
320,192,10179,1,0,0:0:0:0:
448,192,10513,1,0,0:0:0:0:
64,192,10846,128,0,14846:0:0:0:0:
320,192,10846,128,0,12179:0:0:0:0:
448,192,12179,128,0,13513:0:0:0:0:
320,192,13513,128,0,14846:0:0:0:0:
448,192,14846,1,0,0:0:0:0:
448,192,16179,128,0,18846:0:0:0:0:
64,192,16179,128,0,17513:0:0:0:0:
192,192,17513,128,0,18846:0:0:0:0:
64,192,18846,1,0,0:0:0:0:
320,192,20013,128,0,20846:0:0:0:0:
448,192,20846,1,0,0:0:0:0:
192,192,21513,1,0,0:0:0:0:
64,192,21513,128,0,22346:0:0:0:0:
192,192,21846,128,0,22346:0:0:0:0:
192,192,22846,1,0,0:0:0:0:
192,192,23013,1,0,0:0:0:0:
320,192,23179,1,0,0:0:0:0:
448,192,23346,1,0,0:0:0:0:
320,192,23679,1,0,0:0:0:0:
448,192,23846,1,0,0:0:0:0:
320,192,24013,1,0,0:0:0:0:
192,192,24179,1,0,0:0:0:0:
64,192,24179,128,0,25013:0:0:0:0:
192,192,24513,128,0,25013:0:0:0:0:
448,192,25513,1,0,0:0:0:0:
320,192,25679,1,0,0:0:0:0:
192,192,25846,1,0,0:0:0:0:
192,192,26013,1,0,0:0:0:0:
448,192,26513,1,0,0:0:0:0:
448,192,26846,128,0,27513:0:0:0:0:
320,192,28179,128,0,28846:0:0:0:0:
64,192,29346,1,0,0:0:0:0:
192,192,29513,1,0,0:0:0:0:
320,192,29846,1,0,0:0:0:0:
320,192,30179,1,0,0:0:0:0:
448,192,30346,1,0,0:0:0:0:
448,192,30679,128,0,31679:0:0:0:0:
448,192,32179,1,0,0:0:0:0:
64,192,32179,128,0,33013:0:0:0:0:
448,192,32513,128,0,33013:0:0:0:0:
448,192,33513,1,0,0:0:0:0:
448,192,33679,1,0,0:0:0:0:
320,192,33846,1,0,0:0:0:0:
192,192,34013,1,0,0:0:0:0:
320,192,34346,1,0,0:0:0:0:
192,192,34513,1,0,0:0:0:0:
320,192,34679,1,0,0:0:0:0:
448,192,34846,1,0,0:0:0:0:
64,192,34846,128,0,35679:0:0:0:0:
448,192,35179,128,0,35679:0:0:0:0:
320,192,36179,128,0,37179:0:0:0:0:
448,192,36679,128,0,37179:0:0:0:0:
320,192,37513,128,0,38513:0:0:0:0:
192,192,38013,128,0,38513:0:0:0:0:
192,192,38846,128,0,39846:0:0:0:0:
64,192,39346,128,0,39846:0:0:0:0:
320,192,40179,128,0,41346:0:0:0:0:
448,192,40846,128,0,41346:0:0:0:0:
192,192,41846,1,0,0:0:0:0:
64,192,41846,1,0,0:0:0:0:
64,192,42179,1,0,0:0:0:0:
192,192,42179,1,0,0:0:0:0:
