osu file format v14

[General]
AudioFilename: audio.mp3
AudioLeadIn: 0
PreviewTime: 21513
Countdown: 0
SampleSet: Normal
StackLeniency: 0.7
Mode: 0
LetterboxInBreaks: 0
WidescreenStoryboard: 0

[Editor]
Bookmarks: 36346
DistanceSpacing: 1
BeatDivisor: 2
GridSize: 4
TimelineZoom: 1.019999

[Metadata]
Title:haitai but it's piano ver
TitleUnicode:haitai but it's piano ver
Artist:jhlee0133
ArtistUnicode:jhlee0133
Creator:x Arow
Version:Advanced
Source:はいたい七葉
Tags:haitai nanafa yuimaru world piano meme ending Arow Gemu Charlotte Mage Maxus Tofu1222 mbomb
BeatmapID:1399009
BeatmapSetID:650760

[Difficulty]
HPDrainRate:4.5
CircleSize:3.7
OverallDifficulty:5
ApproachRate:6.5
SliderMultiplier:1.00000000596046
SliderTickRate:1

[Events]
//Background and Video events
0,0,"justsomevirtuososplazinginpool.jpg",0,0
//Break Periods
//Storyboard Layer 0 (Background)
//Storyboard Layer 1 (Fail)
//Storyboard Layer 2 (Pass)
//Storyboard Layer 3 (Foreground)
//Storyboard Sound Samples

[TimingPoints]
179.851141242676,333.333333333333,4,1,0,20,1,0
10846,-100,4,1,0,15,0,0
16179,-100,4,1,0,20,0,0
17513,-100,4,1,0,25,0,0
18846,-100,4,1,0,30,0,0
21513,-100,4,1,0,30,0,1
30679,-100,4,1,0,25,0,0
32179,-100,4,1,0,30,0,1
40179,-100,4,1,0,20,0,0

[Colours]
Combo1 : 255,128,192
Combo2 : 0,255,168
Combo3 : 253,234,96
Combo4 : 0,191,255

[HitObjects]
64,308,179,5,0,0:0:0:0:
112,288,346,1,0,0:0:0:0:
160,272,513,2,0,P|206:259|276:272,1,100.000000596046
196,188,1179,5,0,0:0:0:0:
152,160,1346,1,0,0:0:0:0:
108,132,1513,2,0,P|158:73|282:139,1,200.000001192092
356,60,2513,1,0,0:0:0:0:
128,132,2846,2,0,L|264:144,1,100.000000596046
88,152,3513,6,0,L|220:156,1,100.000000596046
268,200,4179,1,0,0:0:0:0:
224,224,4346,1,0,0:0:0:0:
202,178,4513,2,0,L|248:277,1,100.000000596046
285,359,5179,1,0,0:0:0:0:
331,271,5513,6,0,L|455:271,1,100.000000596046
362,198,6179,2,0,L|478:194,1,100.000000596046
461,194,6846,1,0,0:0:0:0:
410,107,7179,1,0,0:0:0:0:
410,107,7346,1,0,0:0:0:0:
410,107,7513,1,0,0:0:0:0:
317,144,7846,5,0,0:0:0:0:
217,146,8179,1,0,0:0:0:0:
181,114,8346,1,0,0:0:0:0:
141,82,8513,2,0,L|53:90,1,50.000000298023
60,126,8846,5,0,0:0:0:0:
89,166,9013,1,0,0:0:0:0:
124,201,9180,2,0,L|212:209,1,50.000000298023
175,255,9513,2,0,L|87:263,1,50.000000298023
75,264,9846,2,0,L|-13:272,1,50.000000298023
25,268,10179,1,0,0:0:0:0:
83,349,10513,5,0,0:0:0:0:
182,346,10846,2,0,P|281:321|398:262,1,200.000001192092
444,213,11846,1,0,0:0:0:0:
444,113,12179,2,0,P|314:75|214:80,1,200.000001192092
150,79,13179,5,0,0:0:0:0:
150,129,13346,1,0,0:0:0:0:
150,179,13513,2,0,L|202:211,1,50.000000298023
230,171,13846,2,0,L|282:203,1,50.000000298023
242,239,14179,2,0,L|294:271,1,50.000000298023
318,227,14513,2,0,L|370:259,1,50.000000298023
410,252,14846,2,0,B|443:205|362:114|406:52,1,200.000001192092
256,224,15846,1,0,0:0:0:0:
272,348,16179,6,0,L|132:344,1,100.000000596046
108,268,16846,2,0,L|246:258,1,100.000000596046
268,184,17513,2,0,L|168:171,1,100.000000596046
104,108,18179,2,0,L|235:70,1,100.000000596046
296,51,18846,1,0,0:0:0:0:
100,341,20013,5,0,0:0:0:0:
64,248,20346,2,0,L|140:220,1,50.000000298023
94,183,20679,1,0,0:0:0:0:
78,135,20846,1,0,0:0:0:0:
352,248,21513,5,0,0:0:0:0:
388,340,21846,1,0,0:0:0:0:
88,144,22846,2,0,L|176:148,1,50.000000298023
88,144,23179,2,0,L|176:148,1,50.000000298023
198,49,23679,1,0,0:0:0:0:
198,49,23846,1,0,0:0:0:0:
198,49,24013,1,0,0:0:0:0:
233,84,24179,6,0,L|305:92,1,50.000000298023
313,129,24513,2,0,L|385:137,1,50.000000298023
437,201,25013,1,0,0:0:0:0:
356,327,25513,5,0,0:0:0:0:
309,344,25679,1,0,0:0:0:0:
259,351,25846,1,0,0:0:0:0:
209,354,26013,2,0,P|139:343|67:303,1,150.000000894069
162,265,26846,5,0,0:0:0:0:
175,216,27012,1,0,0:0:0:0:
188,167,27179,1,0,0:0:0:0:
199,118,27346,2,0,L|351:74,1,150.000000894069
296,163,28179,5,0,0:0:0:0:
312,210,28345,1,0,0:0:0:0:
329,257,28512,1,0,0:0:0:0:
345,304,28679,2,0,L|193:292,1,150.000000894069
145,287,29346,5,0,0:0:0:0:
100,263,29513,2,0,P|92:207|108:159,1,100.000000596046
173,94,30179,1,0,0:0:0:0:
173,94,30346,1,0,0:0:0:0:
240,167,30679,1,0,0:0:0:0:
248,260,31013,2,0,L|412:268,1,150.000000894069
440,264,31679,1,0,0:0:0:0:
274,202,31846,5,0,0:0:0:0:
240,167,32013,1,0,0:0:0:0:
208,128,32179,1,0,0:0:0:0:
107,126,32513,1,0,0:0:0:0:
369,341,33513,6,0,L|457:337,1,50.000000298023
469,341,33846,2,0,L|381:337,1,50.000000298023
398,240,34346,1,0,0:0:0:0:
378,193,34513,1,0,0:0:0:0:
359,146,34679,1,0,0:0:0:0:
308,146,34846,1,0,0:0:0:0:
308,46,35179,1,0,0:0:0:0:
449,337,36179,6,0,L|397:265,1,50.000000298023
425,245,36513,2,0,L|469:197,1,50.000000298023
394,72,37179,1,0,0:0:0:0:
298,100,37513,6,0,L|222:124,1,50.000000298023
202,112,37846,2,0,L|138:88,1,50.000000298023
298,293,38846,6,0,L|354:349,1,50.000000298023
382,329,39179,2,0,L|422:293,1,50.000000298023
110,294,40013,5,0,0:0:0:0:
156,272,40179,2,0,L|240:268,1,50.000000298023
252,255,40513,5,0,0:0:0:0:
296,227,40679,5,0,0:0:0:0:
340,208,40846,2,0,L|424:204,1,50.000000298023
440,200,41179,5,0,0:0:0:0:
440,148,41346,2,0,L|292:60,1,150.000000894069
252,152,42179,1,0,0:0:0:0:
