osu file format v14

[General]
AudioFilename: audio.mp3
AudioLeadIn: 0
PreviewTime: -1
Countdown: 1
SampleSet: Soft
StackLeniency: 0.5
Mode: 0
LetterboxInBreaks: 0
WidescreenStoryboard: 1

[Editor]
DistanceSpacing: 2.2
BeatDivisor: 4
GridSize: 4
TimelineZoom: 1.7

[Metadata]
Title:Harumachi Clover
TitleUnicode:Harumachi Clover
Artist:jessechugaga
ArtistUnicode:jessechugaga
Creator:Diempyl
Version:EliasĀ“s [me]
Source:OneRoom
Tags:cover anime oneroom tvsize japanese
BeatmapID:1990473
BeatmapSetID:949926

[Difficulty]
HPDrainRate:5.5
CircleSize:4.5
OverallDifficulty:8
ApproachRate:9.5
SliderMultiplier:3.49999990463257
SliderTickRate:1

[Events]
//Background and Video events
0,0,"jezzowo.jpg",0,0
//Break Periods
//Storyboard Layer 0 (Background)
//Storyboard Layer 1 (Fail)
//Storyboard Layer 2 (Pass)
//Storyboard Layer 3 (Foreground)
//Storyboard Sound Samples

[TimingPoints]
2517.14285714286,428.571428571429,4,2,0,100,1,0
4874,-76.9230769230769,4,2,0,100,0,0
8302,-83.3333333333333,4,2,0,100,0,0
15066,-100,4,2,0,100,0,1
15930,-100,4,2,0,100,0,0
21160,-71.4285714285714,4,2,0,100,0,0
22639,-100,4,2,0,100,0,1
25445,-111.111111111111,4,2,0,100,0,1
27184,-100,4,2,0,100,0,0
30695,-100,4,1,0,100,0,0
31981,-30.3030303030303,4,1,0,100,0,0
32410,-20,4,1,0,100,0,0

[HitObjects]
310,24,1445,5,2,0:0:0:0:
294,121,1660,1,2,0:0:0:0:
371,190,1874,1,2,0:0:0:0:
387,287,2089,1,2,0:0:0:0:
403,384,2302,1,2,0:0:0:0:
183,303,2517,5,2,0:0:0:0:
364,153,2731,1,2,0:0:0:0:
291,372,2945,2,2,P|304:330|303:286,2,87.4999976158143
243,110,3374,5,2,0:0:0:0:
470,195,3588,1,2,0:0:0:0:
304,287,3802,1,2,0:0:0:0:
432,26,4017,1,2,0:0:0:0:
397,246,4231,1,2,0:0:0:0:
330,53,4445,5,2,0:0:0:0:
512,197,4660,1,2,0:0:0:0:
221,123,4874,2,2,P|80:178|306:190,1,682.499950160983
193,250,5731,5,2,0:0:0:0:
125,102,5945,1,2,0:0:0:0:
254,135,6160,1,2,0:0:0:0:
59,231,6374,5,2,0:0:0:0:
73,14,6588,1,2,0:0:0:0:
41,271,6802,5,2,0:0:0:0:
303,141,7017,1,2,0:0:0:0:
20,120,7231,1,2,0:0:0:0:
334,276,7445,1,2,0:0:0:0:
0,110,7660,5,2,0:0:0:0:
350,284,7874,1,2,0:0:0:0:
205,55,8088,1,2,0:0:0:0:
82,384,8302,2,2,B|-17:378|-28:256|53:223|53:223|94:208|153:229|159:268|159:268|231:180|130:61|268:3,1,629.99996360779
85,299,9374,6,2,L|78:176,1,122.499992923737
92,305,9588,2,2,L|85:178,1,122.499992923737
229,32,9802,2,2,L|224:158,1,122.499992923737
236,25,10017,2,2,L|231:151,1,122.499992923737
225,358,10231,1,2,0:0:0:0:
39,91,10445,6,2,P|137:100|170:194,1,209.999987869263
182,287,10767,2,2,P|155:144|291:96,1,314.999981803895
342,257,11195,6,2,L|254:201,1,104.999993934632
330,17,11517,2,2,P|368:51|379:101,1,104.999993934632
119,187,11731,1,2,0:0:0:0:
207,17,11945,1,2,0:0:0:0:
293,336,12160,1,2,0:0:0:0:
410,220,12374,2,2,P|333:71|355:334,1,839.999951477053
296,351,13874,5,2,0:0:0:0:
362,124,14088,2,2,P|199:126|86:15,1,314.999981803895
119,35,14517,5,2,0:0:0:0:
458,87,14731,1,2,0:0:0:0:
241,356,14945,1,2,0:0:0:0:
359,30,15160,2,2,B|313:110|379:219|485:198|485:198|408:255|430:358|430:358|474:356|503:320,1,524.999969673158
134,127,16017,5,2,0:0:0:0:
175,364,16231,1,2,0:0:0:0:
281,147,16445,1,2,0:0:0:0:
68,260,16660,5,2,0:0:0:0:
307,294,16874,1,2,0:0:0:0:
49,229,17088,5,2,0:0:0:0:
335,269,17302,1,2,0:0:0:0:
49,94,17517,2,2,P|182:194|123:344,1,349.999990463257
398,93,18160,1,2,0:0:0:0:
114,353,18374,1,2,0:0:0:0:
235,97,19231,5,2,0:0:0:0:
384,263,19445,1,2,0:0:0:0:
173,188,19660,5,2,0:0:0:0:
277,305,19874,1,2,0:0:0:0:
350,75,20088,2,2,P|303:77|246:94,1,87.4999976158143
66,203,20302,5,2,0:0:0:0:
422,151,20517,1,2,0:0:0:0:
148,235,20731,5,2,0:0:0:0:
361,203,20945,1,2,0:0:0:0:
245,301,21160,2,2,P|258:180|55:79,1,367.499978771211
57,121,21588,1,2,0:0:0:0:
409,6,21802,2,2,L|0:299,1,489.999971694947
473,344,22660,5,2,0:0:0:0:
39,40,22874,1,2,0:0:0:0:
483,351,23088,1,2,0:0:0:0:
28,32,23302,1,2,0:0:0:0:
429,314,23517,5,2,0:0:0:0:
75,199,23731,1,2,0:0:0:0:
428,82,23945,1,2,0:0:0:0:
210,383,24160,1,2,0:0:0:0:
210,12,24374,1,2,0:0:0:0:
457,274,24802,5,2,0:0:0:0:
87,235,25017,1,2,0:0:0:0:
409,49,25231,1,2,0:0:0:0:
138,325,25445,2,2,P|9:304|190:245,1,551.249968156816
190,241,26302,2,2,P|256:338|430:118,1,472.499972705842
327,216,27802,6,2,P|300:93|179:59,1,262.499992847443
175,71,28231,1,2,0:0:0:0:
153,300,28445,1,2,0:0:0:0:
509,134,28660,1,2,0:0:0:0:
255,383,29088,5,2,0:0:0:0:
64,191,29302,1,2,0:0:0:0:
256,0,29517,1,2,0:0:0:0:
447,192,29731,1,2,0:0:0:0:
103,313,30695,5,4,0:0:0:0:
185,38,30910,1,0,0:0:0:0:
185,0,31124,1,0,0:0:0:0:
409,313,31338,5,4,0:0:0:0:
327,38,31552,1,0,0:0:0:0:
327,0,31767,1,0,0:0:0:0:
122,50,31981,6,0,B|377:183|377:183|257:121|257:121|389:51|389:51|114:197,1,874.999976158143,6|0,0:0|0:0,0:0:0:0:
108,278,32410,6,0,B|185:420|388:394|409:236|409:236|100:261,1,699.999980926514,6|0,0:0|0:0,0:0:0:0:
