osu file format v14

[General]
AudioFilename: audio.mp3
AudioLeadIn: 0
PreviewTime: -1
Countdown: 1
SampleSet: Normal
StackLeniency: 0.7
Mode: 3
LetterboxInBreaks: 0
SpecialStyle: 0
WidescreenStoryboard: 0

[Editor]
Bookmarks: 31314
DistanceSpacing: 0.8
BeatDivisor: 4
GridSize: 32
TimelineZoom: 1

[Metadata]
Title:Down In DM Remix
TitleUnicode:Down In DM Remix
Artist:jerseyclub / yo gotti
ArtistUnicode:jerseyclub / yo gotti
Creator:m 3 t r o i d
Version:Hard
Source:
Tags:
BeatmapID:1395191
BeatmapSetID:658745

[Difficulty]
HPDrainRate:5
CircleSize:4
OverallDifficulty:5
ApproachRate:5
SliderMultiplier:1.4
SliderTickRate:1

[Events]
//Background and Video events
0,0,"maxresdefault (12).jpg",0,0
//Break Periods
//Storyboard Layer 0 (Background)
//Storyboard Layer 1 (Fail)
//Storyboard Layer 2 (Pass)
//Storyboard Layer 3 (Foreground)
//Storyboard Sound Samples

[TimingPoints]
40,392.156862745098,4,1,0,36,1,0

[HitObjects]
64,192,40,5,8,0:0:0:0:
192,192,236,1,0,0:0:0:0:
448,192,628,1,8,0:0:0:0:
64,192,824,1,0,0:0:0:0:
448,192,1020,1,0,0:0:0:0:
448,192,1412,1,0,0:0:0:0:
64,192,1608,1,8,0:0:0:0:
192,192,1804,1,0,0:0:0:0:
64,192,2196,1,8,0:0:0:0:
448,192,2392,1,0,0:0:0:0:
320,192,2589,1,0,0:0:0:0:
320,192,2981,1,0,0:0:0:0:
64,192,3177,1,8,0:0:0:0:
192,192,3373,1,2,3:0:0:0:
320,192,3569,1,2,3:0:0:0:
192,192,3667,1,2,3:0:0:0:
448,192,3765,1,2,3:0:0:0:
64,192,3863,1,2,3:0:0:0:
320,192,3961,1,0,0:0:0:0:
448,192,4059,1,2,3:0:0:0:
64,192,4157,1,2,3:0:0:0:
320,192,4255,1,2,3:0:0:0:
192,192,4353,1,0,0:0:0:0:
64,192,4451,1,2,0:0:0:0:
448,192,4549,1,2,3:0:0:0:
192,192,4647,1,0,0:0:0:0:
64,192,4745,1,0,0:0:0:0:
448,192,4941,1,0,0:0:0:0:
320,192,5138,1,0,0:0:0:0:
64,192,5334,1,0,0:0:0:0:
448,192,5530,1,0,0:0:0:0:
320,192,5726,1,0,0:0:0:0:
64,192,5922,1,0,0:0:0:0:
320,192,6118,1,0,0:0:0:0:
192,192,6314,1,0,0:0:0:0:
64,192,6314,1,0,0:0:0:0:
448,192,6412,1,0,0:0:0:0:
320,192,6510,1,8,0:0:0:0:
64,192,6510,1,0,0:0:0:0:
448,192,6706,1,0,0:0:0:0:
448,192,6902,1,0,0:0:0:0:
64,192,7098,1,0,0:0:0:0:
320,192,7098,1,8,0:0:0:0:
320,192,7294,1,0,0:0:0:0:
448,192,7294,1,0,0:0:0:0:
192,192,7490,1,0,0:0:0:0:
64,192,7490,1,0,0:0:0:0:
448,192,7490,1,0,0:0:0:0:
448,192,7687,1,0,0:0:0:0:
320,192,7687,1,0,0:0:0:0:
64,192,7883,1,0,0:0:0:0:
320,192,7981,1,0,0:0:0:0:
64,192,8079,1,0,0:0:0:0:
320,192,8275,1,0,0:0:0:0:
448,192,8275,1,0,0:0:0:0:
192,192,8471,1,0,0:0:0:0:
320,192,8667,1,0,0:0:0:0:
64,192,8667,1,0,0:0:0:0:
448,192,8863,1,0,0:0:0:0:
320,192,8863,1,0,0:0:0:0:
64,192,9059,1,0,0:0:0:0:
64,192,9255,1,0,0:0:0:0:
320,192,9451,1,0,0:0:0:0:
448,192,9451,1,0,0:0:0:0:
64,192,9549,1,0,0:0:0:0:
192,192,9647,1,8,3:0:0:0:
448,192,9647,1,8,3:0:0:0:
64,192,9843,1,0,0:0:0:0:
192,192,10040,1,0,0:0:0:0:
64,192,10236,1,8,3:0:0:0:
320,192,10236,1,8,3:0:0:0:
448,192,10432,1,0,0:0:0:0:
64,192,10628,1,0,0:0:0:0:
192,192,10628,1,0,0:0:0:0:
448,192,10628,1,0,0:0:0:0:
320,192,10824,1,0,0:0:0:0:
448,192,10824,1,0,0:0:0:0:
64,192,11020,1,0,0:0:0:0:
192,192,11020,1,0,0:0:0:0:
320,192,11118,1,0,0:0:0:0:
448,192,11216,1,0,0:0:0:0:
192,192,11216,1,0,0:0:0:0:
320,192,11412,1,0,0:0:0:0:
448,192,11412,1,0,0:0:0:0:
64,192,11412,1,0,0:0:0:0:
192,192,11608,1,0,0:0:0:0:
320,192,11804,1,0,0:0:0:0:
64,192,11804,1,0,0:0:0:0:
448,192,12000,1,0,0:0:0:0:
64,192,12196,1,0,0:0:0:0:
320,192,12196,1,0,0:0:0:0:
192,192,12294,1,0,0:0:0:0:
448,192,12392,1,0,0:0:0:0:
320,192,12589,1,0,0:0:0:0:
64,192,12687,1,0,0:0:0:0:
320,192,12785,1,0,0:0:0:0:
64,192,12981,1,0,0:0:0:0:
320,192,13177,1,0,0:0:0:0:
448,192,13373,1,8,3:0:0:0:
192,192,13373,1,8,3:0:0:0:
64,192,13569,1,0,0:0:0:0:
320,192,13765,1,0,0:0:0:0:
448,192,13765,1,0,0:0:0:0:
192,192,13961,1,0,0:0:0:0:
320,192,14157,1,0,0:0:0:0:
64,192,14255,1,0,0:0:0:0:
320,192,14353,1,0,0:0:0:0:
448,192,14549,1,0,0:0:0:0:
320,192,14549,1,0,0:0:0:0:
64,192,14745,1,0,0:0:0:0:
192,192,14941,1,0,0:0:0:0:
448,192,14941,1,0,0:0:0:0:
320,192,15138,1,0,0:0:0:0:
64,192,15334,1,0,0:0:0:0:
64,192,15530,1,0,0:0:0:0:
320,192,15726,1,0,0:0:0:0:
64,192,15824,1,0,0:0:0:0:
320,192,15922,1,0,0:0:0:0:
448,192,16118,1,0,0:0:0:0:
448,192,16314,1,0,0:0:0:0:
320,192,16510,1,0,0:0:0:0:
64,192,16510,1,0,0:0:0:0:
448,192,16706,1,0,0:0:0:0:
192,192,16902,1,0,0:0:0:0:
64,192,16902,1,0,0:0:0:0:
320,192,17098,1,0,0:0:0:0:
64,192,17294,1,0,0:0:0:0:
320,192,17392,1,0,0:0:0:0:
64,192,17490,1,0,0:0:0:0:
320,192,17687,1,0,0:0:0:0:
448,192,17687,1,0,0:0:0:0:
192,192,17883,1,0,0:0:0:0:
320,192,18079,1,0,0:0:0:0:
64,192,18079,1,0,0:0:0:0:
448,192,18275,1,0,0:0:0:0:
192,192,18471,1,0,0:0:0:0:
64,192,18471,1,0,0:0:0:0:
320,192,18569,1,0,0:0:0:0:
448,192,18863,1,0,0:0:0:0:
64,192,18863,1,0,0:0:0:0:
320,192,18961,1,0,0:0:0:0:
64,192,19059,1,0,0:0:0:0:
448,192,19255,1,0,0:0:0:0:
320,192,19451,1,0,0:0:0:0:
448,192,19647,1,0,0:0:0:0:
192,192,19647,1,0,0:0:0:0:
64,192,19843,1,0,0:0:0:0:
64,192,20040,1,0,0:0:0:0:
192,192,20040,1,0,0:0:0:0:
448,192,20040,1,0,0:0:0:0:
320,192,20236,1,0,0:0:0:0:
448,192,20432,1,0,0:0:0:0:
192,192,20530,1,0,0:0:0:0:
448,192,20628,1,0,0:0:0:0:
64,192,20824,1,0,0:0:0:0:
448,192,20824,1,0,0:0:0:0:
320,192,20824,1,0,0:0:0:0:
192,192,21020,1,0,0:0:0:0:
192,192,21216,1,0,0:0:0:0:
448,192,21216,1,0,0:0:0:0:
192,192,21412,1,0,0:0:0:0:
64,192,21608,1,0,0:0:0:0:
192,192,21804,1,0,0:0:0:0:
448,192,22000,1,0,0:0:0:0:
320,192,22000,1,0,0:0:0:0:
64,192,22098,1,0,0:0:0:0:
320,192,22196,1,0,0:0:0:0:
448,192,22392,1,0,0:0:0:0:
448,192,22589,1,0,0:0:0:0:
320,192,22785,1,0,0:0:0:0:
64,192,22785,1,0,0:0:0:0:
192,192,22981,1,0,0:0:0:0:
320,192,23177,1,0,0:0:0:0:
448,192,23177,1,0,0:0:0:0:
64,192,23177,1,0,0:0:0:0:
192,192,23373,1,0,0:0:0:0:
448,192,23569,1,0,0:0:0:0:
192,192,23667,1,0,0:0:0:0:
448,192,23765,1,0,0:0:0:0:
320,192,23961,1,0,0:0:0:0:
64,192,23961,128,0,24157:0:0:0:0:
192,192,24157,1,0,0:0:0:0:
448,192,24157,1,0,0:0:0:0:
320,192,24353,128,0,24549:0:0:0:0:
192,192,24353,1,0,0:0:0:0:
448,192,24549,1,0,0:0:0:0:
64,192,24745,128,0,24941:0:0:0:0:
320,192,24745,1,0,0:0:0:0:
192,192,24941,1,0,0:0:0:0:
320,192,25138,1,0,0:0:0:0:
448,192,25138,1,0,0:0:0:0:
64,192,25138,1,0,0:0:0:0:
192,192,25236,1,0,0:0:0:0:
64,192,25334,1,0,0:0:0:0:
320,192,25530,128,0,25726:0:0:0:0:
64,192,25726,1,0,0:0:0:0:
192,192,25922,1,0,0:0:0:0:
448,192,25922,1,0,0:0:0:0:
320,192,26118,1,0,0:0:0:0:
448,192,26314,1,0,0:0:0:0:
320,192,26314,1,0,0:0:0:0:
64,192,26412,1,0,0:0:0:0:
320,192,26510,1,0,0:0:0:0:
320,192,26706,1,0,0:0:0:0:
192,192,26804,1,0,0:0:0:0:
448,192,26902,1,0,0:0:0:0:
64,192,26902,1,0,0:0:0:0:
448,192,27098,1,0,0:0:0:0:
320,192,27098,1,0,0:0:0:0:
64,192,27294,1,0,0:0:0:0:
192,192,27490,1,0,0:0:0:0:
448,192,27490,1,0,0:0:0:0:
320,192,27687,1,0,0:0:0:0:
64,192,27883,1,0,0:0:0:0:
192,192,27883,128,0,28079:0:0:0:0:
448,192,28079,1,0,0:0:0:0:
320,192,28079,128,0,28275:0:0:0:0:
64,192,28275,1,0,0:0:0:0:
192,192,28275,1,0,0:0:0:0:
448,192,28373,1,0,0:0:0:0:
192,192,28471,1,0,0:0:0:0:
320,192,28667,1,0,0:0:0:0:
320,192,28863,1,0,0:0:0:0:
192,192,29059,1,0,0:0:0:0:
448,192,29059,1,0,0:0:0:0:
448,192,29255,1,0,0:0:0:0:
64,192,29451,1,0,0:0:0:0:
192,192,29451,1,0,0:0:0:0:
320,192,29647,1,0,0:0:0:0:
64,192,29843,1,0,0:0:0:0:
320,192,29941,1,0,0:0:0:0:
64,192,30039,1,0,0:0:0:0:
320,192,30236,1,0,0:0:0:0:
448,192,30236,128,0,30432:0:0:0:0:
192,192,30432,128,0,30628:0:0:0:0:
64,192,30628,1,0,0:0:0:0:
320,192,30628,1,0,0:0:0:0:
192,192,30824,1,0,0:0:0:0:
448,192,31020,1,0,0:0:0:0:
320,192,31118,1,0,0:0:0:0:
64,192,31412,5,8,3:0:0:0:
448,192,31412,1,8,3:0:0:0:
192,192,31412,1,0,0:0:0:0:
320,192,31412,1,0,0:0:0:0:
64,192,31804,1,0,0:0:0:0:
64,192,32589,1,0,0:0:0:0:
448,192,32981,1,0,0:0:0:0:
320,192,33177,1,0,0:0:0:0:
64,192,33373,1,0,0:0:0:0:
192,192,33569,1,0,0:0:0:0:
448,192,34157,1,0,0:0:0:0:
320,192,34353,1,0,0:0:0:0:
448,192,36118,1,0,0:0:0:0:
320,192,36314,1,0,0:0:0:0:
64,192,36510,1,0,0:0:0:0:
192,192,36706,1,0,0:0:0:0:
320,192,36902,128,0,37098:0:0:0:0:
448,192,37294,1,0,0:0:0:0:
448,192,37490,1,0,0:0:0:0:
64,192,38079,1,0,0:0:0:0:
192,192,38079,1,0,0:0:0:0:
448,192,39255,128,0,39353:0:0:0:0:
320,192,39451,128,0,39549:0:0:0:0:
64,192,39647,128,0,39745:0:0:0:0:
192,192,39843,128,0,39941:0:0:0:0:
64,192,42392,1,0,0:0:0:0:
448,192,42392,1,0,0:0:0:0:
448,192,42589,1,0,0:0:0:0:
320,192,42589,1,0,0:0:0:0:
192,192,42785,1,0,0:0:0:0:
64,192,42785,1,0,0:0:0:0:
448,192,42981,1,0,0:0:0:0:
320,192,42981,1,0,0:0:0:0:
64,192,43177,128,0,43373:0:0:0:0:
448,192,43569,1,0,0:0:0:0:
448,192,43765,1,0,0:0:0:0:
320,192,43765,128,0,43961:0:0:0:0:
192,192,43961,1,4,0:0:0:0:
64,192,43961,1,4,0:0:0:0:
448,192,44353,1,0,0:0:0:0:
64,192,44549,1,0,0:0:0:0:
320,192,44745,1,0,0:0:0:0:
448,192,44745,1,0,0:0:0:0:
64,192,44941,128,0,45138:0:0:0:0:
192,192,45138,1,0,0:0:0:0:
320,192,45138,128,0,45334:0:0:0:0:
448,192,45334,1,0,0:0:0:0:
192,192,45530,1,0,0:0:0:0:
64,192,45530,1,0,0:0:0:0:
64,192,45726,1,0,0:0:0:0:
448,192,45922,1,0,0:0:0:0:
448,192,46118,1,0,0:0:0:0:
192,192,46314,1,0,0:0:0:0:
64,192,46314,1,0,0:0:0:0:
320,192,46706,1,0,0:0:0:0:
448,192,47098,1,0,0:0:0:0:
320,192,47098,1,4,0:0:0:0:
64,192,47098,1,0,0:0:0:0:
64,192,47490,1,0,0:0:0:0:
448,192,47687,1,0,0:0:0:0:
64,192,47883,1,0,0:0:0:0:
192,192,47883,1,4,0:0:0:0:
448,192,48079,128,0,48275:0:0:0:0:
320,192,48275,1,0,0:0:0:0:
192,192,48275,128,0,48471:0:0:0:0:
64,192,48471,1,0,0:0:0:0:
320,192,48667,1,0,0:0:0:0:
448,192,48667,1,0,0:0:0:0:
448,192,48863,1,0,0:0:0:0:
64,192,49059,1,0,0:0:0:0:
192,192,49059,1,4,0:0:0:0:
448,192,49255,1,0,0:0:0:0:
192,192,49451,1,4,0:0:0:0:
64,192,49451,1,0,0:0:0:0:
448,192,49843,1,0,0:0:0:0:
448,192,50040,1,0,0:0:0:0:
192,192,50236,1,4,0:0:0:0:
64,192,50236,1,0,0:0:0:0:
448,192,50236,1,0,0:0:0:0:
320,192,50628,1,4,0:0:0:0:
448,192,50628,1,0,0:0:0:0:
192,192,51020,1,4,0:0:0:0:
64,192,51020,1,0,0:0:0:0:
192,192,51216,1,8,0:0:0:0:
64,192,51216,1,8,0:0:0:0:
448,192,51314,1,8,0:0:0:0:
320,192,51314,1,12,0:0:0:0:
192,192,51412,1,8,0:0:0:0:
64,192,51412,1,8,0:0:0:0:
448,192,51608,1,0,0:0:0:0:
320,192,51608,1,4,0:0:0:0:
64,192,51804,1,0,0:0:0:0:
320,192,51804,1,4,0:0:0:0:
448,192,51804,1,8,0:0:0:0:
192,192,52196,1,4,0:0:0:0:
64,192,52196,1,0,0:0:0:0:
448,192,52589,1,0,0:0:0:0:
320,192,52589,1,4,0:0:0:0:
192,192,52785,1,8,0:0:0:0:
64,192,52785,1,8,0:0:0:0:
64,192,52981,128,0,53177:0:0:0:0:
448,192,53177,128,0,53373:0:0:0:0:
192,192,53373,1,4,3:0:0:0:
64,192,53373,1,4,3:0:0:0:
320,192,53373,1,4,3:0:0:0:
448,192,53765,1,0,0:0:0:0:
320,192,53765,1,0,0:0:0:0:
320,192,53961,1,0,0:0:0:0:
64,192,54157,1,0,0:0:0:0:
192,192,54157,1,0,0:0:0:0:
192,192,54353,1,0,0:0:0:0:
64,192,54353,1,0,0:0:0:0:
448,192,54451,1,0,0:0:0:0:
320,192,54451,1,0,0:0:0:0:
64,192,54549,1,0,0:0:0:0:
192,192,54549,1,0,0:0:0:0:
448,192,54745,1,0,0:0:0:0:
320,192,54745,1,0,0:0:0:0:
64,192,56510,1,4,3:0:0:0:
192,192,56510,1,4,3:0:0:0:
448,192,56902,1,4,3:0:0:0:
320,192,56902,1,4,3:0:0:0:
320,192,57098,128,4,57294:0:0:0:0:
64,192,57294,1,4,3:0:0:0:
192,192,57294,1,0,3:0:0:0:
192,192,58079,1,0,0:0:0:0:
64,192,58079,1,0,0:0:0:0:
320,192,58471,1,0,0:0:0:0:
448,192,58471,1,0,0:0:0:0:
320,192,58667,128,0,58863:0:0:0:0:
192,192,58863,1,0,0:0:0:0:
64,192,58863,1,0,0:0:0:0:
192,192,59647,1,0,0:0:0:0:
64,192,59647,1,0,0:0:0:0:
448,192,59647,1,0,0:0:0:0:
448,192,60039,1,0,0:0:0:0:
320,192,60039,1,0,0:0:0:0:
64,192,60039,1,0,0:0:0:0:
64,192,60432,1,0,0:0:0:0:
192,192,60432,1,0,0:0:0:0:
448,192,60432,1,0,0:0:0:0:
320,192,60824,1,0,0:0:0:0:
320,192,61020,1,0,0:0:0:0:
64,192,61216,1,0,0:0:0:0:
192,192,61216,1,0,0:0:0:0:
448,192,61216,1,0,0:0:0:0:
448,192,61608,1,0,0:0:0:0:
320,192,61608,1,0,0:0:0:0:
64,192,61608,1,0,0:0:0:0:
64,192,62000,1,0,0:0:0:0:
192,192,62000,1,0,0:0:0:0:
448,192,62000,1,0,0:0:0:0:
320,192,62392,1,0,0:0:0:0:
448,192,62785,1,0,0:0:0:0:
320,192,62785,1,0,0:0:0:0:
192,192,63177,1,0,0:0:0:0:
64,192,63177,1,0,0:0:0:0:
448,192,63373,128,0,63569:0:0:0:0:
320,192,63569,1,0,0:0:0:0:
192,192,63569,1,0,0:0:0:0:
64,192,63765,1,0,0:0:0:0:
320,192,63765,1,0,0:0:0:0:
448,192,63961,1,0,0:0:0:0:
192,192,63961,1,0,0:0:0:0:
64,192,64157,1,0,0:0:0:0:
320,192,64157,1,0,0:0:0:0:
448,192,64353,1,0,0:0:0:0:
320,192,64353,1,0,0:0:0:0:
192,192,64745,1,0,0:0:0:0:
64,192,64745,1,0,0:0:0:0:
448,192,64941,128,0,65138:0:0:0:0:
320,192,65138,1,0,0:0:0:0:
192,192,65138,1,0,0:0:0:0:
64,192,65334,1,0,0:0:0:0:
448,192,65432,1,0,0:0:0:0:
320,192,65530,1,0,0:0:0:0:
448,192,65922,1,0,0:0:0:0:
320,192,65922,1,0,0:0:0:0:
64,192,65922,1,0,0:0:0:0:
192,192,65922,1,0,0:0:0:0:
192,192,66314,1,0,0:0:0:0:
64,192,66314,1,0,0:0:0:0:
448,192,66510,128,0,66706:0:0:0:0:
320,192,66706,1,0,0:0:0:0:
192,192,66706,1,0,0:0:0:0:
64,192,66902,1,0,0:0:0:0:
320,192,66902,1,0,0:0:0:0:
448,192,67098,128,0,67294:0:0:0:0:
64,192,67294,1,0,0:0:0:0:
192,192,67392,1,0,0:0:0:0:
448,192,67490,128,0,67687:0:0:0:0:
64,192,67490,1,0,0:0:0:0:
64,192,67785,1,0,0:0:0:0:
192,192,67785,1,0,0:0:0:0:
448,192,67883,128,0,68079:0:0:0:0:
192,192,68079,1,0,0:0:0:0:
64,192,68079,1,0,0:0:0:0:
448,192,68471,1,0,0:0:0:0:
320,192,68471,1,0,0:0:0:0:
64,192,68471,1,0,0:0:0:0:
64,192,68667,1,0,0:0:0:0:
448,192,68667,1,0,0:0:0:0:
192,192,68667,1,0,0:0:0:0:
192,192,68863,1,0,0:0:0:0:
448,192,69059,1,0,0:0:0:0:
64,192,69059,1,0,0:0:0:0:
320,192,69059,1,0,0:0:0:0:
192,192,69059,1,0,0:0:0:0:
448,192,69451,128,0,69647:0:0:0:0:
320,192,69647,128,0,69843:0:0:0:0:
192,192,69843,1,0,0:0:0:0:
64,192,69843,1,0,0:0:0:0:
448,192,70039,128,0,70236:0:0:0:0:
320,192,70236,1,0,0:0:0:0:
64,192,70236,1,0,0:0:0:0:
64,192,70628,1,0,0:0:0:0:
192,192,70628,1,0,0:0:0:0:
320,192,70628,1,0,0:0:0:0:
448,192,70628,1,0,0:0:0:0:
64,192,71020,128,0,71216:0:0:0:0:
192,192,71216,128,0,71412:0:0:0:0:
320,192,71412,1,0,0:0:0:0:
448,192,71412,1,0,0:0:0:0:
64,192,71804,1,0,0:0:0:0:
320,192,71804,1,0,0:0:0:0:
448,192,72196,1,0,0:0:0:0:
320,192,72196,1,0,0:0:0:0:
192,192,72196,1,0,0:0:0:0:
64,192,72196,1,0,0:0:0:0:
448,192,72589,128,0,72785:0:0:0:0:
320,192,72785,128,0,72981:0:0:0:0:
192,192,72981,1,0,0:0:0:0:
64,192,72981,1,0,0:0:0:0:
448,192,73177,128,0,73373:0:0:0:0:
320,192,73373,1,0,0:0:0:0:
64,192,73373,1,0,0:0:0:0:
192,192,73569,128,0,73765:0:0:0:0:
320,192,73765,1,0,0:0:0:0:
448,192,73765,1,0,0:0:0:0:
64,192,73765,1,0,0:0:0:0:
448,192,74157,1,0,0:0:0:0:
320,192,74157,1,0,0:0:0:0:
64,192,74157,1,0,0:0:0:0:
192,192,74353,128,0,74549:0:0:0:0:
448,192,74549,1,0,0:0:0:0:
320,192,74549,1,0,0:0:0:0:
64,192,74549,1,0,0:0:0:0:
64,192,74941,128,0,75138:0:0:0:0:
192,192,75138,128,0,75334:0:0:0:0:
320,192,75334,1,0,0:0:0:0:
448,192,75334,1,0,0:0:0:0:
64,192,75530,1,0,0:0:0:0:
320,192,75726,1,0,0:0:0:0:
448,192,75726,1,0,0:0:0:0:
192,192,75922,1,0,0:0:0:0:
320,192,76118,1,0,0:0:0:0:
64,192,76118,1,0,0:0:0:0:
448,192,76314,1,0,0:0:0:0:
192,192,76314,1,0,0:0:0:0:
320,192,76510,1,0,0:0:0:0:
64,192,76510,1,0,0:0:0:0:
192,192,76706,1,0,0:0:0:0:
448,192,76706,1,0,0:0:0:0:
448,192,76902,1,0,0:0:0:0:
320,192,76902,1,0,0:0:0:0:
64,192,77098,1,0,0:0:0:0:
192,192,77294,1,0,0:0:0:0:
448,192,77294,1,0,0:0:0:0:
320,192,77490,1,0,0:0:0:0:
192,192,77687,1,0,0:0:0:0:
64,192,77687,1,0,0:0:0:0:
448,192,77883,1,0,0:0:0:0:
192,192,77883,1,0,0:0:0:0:
320,192,78079,1,0,0:0:0:0:
64,192,78079,1,0,0:0:0:0:
192,192,78275,1,0,0:0:0:0:
448,192,78275,1,0,0:0:0:0:
192,192,78471,1,0,0:0:0:0:
64,192,78471,1,0,0:0:0:0:
320,192,78471,1,0,0:0:0:0:
448,192,78471,1,0,0:0:0:0:
320,192,78667,1,0,0:0:0:0:
448,192,78863,1,0,0:0:0:0:
192,192,78863,1,0,0:0:0:0:
64,192,79059,1,0,0:0:0:0:
320,192,79255,1,0,0:0:0:0:
448,192,79255,1,0,0:0:0:0:
64,192,79451,1,0,0:0:0:0:
320,192,79451,1,0,0:0:0:0:
192,192,79647,1,0,0:0:0:0:
448,192,79647,1,0,0:0:0:0:
64,192,79843,1,0,0:0:0:0:
320,192,79843,1,0,0:0:0:0:
448,192,80039,1,0,0:0:0:0:
320,192,80432,1,0,0:0:0:0:
192,192,80824,1,0,0:0:0:0:
64,192,81216,1,0,0:0:0:0:
64,192,81608,1,0,0:0:0:0:
192,192,81608,1,0,0:0:0:0:
320,192,81608,1,0,0:0:0:0:
448,192,81608,1,0,0:0:0:0:
320,192,81804,1,0,0:0:0:0:
320,192,82000,1,0,0:0:0:0:
448,192,82000,1,0,0:0:0:0:
64,192,82000,1,0,0:0:0:0:
192,192,82000,1,0,0:0:0:0:
64,192,82196,1,0,0:0:0:0:
64,192,82392,1,0,0:0:0:0:
192,192,82392,1,0,0:0:0:0:
320,192,82392,1,0,0:0:0:0:
448,192,82392,1,0,0:0:0:0:
448,192,82589,1,0,0:0:0:0:
64,192,82785,128,0,82981:0:0:0:0:
192,192,82981,1,0,0:0:0:0:
320,192,83177,1,0,0:0:0:0:
192,192,83177,1,0,0:0:0:0:
64,192,83177,1,0,0:0:0:0:
448,192,83177,1,0,0:0:0:0:
448,192,83373,1,0,0:0:0:0:
448,192,83569,1,0,0:0:0:0:
320,192,83569,1,0,0:0:0:0:
192,192,83569,1,0,0:0:0:0:
64,192,83569,1,0,0:0:0:0:
64,192,83765,1,0,0:0:0:0:
448,192,83961,1,0,0:0:0:0:
320,192,83961,1,0,0:0:0:0:
192,192,83961,1,0,0:0:0:0:
64,192,83961,1,0,0:0:0:0:
192,192,84157,1,0,0:0:0:0:
448,192,84353,128,0,84549:0:0:0:0:
320,192,84549,1,0,0:0:0:0:
64,192,84745,1,0,0:0:0:0:
448,192,84745,1,0,0:0:0:0:
192,192,84745,1,0,0:0:0:0:
64,192,85138,1,0,0:0:0:0:
448,192,85138,1,0,0:0:0:0:
320,192,85138,1,0,0:0:0:0:
448,192,85530,1,0,0:0:0:0:
320,192,85530,1,0,0:0:0:0:
64,192,85530,1,0,0:0:0:0:
192,192,85530,1,0,0:0:0:0:
64,192,86314,1,0,0:0:0:0:
192,192,86314,1,0,0:0:0:0:
448,192,86314,1,0,0:0:0:0:
448,192,86706,1,0,0:0:0:0:
320,192,86706,1,0,0:0:0:0:
64,192,86706,1,0,0:0:0:0:
64,192,87098,1,0,0:0:0:0:
192,192,87098,1,0,0:0:0:0:
320,192,87098,1,0,0:0:0:0:
448,192,87098,1,0,0:0:0:0:
320,192,87490,128,0,87687:0:0:0:0:
192,192,87883,1,0,0:0:0:0:
64,192,87883,1,0,0:0:0:0:
448,192,87883,1,0,0:0:0:0:
448,192,88275,128,0,88471:0:0:0:0:
64,192,88275,1,0,0:0:0:0:
320,192,88471,128,0,88667:0:0:0:0:
192,192,88471,1,0,0:0:0:0:
192,192,88667,1,0,0:0:0:0:
64,192,88667,1,0,0:0:0:0:
448,192,88863,1,0,0:0:0:0:
192,192,88863,1,0,0:0:0:0:
320,192,89059,1,0,0:0:0:0:
64,192,89059,1,0,0:0:0:0:
192,192,89255,1,0,0:0:0:0:
448,192,89255,1,0,0:0:0:0:
448,192,89451,1,0,0:0:0:0:
320,192,89451,1,0,0:0:0:0:
64,192,89451,1,0,0:0:0:0:
64,192,89843,128,0,90039:0:0:0:0:
448,192,89843,1,0,0:0:0:0:
192,192,90039,128,0,90236:0:0:0:0:
320,192,90039,1,0,0:0:0:0:
320,192,90236,1,0,0:0:0:0:
448,192,90236,1,0,0:0:0:0:
64,192,90432,1,0,0:0:0:0:
192,192,90530,1,0,0:0:0:0:
320,192,90628,1,0,0:0:0:0:
448,192,91020,1,0,0:0:0:0:
320,192,91020,1,0,0:0:0:0:
192,192,91020,1,0,0:0:0:0:
64,192,91020,1,0,0:0:0:0:
448,192,91412,1,0,0:0:0:0:
320,192,91412,1,0,0:0:0:0:
64,192,91608,128,0,91804:0:0:0:0:
192,192,91804,1,0,0:0:0:0:
320,192,91804,1,0,0:0:0:0:
448,192,92000,1,0,0:0:0:0:
192,192,92000,1,0,0:0:0:0:
320,192,92196,1,0,0:0:0:0:
64,192,92196,1,0,0:0:0:0:
192,192,92392,1,0,0:0:0:0:
448,192,92392,1,0,0:0:0:0:
64,192,92589,1,0,0:0:0:0:
192,192,92687,1,0,0:0:0:0:
320,192,92785,1,0,0:0:0:0:
448,192,92981,1,0,0:0:0:0:
320,192,93079,1,0,0:0:0:0:
192,192,93177,1,0,0:0:0:0:
64,192,93373,1,0,0:0:0:0:
192,192,93471,1,0,0:0:0:0:
320,192,93569,1,0,0:0:0:0:
448,192,93765,1,0,0:0:0:0:
64,192,93765,1,0,0:0:0:0:
192,192,93961,1,0,0:0:0:0:
320,192,94059,1,0,0:0:0:0:
192,192,94157,1,0,0:0:0:0:
448,192,94549,1,0,0:0:0:0:
320,192,94549,1,0,0:0:0:0:
64,192,94941,1,0,0:0:0:0:
192,192,95334,1,0,0:0:0:0:
64,192,95334,1,0,0:0:0:0:
448,192,95726,1,0,0:0:0:0:
448,192,96118,1,0,0:0:0:0:
320,192,96118,1,0,0:0:0:0:
64,192,96510,1,0,0:0:0:0:
64,192,96902,1,0,0:0:0:0:
192,192,96902,1,0,0:0:0:0:
448,192,97098,1,0,0:0:0:0:
64,192,97196,1,0,0:0:0:0:
192,192,97294,1,0,0:0:0:0:
448,192,97687,1,0,0:0:0:0:
320,192,97687,1,0,0:0:0:0:
