osu file format v14

[General]
AudioFilename: Makiba130.mp3
AudioLeadIn: 2
PreviewTime: 22024
Countdown: 0
SampleSet: Soft
StackLeniency: 0.7
Mode: 3
LetterboxInBreaks: 0
SpecialStyle: 0
WidescreenStoryboard: 1

[Editor]
DistanceSpacing: 0.8
BeatDivisor: 8
GridSize: 8
TimelineZoom: 4.299998

[Metadata]
Title:Makiba
TitleUnicode:まきば
Artist:jea
ArtistUnicode:jea
Creator:ilikexd
Version:Extra 1.3x (219bpm)
Source:
Tags:Electronic Japanese JCore J-Core From the Heart (Hell Compilation) フロム・ザ・はあと 地獄編 SRPC-0003 Doujin Indie Arrangement Remix DJ High Speed Music Team Sharpnel SHARPNELSOUND Ryuta Nakagami 仲上竜太 SRPC-0003 C55 comiket55 コミケット55 おお牧場はみどり Ah, Lovely Meadows Hořela lipka, hořela Stepmania SM
BeatmapID:3729619
BeatmapSetID:1817883

[Difficulty]
HPDrainRate:8.5
CircleSize:4
OverallDifficulty:8.5
ApproachRate:10
SliderMultiplier:1.4
SliderTickRate:1

[Events]
//Background and Video events
0,0,"background.jpg",0,0
//Break Periods
//Storyboard Layer 0 (Background)
//Storyboard Layer 1 (Fail)
//Storyboard Layer 2 (Pass)
//Storyboard Layer 3 (Foreground)
//Storyboard Layer 4 (Overlay)
//Storyboard Sound Samples

[TimingPoints]
83,274.578179272093,4,2,0,10,1,0

[HitObjects]
320,192,83,5,0,0:0:0:0:
64,192,357,1,0,0:0:0:0:
192,192,563,1,0,0:0:0:0:
320,192,632,1,0,0:0:0:0:
448,192,906,1,0,0:0:0:0:
320,192,1181,1,0,0:0:0:0:
192,192,1455,1,0,0:0:0:0:
64,192,1730,1,0,0:0:0:0:
64,0,2005,128,0,2039:1:0:0:0:
192,0,2073,128,0,2108:1:0:0:0:
320,0,2142,128,0,2176:1:0:0:0:
448,0,2210,128,0,2245:1:0:0:0:
320,0,2279,128,0,2313:1:0:0:0:
320,0,2416,128,0,2451:1:0:0:0:
320,0,2691,128,0,2725:1:0:0:0:
320,0,2828,128,0,3034:1:0:0:0:
192,0,3103,128,0,3137:1:0:0:0:
64,192,3377,1,0,0:0:0:0:
448,0,3377,128,0,3412:1:0:0:0:
64,192,3652,1,0,0:0:0:0:
320,0,3652,128,0,3686:1:0:0:0:
64,192,3927,1,0,0:0:0:0:
320,192,3927,1,0,0:0:0:0:
192,0,3927,128,0,3961:1:0:0:0:
320,192,3995,1,0,0:0:0:0:
320,192,4064,1,0,0:0:0:0:
64,192,4201,1,0,0:0:0:0:
320,192,4338,1,0,0:0:0:0:
64,192,4476,1,0,0:0:0:0:
448,192,4476,1,0,0:0:0:0:
192,192,4522,1,0,0:0:0:0:
320,192,4567,1,0,0:0:0:0:
192,192,4613,1,0,0:0:0:0:
320,192,4659,1,0,0:0:0:0:
448,192,4705,1,0,0:0:0:0:
64,192,4750,1,0,0:0:0:0:
192,192,4750,1,0,0:0:0:0:
448,192,4796,1,0,0:0:0:0:
320,192,4842,1,0,0:0:0:0:
192,192,4888,1,0,0:0:0:0:
448,192,4933,1,0,0:0:0:0:
64,192,4979,1,0,0:0:0:0:
192,192,5025,1,0,0:0:0:0:
320,192,5025,1,0,0:0:0:0:
448,192,5071,1,0,0:0:0:0:
64,192,5116,1,0,0:0:0:0:
192,192,5162,1,0,0:0:0:0:
448,192,5208,1,0,0:0:0:0:
320,192,5254,1,0,0:0:0:0:
64,192,5299,1,0,0:0:0:0:
192,192,5299,1,0,0:0:0:0:
320,192,5345,1,0,0:0:0:0:
448,192,5391,1,0,0:0:0:0:
64,192,5437,1,0,0:0:0:0:
320,192,5483,1,0,0:0:0:0:
192,192,5528,1,0,0:0:0:0:
320,192,5574,1,0,0:0:0:0:
448,192,5574,1,0,0:0:0:0:
192,192,5620,1,0,0:0:0:0:
64,192,5666,1,0,0:0:0:0:
448,192,5711,1,0,0:0:0:0:
320,192,5757,1,0,0:0:0:0:
192,192,5803,1,0,0:0:0:0:
64,192,5849,1,0,0:0:0:0:
448,192,5849,1,0,0:0:0:0:
320,192,5894,1,0,0:0:0:0:
192,192,5940,1,0,0:0:0:0:
320,192,5986,1,0,0:0:0:0:
192,192,6032,1,0,0:0:0:0:
64,192,6077,1,0,0:0:0:0:
320,192,6123,1,0,0:0:0:0:
448,192,6123,1,0,0:0:0:0:
64,192,6169,1,0,0:0:0:0:
192,192,6215,1,0,0:0:0:0:
320,0,6261,128,0,6295:1:0:0:0:
448,0,6261,128,0,6295:1:0:0:0:
64,0,6329,128,0,6363:1:0:0:0:
192,0,6329,128,0,6363:1:0:0:0:
320,0,6398,128,0,6432:1:0:0:0:
448,0,6398,128,0,6432:1:0:0:0:
192,192,6466,1,0,0:0:0:0:
64,0,6535,128,0,6569:1:0:0:0:
448,0,6535,128,0,6569:1:0:0:0:
320,192,6604,1,0,0:0:0:0:
64,192,6672,1,0,0:0:0:0:
192,192,6672,1,0,0:0:0:0:
448,192,6718,1,0,0:0:0:0:
320,192,6764,1,0,0:0:0:0:
64,192,6810,1,0,0:0:0:0:
192,192,6810,1,0,0:0:0:0:
448,192,6855,1,0,0:0:0:0:
320,192,6901,1,0,0:0:0:0:
192,192,6947,1,0,0:0:0:0:
320,192,6993,1,0,0:0:0:0:
192,192,7038,1,0,0:0:0:0:
64,192,7084,1,0,0:0:0:0:
448,192,7084,1,0,0:0:0:0:
320,192,7130,1,0,0:0:0:0:
192,192,7176,1,0,0:0:0:0:
320,192,7222,1,0,0:0:0:0:
448,192,7222,1,0,0:0:0:0:
64,192,7267,1,0,0:0:0:0:
192,192,7313,1,0,0:0:0:0:
320,192,7359,1,0,0:0:0:0:
64,192,7405,1,0,0:0:0:0:
192,192,7450,1,0,0:0:0:0:
64,192,7496,1,0,0:0:0:0:
448,192,7496,1,0,0:0:0:0:
320,192,7542,1,0,0:0:0:0:
192,192,7588,1,0,0:0:0:0:
448,192,7633,1,0,0:0:0:0:
320,192,7679,1,0,0:0:0:0:
64,192,7725,1,0,0:0:0:0:
192,192,7771,1,0,0:0:0:0:
320,192,7771,1,0,0:0:0:0:
448,192,7816,1,0,0:0:0:0:
64,192,7862,1,0,0:0:0:0:
192,192,7908,1,0,0:0:0:0:
320,192,7908,1,0,0:0:0:0:
448,192,7954,1,0,0:0:0:0:
64,192,8000,1,0,0:0:0:0:
192,192,8045,1,0,0:0:0:0:
448,192,8091,1,0,0:0:0:0:
320,192,8137,1,0,0:0:0:0:
64,192,8183,1,0,0:0:0:0:
448,192,8183,1,0,0:0:0:0:
320,192,8228,1,0,0:0:0:0:
192,192,8274,1,0,0:0:0:0:
64,192,8320,1,0,0:0:0:0:
448,192,8320,1,0,0:0:0:0:
320,192,8366,1,0,0:0:0:0:
192,192,8411,1,0,0:0:0:0:
64,192,8457,1,0,0:0:0:0:
448,192,8457,1,0,0:0:0:0:
192,192,8503,1,0,0:0:0:0:
320,192,8549,1,0,0:0:0:0:
64,192,8594,1,0,0:0:0:0:
448,192,8594,1,0,0:0:0:0:
192,192,8640,1,0,0:0:0:0:
320,192,8686,1,0,0:0:0:0:
448,192,8732,1,0,0:0:0:0:
64,192,8777,1,0,0:0:0:0:
192,192,8823,1,0,0:0:0:0:
320,192,8869,1,0,0:0:0:0:
448,192,8869,1,0,0:0:0:0:
64,192,8915,1,0,0:0:0:0:
192,192,8961,1,0,0:0:0:0:
320,192,9006,1,0,0:0:0:0:
192,192,9052,1,0,0:0:0:0:
320,192,9098,1,0,0:0:0:0:
64,192,9144,1,0,0:0:0:0:
448,192,9144,1,0,0:0:0:0:
192,192,9189,1,0,0:0:0:0:
448,192,9235,1,0,0:0:0:0:
192,192,9281,1,0,0:0:0:0:
448,192,9327,1,0,0:0:0:0:
320,192,9372,1,0,0:0:0:0:
64,192,9418,1,0,0:0:0:0:
192,192,9418,1,0,0:0:0:0:
448,192,9464,1,0,0:0:0:0:
320,192,9510,1,0,0:0:0:0:
192,192,9555,1,0,0:0:0:0:
448,192,9601,1,0,0:0:0:0:
64,192,9647,1,0,0:0:0:0:
192,192,9693,1,0,0:0:0:0:
320,192,9693,1,0,0:0:0:0:
448,192,9738,1,0,0:0:0:0:
64,192,9784,1,0,0:0:0:0:
320,192,9830,1,0,0:0:0:0:
192,192,9876,1,0,0:0:0:0:
64,192,9922,1,0,0:0:0:0:
320,192,9967,1,0,0:0:0:0:
448,192,9967,1,0,0:0:0:0:
64,192,10013,1,0,0:0:0:0:
192,192,10059,1,0,0:0:0:0:
320,192,10105,1,0,0:0:0:0:
448,192,10150,1,0,0:0:0:0:
64,192,10196,1,0,0:0:0:0:
192,192,10242,1,0,0:0:0:0:
448,192,10242,1,0,0:0:0:0:
320,192,10288,1,0,0:0:0:0:
64,192,10333,1,0,0:0:0:0:
192,192,10379,1,0,0:0:0:0:
448,192,10425,1,0,0:0:0:0:
320,192,10471,1,0,0:0:0:0:
64,192,10516,1,0,0:0:0:0:
192,192,10516,1,0,0:0:0:0:
448,192,10562,1,0,0:0:0:0:
320,192,10608,1,0,0:0:0:0:
64,0,10654,128,0,10688:1:0:0:0:
448,0,10654,128,0,10688:1:0:0:0:
192,0,10722,128,0,10757:1:0:0:0:
320,0,10722,128,0,10757:1:0:0:0:
64,0,10791,128,0,10825:1:0:0:0:
448,0,10791,128,0,10825:1:0:0:0:
192,192,10860,1,0,0:0:0:0:
320,0,10928,128,0,10963:1:0:0:0:
448,0,10928,128,0,10963:1:0:0:0:
64,192,10997,1,0,0:0:0:0:
192,192,11066,1,0,0:0:0:0:
448,192,11066,1,0,0:0:0:0:
320,192,11111,1,0,0:0:0:0:
192,192,11157,1,0,0:0:0:0:
320,192,11203,1,0,0:0:0:0:
448,192,11203,1,0,0:0:0:0:
192,192,11249,1,0,0:0:0:0:
64,192,11294,1,0,0:0:0:0:
448,192,11340,1,0,0:0:0:0:
320,192,11386,1,0,0:0:0:0:
192,192,11432,1,0,0:0:0:0:
64,192,11477,1,0,0:0:0:0:
448,192,11477,1,0,0:0:0:0:
320,192,11523,1,0,0:0:0:0:
192,192,11569,1,0,0:0:0:0:
320,192,11615,1,0,0:0:0:0:
448,192,11615,1,0,0:0:0:0:
64,192,11661,1,0,0:0:0:0:
192,192,11706,1,0,0:0:0:0:
320,192,11752,1,0,0:0:0:0:
192,192,11798,1,0,0:0:0:0:
320,192,11844,1,0,0:0:0:0:
64,192,11889,1,0,0:0:0:0:
448,192,11889,1,0,0:0:0:0:
192,192,11935,1,0,0:0:0:0:
448,192,11981,1,0,0:0:0:0:
320,192,12027,1,0,0:0:0:0:
192,192,12072,1,0,0:0:0:0:
64,192,12118,1,0,0:0:0:0:
320,192,12164,1,0,0:0:0:0:
448,192,12164,1,0,0:0:0:0:
64,192,12210,1,0,0:0:0:0:
192,192,12255,1,0,0:0:0:0:
320,192,12301,1,0,0:0:0:0:
448,192,12347,1,0,0:0:0:0:
320,192,12393,1,0,0:0:0:0:
64,192,12439,1,0,0:0:0:0:
192,192,12439,1,0,0:0:0:0:
448,192,12484,1,0,0:0:0:0:
320,192,12530,1,0,0:0:0:0:
192,192,12576,1,0,0:0:0:0:
64,192,12622,1,0,0:0:0:0:
448,192,12667,1,0,0:0:0:0:
192,192,12713,1,0,0:0:0:0:
320,192,12713,1,0,0:0:0:0:
192,0,12988,128,0,13125:1:0:0:0:
320,0,12988,128,0,13125:1:0:0:0:
64,0,13262,128,0,13297:1:0:0:0:
192,0,13262,128,0,13297:1:0:0:0:
320,192,13297,1,0,0:0:0:0:
448,192,13331,1,0,0:0:0:0:
64,192,13365,1,0,0:0:0:0:
192,192,13400,1,0,0:0:0:0:
448,192,13434,1,0,0:0:0:0:
320,192,13468,1,0,0:0:0:0:
64,192,13503,1,0,0:0:0:0:
192,192,13537,1,0,0:0:0:0:
320,192,13571,1,0,0:0:0:0:
448,192,13605,1,0,0:0:0:0:
192,192,13640,1,0,0:0:0:0:
320,192,13674,1,0,0:0:0:0:
64,192,13708,1,0,0:0:0:0:
192,192,13743,1,0,0:0:0:0:
320,192,13777,1,0,0:0:0:0:
448,192,13811,1,0,0:0:0:0:
64,192,13846,1,0,0:0:0:0:
192,192,13880,1,0,0:0:0:0:
320,192,13914,1,0,0:0:0:0:
64,192,13949,1,0,0:0:0:0:
192,192,13983,1,0,0:0:0:0:
448,192,14017,1,0,0:0:0:0:
320,192,14052,1,0,0:0:0:0:
64,192,14086,1,0,0:0:0:0:
192,192,14120,1,0,0:0:0:0:
320,192,14155,1,0,0:0:0:0:
448,192,14189,1,0,0:0:0:0:
64,192,14223,1,0,0:0:0:0:
320,192,14258,1,0,0:0:0:0:
192,192,14292,1,0,0:0:0:0:
448,192,14326,1,0,0:0:0:0:
320,192,14361,1,0,0:0:0:0:
192,192,14395,1,0,0:0:0:0:
64,192,14429,1,0,0:0:0:0:
448,192,14464,1,0,0:0:0:0:
320,192,14498,1,0,0:0:0:0:
192,192,14532,1,0,0:0:0:0:
448,192,14566,1,0,0:0:0:0:
64,192,14601,1,0,0:0:0:0:
320,192,14635,1,0,0:0:0:0:
192,192,14669,1,0,0:0:0:0:
64,192,14704,1,0,0:0:0:0:
448,192,14738,1,0,0:0:0:0:
320,192,14772,1,0,0:0:0:0:
192,192,14807,1,0,0:0:0:0:
448,192,14841,1,0,0:0:0:0:
320,192,14875,1,0,0:0:0:0:
192,192,14910,1,0,0:0:0:0:
64,192,14944,1,0,0:0:0:0:
448,192,14978,1,0,0:0:0:0:
64,192,15013,1,0,0:0:0:0:
192,192,15047,1,0,0:0:0:0:
320,192,15081,1,0,0:0:0:0:
64,192,15116,1,0,0:0:0:0:
192,192,15150,1,0,0:0:0:0:
320,192,15184,1,0,0:0:0:0:
448,192,15219,1,0,0:0:0:0:
64,192,15253,1,0,0:0:0:0:
320,192,15287,1,0,0:0:0:0:
192,192,15322,1,0,0:0:0:0:
448,192,15356,1,0,0:0:0:0:
320,192,15390,1,0,0:0:0:0:
64,192,15425,1,0,0:0:0:0:
192,192,15459,1,0,0:0:0:0:
320,192,15493,1,0,0:0:0:0:
448,192,15528,1,0,0:0:0:0:
192,192,15562,1,0,0:0:0:0:
320,192,15596,1,0,0:0:0:0:
64,192,15630,1,0,0:0:0:0:
192,192,15665,1,0,0:0:0:0:
320,192,15699,1,0,0:0:0:0:
448,192,15733,1,0,0:0:0:0:
64,192,15768,1,0,0:0:0:0:
320,192,15802,1,0,0:0:0:0:
192,192,15836,1,0,0:0:0:0:
64,192,15871,1,0,0:0:0:0:
448,192,15905,1,0,0:0:0:0:
320,192,15939,1,0,0:0:0:0:
192,192,15974,1,0,0:0:0:0:
448,192,16008,1,0,0:0:0:0:
320,192,16042,1,0,0:0:0:0:
192,192,16077,1,0,0:0:0:0:
64,192,16111,1,0,0:0:0:0:
320,192,16145,1,0,0:0:0:0:
192,192,16180,1,0,0:0:0:0:
64,192,16214,1,0,0:0:0:0:
448,192,16248,1,0,0:0:0:0:
320,192,16283,1,0,0:0:0:0:
64,192,16317,1,0,0:0:0:0:
192,192,16351,1,0,0:0:0:0:
320,192,16386,1,0,0:0:0:0:
448,192,16420,1,0,0:0:0:0:
192,192,16454,1,0,0:0:0:0:
320,192,16489,1,0,0:0:0:0:
448,192,16523,1,0,0:0:0:0:
64,192,16557,1,0,0:0:0:0:
192,192,16592,1,0,0:0:0:0:
448,192,16626,1,0,0:0:0:0:
320,192,16660,1,0,0:0:0:0:
64,192,16694,1,0,0:0:0:0:
448,192,16729,1,0,0:0:0:0:
192,192,16763,1,0,0:0:0:0:
320,192,16797,1,0,0:0:0:0:
64,192,16832,1,0,0:0:0:0:
192,192,16866,1,0,0:0:0:0:
320,192,16900,1,0,0:0:0:0:
448,192,16935,1,0,0:0:0:0:
64,192,16969,1,0,0:0:0:0:
192,192,17003,1,0,0:0:0:0:
448,192,17038,1,0,0:0:0:0:
64,192,17072,1,0,0:0:0:0:
192,192,17106,1,0,0:0:0:0:
320,192,17141,1,0,0:0:0:0:
448,192,17175,1,0,0:0:0:0:
192,192,17209,1,0,0:0:0:0:
320,192,17244,1,0,0:0:0:0:
64,192,17278,1,0,0:0:0:0:
448,192,17312,1,0,0:0:0:0:
320,192,17347,1,0,0:0:0:0:
192,192,17381,1,0,0:0:0:0:
64,192,17415,1,0,0:0:0:0:
320,192,17450,1,0,0:0:0:0:
192,192,17484,1,0,0:0:0:0:
448,192,17518,1,0,0:0:0:0:
320,192,17553,1,0,0:0:0:0:
192,192,17587,1,0,0:0:0:0:
64,192,17621,1,0,0:0:0:0:
320,0,17656,128,0,17690:1:0:0:0:
448,0,17656,128,0,17690:1:0:0:0:
192,192,17690,1,0,0:0:0:0:
64,192,17724,1,0,0:0:0:0:
448,192,17758,1,0,0:0:0:0:
320,192,17793,1,0,0:0:0:0:
192,192,17827,1,0,0:0:0:0:
448,192,17861,1,0,0:0:0:0:
320,192,17896,1,0,0:0:0:0:
64,192,17930,1,0,0:0:0:0:
192,192,17964,1,0,0:0:0:0:
320,192,17999,1,0,0:0:0:0:
448,192,18033,1,0,0:0:0:0:
64,192,18067,1,0,0:0:0:0:
192,192,18102,1,0,0:0:0:0:
448,192,18136,1,0,0:0:0:0:
64,192,18170,1,0,0:0:0:0:
320,192,18205,1,0,0:0:0:0:
192,192,18239,1,0,0:0:0:0:
448,192,18273,1,0,0:0:0:0:
64,192,18308,1,0,0:0:0:0:
192,192,18342,1,0,0:0:0:0:
320,192,18376,1,0,0:0:0:0:
448,192,18411,1,0,0:0:0:0:
192,192,18445,1,0,0:0:0:0:
320,192,18479,1,0,0:0:0:0:
64,192,18514,1,0,0:0:0:0:
192,192,18548,1,0,0:0:0:0:
320,192,18582,1,0,0:0:0:0:
448,192,18617,1,0,0:0:0:0:
64,192,18651,1,0,0:0:0:0:
320,192,18685,1,0,0:0:0:0:
192,192,18719,1,0,0:0:0:0:
64,192,18754,1,0,0:0:0:0:
448,192,18788,1,0,0:0:0:0:
320,192,18822,1,0,0:0:0:0:
192,192,18857,1,0,0:0:0:0:
448,192,18891,1,0,0:0:0:0:
320,192,18925,1,0,0:0:0:0:
192,192,18960,1,0,0:0:0:0:
64,192,18994,1,0,0:0:0:0:
448,192,19028,1,0,0:0:0:0:
192,192,19063,1,0,0:0:0:0:
320,192,19097,1,0,0:0:0:0:
64,192,19131,1,0,0:0:0:0:
192,192,19166,1,0,0:0:0:0:
448,192,19200,1,0,0:0:0:0:
320,192,19234,1,0,0:0:0:0:
64,192,19269,1,0,0:0:0:0:
192,192,19303,1,0,0:0:0:0:
320,192,19337,1,0,0:0:0:0:
448,192,19372,1,0,0:0:0:0:
64,192,19406,1,0,0:0:0:0:
192,192,19440,1,0,0:0:0:0:
448,192,19475,1,0,0:0:0:0:
320,192,19509,1,0,0:0:0:0:
192,192,19543,1,0,0:0:0:0:
64,192,19578,1,0,0:0:0:0:
320,192,19612,1,0,0:0:0:0:
192,192,19646,1,0,0:0:0:0:
64,192,19681,1,0,0:0:0:0:
448,192,19715,1,0,0:0:0:0:
320,192,19749,1,0,0:0:0:0:
192,192,19783,1,0,0:0:0:0:
64,192,19818,1,0,0:0:0:0:
320,192,19852,1,0,0:0:0:0:
448,192,19886,1,0,0:0:0:0:
192,192,19921,1,0,0:0:0:0:
320,192,19955,1,0,0:0:0:0:
64,192,19989,1,0,0:0:0:0:
192,192,20024,1,0,0:0:0:0:
320,192,20058,1,0,0:0:0:0:
448,192,20092,1,0,0:0:0:0:
192,192,20127,1,0,0:0:0:0:
320,192,20161,1,0,0:0:0:0:
64,192,20195,1,0,0:0:0:0:
448,192,20230,1,0,0:0:0:0:
320,192,20264,1,0,0:0:0:0:
64,192,20298,1,0,0:0:0:0:
192,192,20333,1,0,0:0:0:0:
320,192,20367,1,0,0:0:0:0:
448,192,20401,1,0,0:0:0:0:
192,192,20436,1,0,0:0:0:0:
64,192,20470,1,0,0:0:0:0:
448,192,20504,1,0,0:0:0:0:
320,192,20539,1,0,0:0:0:0:
192,192,20573,1,0,0:0:0:0:
448,192,20607,1,0,0:0:0:0:
320,192,20642,1,0,0:0:0:0:
192,192,20676,1,0,0:0:0:0:
64,192,20710,1,0,0:0:0:0:
320,192,20745,1,0,0:0:0:0:
192,192,20779,1,0,0:0:0:0:
64,192,20813,1,0,0:0:0:0:
448,192,20847,1,0,0:0:0:0:
320,192,20882,1,0,0:0:0:0:
64,192,20916,1,0,0:0:0:0:
192,192,20950,1,0,0:0:0:0:
448,192,20985,1,0,0:0:0:0:
320,192,21019,1,0,0:0:0:0:
192,192,21053,1,0,0:0:0:0:
448,192,21088,1,0,0:0:0:0:
192,192,21122,1,0,0:0:0:0:
320,192,21156,1,0,0:0:0:0:
64,192,21191,1,0,0:0:0:0:
192,192,21225,1,0,0:0:0:0:
320,192,21259,1,0,0:0:0:0:
448,192,21294,1,0,0:0:0:0:
64,192,21328,1,0,0:0:0:0:
320,192,21362,1,0,0:0:0:0:
448,192,21397,1,0,0:0:0:0:
64,192,21431,1,0,0:0:0:0:
192,192,21465,1,0,0:0:0:0:
320,0,21500,128,0,21774:1:0:0:0:
448,0,21774,128,0,21911:1:0:0:0:
64,192,22049,1,0,0:0:0:0:
448,192,22049,1,0,0:0:0:0:
320,192,22095,1,0,0:0:0:0:
192,192,22140,1,0,0:0:0:0:
320,192,22186,1,0,0:0:0:0:
192,192,22232,1,0,0:0:0:0:
64,192,22278,1,0,0:0:0:0:
320,192,22323,1,0,0:0:0:0:
448,192,22323,1,0,0:0:0:0:
64,192,22369,1,0,0:0:0:0:
192,192,22415,1,0,0:0:0:0:
320,192,22461,1,0,0:0:0:0:
64,192,22506,1,0,0:0:0:0:
448,192,22552,1,0,0:0:0:0:
192,192,22598,1,0,0:0:0:0:
320,192,22598,1,0,0:0:0:0:
64,192,22644,1,0,0:0:0:0:
448,192,22689,1,0,0:0:0:0:
320,192,22735,1,0,0:0:0:0:
64,192,22781,1,0,0:0:0:0:
192,192,22827,1,0,0:0:0:0:
320,192,22872,1,0,0:0:0:0:
448,192,22872,1,0,0:0:0:0:
192,192,22918,1,0,0:0:0:0:
64,192,22964,1,0,0:0:0:0:
448,192,23010,1,0,0:0:0:0:
192,192,23056,1,0,0:0:0:0:
320,192,23101,1,0,0:0:0:0:
64,192,23147,1,0,0:0:0:0:
192,192,23147,1,0,0:0:0:0:
320,192,23193,1,0,0:0:0:0:
448,192,23239,1,0,0:0:0:0:
64,192,23284,1,0,0:0:0:0:
192,192,23330,1,0,0:0:0:0:
320,192,23376,1,0,0:0:0:0:
64,192,23422,1,0,0:0:0:0:
448,192,23422,1,0,0:0:0:0:
192,192,23467,1,0,0:0:0:0:
320,192,23513,1,0,0:0:0:0:
192,192,23559,1,0,0:0:0:0:
320,192,23605,1,0,0:0:0:0:
448,192,23650,1,0,0:0:0:0:
64,192,23696,1,0,0:0:0:0:
192,192,23696,1,0,0:0:0:0:
448,192,23742,1,0,0:0:0:0:
320,192,23788,1,0,0:0:0:0:
64,0,23834,128,0,23868:1:0:0:0:
192,0,23834,128,0,23868:1:0:0:0:
320,0,23902,128,0,23936:1:0:0:0:
448,0,23902,128,0,23936:1:0:0:0:
64,0,23971,128,0,24005:1:0:0:0:
192,0,23971,128,0,24005:1:0:0:0:
320,192,24039,1,0,0:0:0:0:
64,0,24108,128,0,24142:1:0:0:0:
448,0,24108,128,0,24142:1:0:0:0:
192,192,24177,1,0,0:0:0:0:
320,192,24245,1,0,0:0:0:0:
448,192,24245,1,0,0:0:0:0:
64,192,24291,1,0,0:0:0:0:
192,192,24337,1,0,0:0:0:0:
320,192,24383,1,0,0:0:0:0:
448,192,24383,1,0,0:0:0:0:
64,192,24428,1,0,0:0:0:0:
192,192,24474,1,0,0:0:0:0:
320,192,24520,1,0,0:0:0:0:
192,192,24566,1,0,0:0:0:0:
320,192,24611,1,0,0:0:0:0:
64,192,24657,1,0,0:0:0:0:
448,192,24657,1,0,0:0:0:0:
192,192,24703,1,0,0:0:0:0:
320,192,24749,1,0,0:0:0:0:
64,192,24795,1,0,0:0:0:0:
192,192,24795,1,0,0:0:0:0:
448,192,24840,1,0,0:0:0:0:
320,192,24886,1,0,0:0:0:0:
192,192,24932,1,0,0:0:0:0:
448,192,24978,1,0,0:0:0:0:
320,192,25023,1,0,0:0:0:0:
64,192,25069,1,0,0:0:0:0:
448,192,25069,1,0,0:0:0:0:
192,192,25115,1,0,0:0:0:0:
320,192,25161,1,0,0:0:0:0:
64,192,25206,1,0,0:0:0:0:
192,192,25252,1,0,0:0:0:0:
448,192,25298,1,0,0:0:0:0:
192,192,25344,1,0,0:0:0:0:
320,192,25344,1,0,0:0:0:0:
64,192,25389,1,0,0:0:0:0:
448,192,25435,1,0,0:0:0:0:
192,192,25481,1,0,0:0:0:0:
320,192,25481,1,0,0:0:0:0:
64,192,25527,1,0,0:0:0:0:
448,192,25573,1,0,0:0:0:0:
320,192,25618,1,0,0:0:0:0:
64,192,25664,1,0,0:0:0:0:
192,192,25710,1,0,0:0:0:0:
64,192,25756,1,0,0:0:0:0:
448,192,25756,1,0,0:0:0:0:
192,192,25801,1,0,0:0:0:0:
320,192,25847,1,0,0:0:0:0:
64,192,25893,1,0,0:0:0:0:
448,192,25893,1,0,0:0:0:0:
192,192,25939,1,0,0:0:0:0:
320,192,25984,1,0,0:0:0:0:
64,192,26030,1,0,0:0:0:0:
448,192,26030,1,0,0:0:0:0:
320,192,26076,1,0,0:0:0:0:
192,192,26122,1,0,0:0:0:0:
64,192,26167,1,0,0:0:0:0:
448,192,26167,1,0,0:0:0:0:
320,192,26213,1,0,0:0:0:0:
192,192,26259,1,0,0:0:0:0:
64,192,26305,1,0,0:0:0:0:
448,192,26350,1,0,0:0:0:0:
320,192,26396,1,0,0:0:0:0:
64,192,26442,1,0,0:0:0:0:
192,192,26442,1,0,0:0:0:0:
448,192,26488,1,0,0:0:0:0:
320,192,26534,1,0,0:0:0:0:
192,192,26579,1,0,0:0:0:0:
320,192,26625,1,0,0:0:0:0:
192,192,26671,1,0,0:0:0:0:
64,192,26717,1,0,0:0:0:0:
448,192,26717,1,0,0:0:0:0:
320,192,26762,1,0,0:0:0:0:
64,192,26808,1,0,0:0:0:0:
320,192,26854,1,0,0:0:0:0:
64,192,26900,1,0,0:0:0:0:
192,192,26945,1,0,0:0:0:0:
320,192,26991,1,0,0:0:0:0:
448,192,26991,1,0,0:0:0:0:
64,192,27037,1,0,0:0:0:0:
192,192,27083,1,0,0:0:0:0:
320,192,27128,1,0,0:0:0:0:
64,192,27174,1,0,0:0:0:0:
448,192,27220,1,0,0:0:0:0:
192,192,27266,1,0,0:0:0:0:
320,192,27266,1,0,0:0:0:0:
64,192,27312,1,0,0:0:0:0:
448,192,27357,1,0,0:0:0:0:
192,192,27403,1,0,0:0:0:0:
320,192,27449,1,0,0:0:0:0:
448,192,27495,1,0,0:0:0:0:
64,192,27540,1,0,0:0:0:0:
192,192,27540,1,0,0:0:0:0:
448,192,27586,1,0,0:0:0:0:
320,192,27632,1,0,0:0:0:0:
192,192,27678,1,0,0:0:0:0:
64,192,27723,1,0,0:0:0:0:
448,192,27769,1,0,0:0:0:0:
64,192,27815,1,0,0:0:0:0:
320,192,27815,1,0,0:0:0:0:
192,192,27861,1,0,0:0:0:0:
448,192,27906,1,0,0:0:0:0:
320,192,27952,1,0,0:0:0:0:
64,192,27998,1,0,0:0:0:0:
192,192,28044,1,0,0:0:0:0:
320,192,28089,1,0,0:0:0:0:
448,192,28089,1,0,0:0:0:0:
64,192,28135,1,0,0:0:0:0:
192,192,28181,1,0,0:0:0:0:
64,0,28227,128,0,28261:1:0:0:0:
448,0,28227,128,0,28261:1:0:0:0:
192,0,28295,128,0,28330:1:0:0:0:
320,0,28295,128,0,28330:1:0:0:0:
64,0,28364,128,0,28398:1:0:0:0:
448,0,28364,128,0,28398:1:0:0:0:
320,192,28433,1,0,0:0:0:0:
64,0,28501,128,0,28536:1:0:0:0:
192,0,28501,128,0,28536:1:0:0:0:
448,192,28570,1,0,0:0:0:0:
64,192,28639,1,0,0:0:0:0:
320,192,28639,1,0,0:0:0:0:
192,192,28684,1,0,0:0:0:0:
320,192,28730,1,0,0:0:0:0:
64,192,28776,1,0,0:0:0:0:
192,192,28776,1,0,0:0:0:0:
320,192,28822,1,0,0:0:0:0:
448,192,28867,1,0,0:0:0:0:
64,192,28913,1,0,0:0:0:0:
192,192,28959,1,0,0:0:0:0:
320,192,29005,1,0,0:0:0:0:
64,192,29050,1,0,0:0:0:0:
448,192,29050,1,0,0:0:0:0:
192,192,29096,1,0,0:0:0:0:
320,192,29142,1,0,0:0:0:0:
64,192,29188,1,0,0:0:0:0:
192,192,29188,1,0,0:0:0:0:
448,192,29234,1,0,0:0:0:0:
320,192,29279,1,0,0:0:0:0:
192,192,29325,1,0,0:0:0:0:
320,192,29371,1,0,0:0:0:0:
192,192,29417,1,0,0:0:0:0:
64,192,29462,1,0,0:0:0:0:
448,192,29462,1,0,0:0:0:0:
320,192,29508,1,0,0:0:0:0:
64,192,29554,1,0,0:0:0:0:
192,192,29600,1,0,0:0:0:0:
320,192,29645,1,0,0:0:0:0:
448,192,29691,1,0,0:0:0:0:
64,192,29737,1,0,0:0:0:0:
192,192,29737,1,0,0:0:0:0:
448,192,29783,1,0,0:0:0:0:
320,192,29828,1,0,0:0:0:0:
192,192,29874,1,0,0:0:0:0:
64,192,29920,1,0,0:0:0:0:
192,192,29966,1,0,0:0:0:0:
320,192,30012,1,0,0:0:0:0:
448,192,30012,1,0,0:0:0:0:
64,192,30057,1,0,0:0:0:0:
192,192,30103,1,0,0:0:0:0:
320,192,30149,1,0,0:0:0:0:
448,192,30195,1,0,0:0:0:0:
64,192,30240,1,0,0:0:0:0:
192,192,30286,1,0,0:0:0:0:
320,192,30286,1,0,0:0:0:0:
192,0,30561,128,0,30698:1:0:0:0:
320,0,30561,128,0,30698:1:0:0:0:
320,0,30835,128,0,30870:1:0:0:0:
448,0,30835,128,0,30870:1:0:0:0:
192,192,30870,1,0,0:0:0:0:
64,192,30904,1,0,0:0:0:0:
448,192,30938,1,0,0:0:0:0:
320,192,30973,1,0,0:0:0:0:
64,192,31007,1,0,0:0:0:0:
192,192,31041,1,0,0:0:0:0:
448,192,31076,1,0,0:0:0:0:
320,192,31110,1,0,0:0:0:0:
192,192,31144,1,0,0:0:0:0:
64,192,31178,1,0,0:0:0:0:
320,192,31213,1,0,0:0:0:0:
192,192,31247,1,0,0:0:0:0:
448,192,31281,1,0,0:0:0:0:
320,192,31316,1,0,0:0:0:0:
192,192,31350,1,0,0:0:0:0:
64,192,31384,1,0,0:0:0:0:
448,192,31419,1,0,0:0:0:0:
320,192,31453,1,0,0:0:0:0:
192,192,31487,1,0,0:0:0:0:
448,192,31522,1,0,0:0:0:0:
320,192,31556,1,0,0:0:0:0:
64,192,31590,1,0,0:0:0:0:
192,192,31625,1,0,0:0:0:0:
448,192,31659,1,0,0:0:0:0:
320,192,31693,1,0,0:0:0:0:
192,192,31728,1,0,0:0:0:0:
64,192,31762,1,0,0:0:0:0:
448,192,31796,1,0,0:0:0:0:
192,192,31831,1,0,0:0:0:0:
320,192,31865,1,0,0:0:0:0:
64,192,31899,1,0,0:0:0:0:
192,192,31934,1,0,0:0:0:0:
320,192,31968,1,0,0:0:0:0:
448,192,32002,1,0,0:0:0:0:
64,192,32037,1,0,0:0:0:0:
192,192,32071,1,0,0:0:0:0:
320,192,32105,1,0,0:0:0:0:
64,192,32140,1,0,0:0:0:0:
448,192,32174,1,0,0:0:0:0:
192,192,32208,1,0,0:0:0:0:
320,192,32242,1,0,0:0:0:0:
448,192,32277,1,0,0:0:0:0:
64,192,32311,1,0,0:0:0:0:
192,192,32345,1,0,0:0:0:0:
320,192,32380,1,0,0:0:0:0:
64,192,32414,1,0,0:0:0:0:
192,192,32448,1,0,0:0:0:0:
320,192,32483,1,0,0:0:0:0:
448,192,32517,1,0,0:0:0:0:
64,192,32551,1,0,0:0:0:0:
448,192,32586,1,0,0:0:0:0:
320,192,32620,1,0,0:0:0:0:
192,192,32654,1,0,0:0:0:0:
448,192,32689,1,0,0:0:0:0:
320,192,32723,1,0,0:0:0:0:
192,192,32757,1,0,0:0:0:0:
64,192,32792,1,0,0:0:0:0:
448,192,32826,1,0,0:0:0:0:
192,192,32860,1,0,0:0:0:0:
320,192,32895,1,0,0:0:0:0:
64,192,32929,1,0,0:0:0:0:
192,192,32963,1,0,0:0:0:0:
448,192,32998,1,0,0:0:0:0:
320,192,33032,1,0,0:0:0:0:
192,192,33066,1,0,0:0:0:0:
64,192,33101,1,0,0:0:0:0:
320,192,33135,1,0,0:0:0:0:
192,192,33169,1,0,0:0:0:0:
448,192,33203,1,0,0:0:0:0:
320,192,33238,1,0,0:0:0:0:
192,192,33272,1,0,0:0:0:0:
64,192,33306,1,0,0:0:0:0:
448,192,33341,1,0,0:0:0:0:
192,192,33375,1,0,0:0:0:0:
320,192,33409,1,0,0:0:0:0:
448,192,33444,1,0,0:0:0:0:
64,192,33478,1,0,0:0:0:0:
192,192,33512,1,0,0:0:0:0:
320,192,33547,1,0,0:0:0:0:
64,192,33581,1,0,0:0:0:0:
192,192,33615,1,0,0:0:0:0:
320,192,33650,1,0,0:0:0:0:
448,192,33684,1,0,0:0:0:0:
192,192,33718,1,0,0:0:0:0:
320,192,33753,1,0,0:0:0:0:
448,192,33787,1,0,0:0:0:0:
64,192,33821,1,0,0:0:0:0:
192,192,33856,1,0,0:0:0:0:
448,192,33890,1,0,0:0:0:0:
320,192,33924,1,0,0:0:0:0:
192,192,33959,1,0,0:0:0:0:
64,192,33993,1,0,0:0:0:0:
320,192,34027,1,0,0:0:0:0:
192,192,34062,1,0,0:0:0:0:
64,192,34096,1,0,0:0:0:0:
448,192,34130,1,0,0:0:0:0:
320,192,34165,1,0,0:0:0:0:
64,192,34199,1,0,0:0:0:0:
192,192,34233,1,0,0:0:0:0:
448,192,34267,1,0,0:0:0:0:
64,192,34302,1,0,0:0:0:0:
320,192,34336,1,0,0:0:0:0:
192,192,34370,1,0,0:0:0:0:
448,192,34405,1,0,0:0:0:0:
320,192,34439,1,0,0:0:0:0:
192,192,34473,1,0,0:0:0:0:
64,192,34508,1,0,0:0:0:0:
448,192,34542,1,0,0:0:0:0:
320,192,34576,1,0,0:0:0:0:
64,192,34611,1,0,0:0:0:0:
448,192,34645,1,0,0:0:0:0:
320,192,34679,1,0,0:0:0:0:
192,192,34714,1,0,0:0:0:0:
64,192,34748,1,0,0:0:0:0:
320,192,34782,1,0,0:0:0:0:
192,192,34817,1,0,0:0:0:0:
448,192,34851,1,0,0:0:0:0:
64,192,34885,1,0,0:0:0:0:
192,192,34920,1,0,0:0:0:0:
320,192,34954,1,0,0:0:0:0:
448,192,34988,1,0,0:0:0:0:
192,192,35023,1,0,0:0:0:0:
320,192,35057,1,0,0:0:0:0:
64,192,35091,1,0,0:0:0:0:
192,192,35126,1,0,0:0:0:0:
320,192,35160,1,0,0:0:0:0:
448,192,35194,1,0,0:0:0:0:
64,0,35229,128,0,35263:1:0:0:0:
192,0,35229,128,0,35263:1:0:0:0:
320,192,35263,1,0,0:0:0:0:
448,192,35297,1,0,0:0:0:0:
64,192,35331,1,0,0:0:0:0:
192,192,35366,1,0,0:0:0:0:
320,192,35400,1,0,0:0:0:0:
64,192,35434,1,0,0:0:0:0:
192,192,35469,1,0,0:0:0:0:
448,192,35503,1,0,0:0:0:0:
320,192,35537,1,0,0:0:0:0:
192,192,35572,1,0,0:0:0:0:
64,192,35606,1,0,0:0:0:0:
448,192,35640,1,0,0:0:0:0:
320,192,35675,1,0,0:0:0:0:
64,192,35709,1,0,0:0:0:0:
448,192,35743,1,0,0:0:0:0:
192,192,35778,1,0,0:0:0:0:
320,192,35812,1,0,0:0:0:0:
64,192,35846,1,0,0:0:0:0:
448,192,35881,1,0,0:0:0:0:
320,192,35915,1,0,0:0:0:0:
192,192,35949,1,0,0:0:0:0:
64,192,35984,1,0,0:0:0:0:
320,192,36018,1,0,0:0:0:0:
192,192,36052,1,0,0:0:0:0:
448,192,36087,1,0,0:0:0:0:
320,192,36121,1,0,0:0:0:0:
192,192,36155,1,0,0:0:0:0:
64,192,36190,1,0,0:0:0:0:
448,192,36224,1,0,0:0:0:0:
192,192,36258,1,0,0:0:0:0:
320,192,36292,1,0,0:0:0:0:
448,192,36327,1,0,0:0:0:0:
64,192,36361,1,0,0:0:0:0:
192,192,36395,1,0,0:0:0:0:
320,192,36430,1,0,0:0:0:0:
64,192,36464,1,0,0:0:0:0:
192,192,36498,1,0,0:0:0:0:
320,192,36533,1,0,0:0:0:0:
448,192,36567,1,0,0:0:0:0:
64,192,36601,1,0,0:0:0:0:
320,192,36636,1,0,0:0:0:0:
192,192,36670,1,0,0:0:0:0:
448,192,36704,1,0,0:0:0:0:
320,192,36739,1,0,0:0:0:0:
64,192,36773,1,0,0:0:0:0:
192,192,36807,1,0,0:0:0:0:
448,192,36842,1,0,0:0:0:0:
320,192,36876,1,0,0:0:0:0:
192,192,36910,1,0,0:0:0:0:
64,192,36945,1,0,0:0:0:0:
448,192,36979,1,0,0:0:0:0:
320,192,37013,1,0,0:0:0:0:
64,192,37048,1,0,0:0:0:0:
192,192,37082,1,0,0:0:0:0:
320,192,37116,1,0,0:0:0:0:
448,192,37151,1,0,0:0:0:0:
192,192,37185,1,0,0:0:0:0:
320,192,37219,1,0,0:0:0:0:
448,192,37254,1,0,0:0:0:0:
64,192,37288,1,0,0:0:0:0:
192,192,37322,1,0,0:0:0:0:
320,192,37356,1,0,0:0:0:0:
448,192,37391,1,0,0:0:0:0:
192,192,37425,1,0,0:0:0:0:
64,192,37459,1,0,0:0:0:0:
320,192,37494,1,0,0:0:0:0:
192,192,37528,1,0,0:0:0:0:
448,192,37562,1,0,0:0:0:0:
320,192,37597,1,0,0:0:0:0:
192,192,37631,1,0,0:0:0:0:
64,192,37665,1,0,0:0:0:0:
320,192,37700,1,0,0:0:0:0:
192,192,37734,1,0,0:0:0:0:
448,192,37768,1,0,0:0:0:0:
64,192,37803,1,0,0:0:0:0:
192,192,37837,1,0,0:0:0:0:
448,192,37871,1,0,0:0:0:0:
320,192,37906,1,0,0:0:0:0:
192,192,37940,1,0,0:0:0:0:
64,192,37974,1,0,0:0:0:0:
320,192,38009,1,0,0:0:0:0:
448,192,38043,1,0,0:0:0:0:
64,192,38077,1,0,0:0:0:0:
192,192,38112,1,0,0:0:0:0:
320,192,38146,1,0,0:0:0:0:
64,192,38180,1,0,0:0:0:0:
192,192,38215,1,0,0:0:0:0:
320,192,38249,1,0,0:0:0:0:
448,192,38283,1,0,0:0:0:0:
192,192,38318,1,0,0:0:0:0:
320,192,38352,1,0,0:0:0:0:
448,192,38386,1,0,0:0:0:0:
64,192,38420,1,0,0:0:0:0:
192,192,38455,1,0,0:0:0:0:
448,192,38489,1,0,0:0:0:0:
320,192,38523,1,0,0:0:0:0:
64,192,38558,1,0,0:0:0:0:
192,192,38592,1,0,0:0:0:0:
320,192,38626,1,0,0:0:0:0:
64,192,38661,1,0,0:0:0:0:
320,192,38695,1,0,0:0:0:0:
192,192,38729,1,0,0:0:0:0:
448,192,38764,1,0,0:0:0:0:
320,192,38798,1,0,0:0:0:0:
192,192,38832,1,0,0:0:0:0:
64,192,38867,1,0,0:0:0:0:
448,192,38901,1,0,0:0:0:0:
192,192,38935,1,0,0:0:0:0:
64,192,38970,1,0,0:0:0:0:
448,192,39004,1,0,0:0:0:0:
320,192,39038,1,0,0:0:0:0:
192,0,39073,128,0,39347:1:0:0:0:
64,0,39347,128,0,39484:1:0:0:0:
320,192,39622,1,0,0:0:0:0:
320,192,39690,1,0,0:0:0:0:
64,192,39759,1,0,0:0:0:0:
192,192,39759,1,0,0:0:0:0:
192,192,39896,1,0,0:0:0:0:
320,192,40034,1,0,0:0:0:0:
448,192,40034,1,0,0:0:0:0:
64,192,40171,1,0,0:0:0:0:
192,192,40308,1,0,0:0:0:0:
192,192,40377,1,0,0:0:0:0:
320,192,40445,1,0,0:0:0:0:
448,192,40445,1,0,0:0:0:0:
192,192,40583,1,0,0:0:0:0:
320,192,40583,1,0,0:0:0:0:
448,192,40720,1,0,0:0:0:0:
448,192,40789,1,0,0:0:0:0:
64,192,40857,1,0,0:0:0:0:
320,192,40857,1,0,0:0:0:0:
192,192,40995,1,0,0:0:0:0:
320,192,41132,1,0,0:0:0:0:
448,192,41132,1,0,0:0:0:0:
64,192,41269,1,0,0:0:0:0:
64,192,41338,1,0,0:0:0:0:
320,192,41407,1,0,0:0:0:0:
448,192,41407,1,0,0:0:0:0:
192,192,41544,1,0,0:0:0:0:
64,192,41681,1,0,0:0:0:0:
448,192,41681,1,0,0:0:0:0:
320,192,41818,1,0,0:0:0:0:
320,192,41887,1,0,0:0:0:0:
64,192,41956,1,0,0:0:0:0:
448,192,41956,1,0,0:0:0:0:
192,192,42093,1,0,0:0:0:0:
320,192,42230,1,0,0:0:0:0:
448,192,42230,1,0,0:0:0:0:
64,192,42368,1,0,0:0:0:0:
320,192,42505,1,0,0:0:0:0:
320,192,42573,1,0,0:0:0:0:
64,192,42642,1,0,0:0:0:0:
448,192,42642,1,0,0:0:0:0:
64,192,42779,1,0,0:0:0:0:
320,192,42779,1,0,0:0:0:0:
64,192,42917,1,0,0:0:0:0:
64,192,42985,1,0,0:0:0:0:
320,192,43054,1,0,0:0:0:0:
448,192,43054,1,0,0:0:0:0:
192,192,43191,1,0,0:0:0:0:
64,192,43329,1,0,0:0:0:0:
320,192,43329,1,0,0:0:0:0:
64,192,43466,1,0,0:0:0:0:
64,192,43534,1,0,0:0:0:0:
320,192,43603,1,0,0:0:0:0:
448,192,43603,1,0,0:0:0:0:
192,192,43740,1,0,0:0:0:0:
64,192,43878,1,0,0:0:0:0:
320,192,43878,1,0,0:0:0:0:
320,192,44015,1,0,0:0:0:0:
320,192,44084,1,0,0:0:0:0:
64,192,44152,1,0,0:0:0:0:
448,192,44152,1,0,0:0:0:0:
192,192,44290,1,0,0:0:0:0:
320,192,44427,1,0,0:0:0:0:
448,192,44427,1,0,0:0:0:0:
64,192,44564,1,0,0:0:0:0:
192,192,44701,1,0,0:0:0:0:
192,192,44770,1,0,0:0:0:0:
64,192,44839,1,0,0:0:0:0:
320,192,44839,1,0,0:0:0:0:
192,192,44976,1,0,0:0:0:0:
320,192,44976,1,0,0:0:0:0:
448,192,45113,1,0,0:0:0:0:
448,192,45182,1,0,0:0:0:0:
192,192,45251,1,0,0:0:0:0:
320,192,45251,1,0,0:0:0:0:
64,0,45251,128,0,45319:1:0:0:0:
192,192,45388,1,0,0:0:0:0:
64,0,45388,128,0,45457:1:0:0:0:
320,192,45525,1,0,0:0:0:0:
448,192,45525,1,0,0:0:0:0:
64,192,45662,1,0,0:0:0:0:
64,192,45731,1,0,0:0:0:0:
320,192,45800,1,0,0:0:0:0:
448,192,45800,1,0,0:0:0:0:
192,192,45937,1,0,0:0:0:0:
64,192,46074,1,0,0:0:0:0:
448,192,46074,1,0,0:0:0:0:
320,192,46212,1,0,0:0:0:0:
320,192,46280,1,0,0:0:0:0:
64,192,46349,1,0,0:0:0:0:
448,192,46349,1,0,0:0:0:0:
192,192,46486,1,0,0:0:0:0:
320,192,46624,1,0,0:0:0:0:
448,192,46624,1,0,0:0:0:0:
64,192,46761,1,0,0:0:0:0:
320,192,46898,1,0,0:0:0:0:
320,192,46967,1,0,0:0:0:0:
64,192,47035,1,0,0:0:0:0:
448,192,47035,1,0,0:0:0:0:
64,192,47173,1,0,0:0:0:0:
320,192,47173,1,0,0:0:0:0:
64,192,47310,1,0,0:0:0:0:
64,192,47379,1,0,0:0:0:0:
192,192,47447,1,0,0:0:0:0:
448,192,47447,1,0,0:0:0:0:
320,192,47585,1,0,0:0:0:0:
64,192,47722,1,0,0:0:0:0:
192,192,47722,1,0,0:0:0:0:
448,192,47859,1,0,0:0:0:0:
320,192,47996,1,0,0:0:0:0:
320,192,48065,1,0,0:0:0:0:
448,192,48134,1,0,0:0:0:0:
320,192,48271,1,0,0:0:0:0:
64,192,48408,1,0,0:0:0:0:
192,192,48454,1,0,0:0:0:0:
320,192,48500,1,0,0:0:0:0:
192,192,48546,1,0,0:0:0:0:
320,192,48591,1,0,0:0:0:0:
448,192,48637,1,0,0:0:0:0:
64,192,48683,1,0,0:0:0:0:
448,192,48729,1,0,0:0:0:0:
320,192,48774,1,0,0:0:0:0:
192,192,48820,1,0,0:0:0:0:
64,192,48866,1,0,0:0:0:0:
320,192,48912,1,0,0:0:0:0:
192,192,48957,1,0,0:0:0:0:
448,192,49003,1,0,0:0:0:0:
320,192,49049,1,0,0:0:0:0:
192,192,49095,1,0,0:0:0:0:
64,192,49140,1,0,0:0:0:0:
448,192,49186,1,0,0:0:0:0:
320,192,49232,1,0,0:0:0:0:
64,192,49278,1,0,0:0:0:0:
192,192,49324,1,0,0:0:0:0:
320,192,49369,1,0,0:0:0:0:
192,192,49415,1,0,0:0:0:0:
320,192,49461,1,0,0:0:0:0:
448,192,49507,1,0,0:0:0:0:
64,192,49552,1,0,0:0:0:0:
448,192,49598,1,0,0:0:0:0:
320,192,49644,1,0,0:0:0:0:
192,192,49690,1,0,0:0:0:0:
448,192,49735,1,0,0:0:0:0:
320,192,49781,1,0,0:0:0:0:
64,192,49827,1,0,0:0:0:0:
448,192,49873,1,0,0:0:0:0:
320,192,49918,1,0,0:0:0:0:
192,192,49964,1,0,0:0:0:0:
64,192,50010,1,0,0:0:0:0:
320,192,50056,1,0,0:0:0:0:
192,192,50101,1,0,0:0:0:0:
64,192,50147,1,0,0:0:0:0:
320,0,50193,128,0,50227:1:0:0:0:
192,0,50262,128,0,50296:1:0:0:0:
320,0,50330,128,0,50365:1:0:0:0:
448,0,50468,128,0,50502:1:0:0:0:
448,192,50605,1,0,0:0:0:0:
320,192,50651,1,0,0:0:0:0:
192,192,50696,1,0,0:0:0:0:
64,192,50742,1,0,0:0:0:0:
320,192,50788,1,0,0:0:0:0:
192,192,50834,1,0,0:0:0:0:
448,192,50879,1,0,0:0:0:0:
320,192,50925,1,0,0:0:0:0:
192,192,50971,1,0,0:0:0:0:
64,192,51017,1,0,0:0:0:0:
448,192,51063,1,0,0:0:0:0:
64,192,51108,1,0,0:0:0:0:
192,192,51154,1,0,0:0:0:0:
320,192,51200,1,0,0:0:0:0:
64,192,51246,1,0,0:0:0:0:
192,192,51291,1,0,0:0:0:0:
448,192,51337,1,0,0:0:0:0:
320,192,51383,1,0,0:0:0:0:
448,192,51429,1,0,0:0:0:0:
64,192,51474,1,0,0:0:0:0:
192,192,51520,1,0,0:0:0:0:
320,192,51566,1,0,0:0:0:0:
448,192,51612,1,0,0:0:0:0:
192,192,51657,1,0,0:0:0:0:
320,192,51703,1,0,0:0:0:0:
64,192,51749,1,0,0:0:0:0:
192,192,51795,1,0,0:0:0:0:
448,192,51840,1,0,0:0:0:0:
320,192,51886,1,0,0:0:0:0:
192,192,51932,1,0,0:0:0:0:
320,192,51978,1,0,0:0:0:0:
192,192,52024,1,0,0:0:0:0:
64,192,52069,1,0,0:0:0:0:
448,192,52115,1,0,0:0:0:0:
64,192,52161,1,0,0:0:0:0:
192,192,52207,1,0,0:0:0:0:
320,192,52252,1,0,0:0:0:0:
64,192,52298,1,0,0:0:0:0:
192,192,52344,1,0,0:0:0:0:
448,192,52390,1,0,0:0:0:0:
64,192,52435,1,0,0:0:0:0:
320,192,52481,1,0,0:0:0:0:
448,192,52527,1,0,0:0:0:0:
192,192,52573,1,0,0:0:0:0:
320,192,52618,1,0,0:0:0:0:
448,192,52664,1,0,0:0:0:0:
192,192,52710,1,0,0:0:0:0:
320,192,52756,1,0,0:0:0:0:
64,192,52802,1,0,0:0:0:0:
192,192,52847,1,0,0:0:0:0:
448,192,52870,1,0,0:0:0:0:
320,192,52893,1,0,0:0:0:0:
64,192,52939,1,0,0:0:0:0:
320,192,52985,1,0,0:0:0:0:
192,192,53007,1,0,0:0:0:0:
448,192,53030,1,0,0:0:0:0:
64,192,53076,1,0,0:0:0:0:
448,192,53122,1,0,0:0:0:0:
192,192,53145,1,0,0:0:0:0:
320,192,53168,1,0,0:0:0:0:
64,192,53213,1,0,0:0:0:0:
192,192,53259,1,0,0:0:0:0:
448,192,53282,1,0,0:0:0:0:
320,192,53305,1,0,0:0:0:0:
192,192,53351,1,0,0:0:0:0:
448,192,53396,1,0,0:0:0:0:
64,192,53419,1,0,0:0:0:0:
320,192,53442,1,0,0:0:0:0:
192,192,53488,1,0,0:0:0:0:
64,192,53534,1,0,0:0:0:0:
320,192,53557,1,0,0:0:0:0:
448,192,53579,1,0,0:0:0:0:
192,192,53625,1,0,0:0:0:0:
64,192,53671,1,0,0:0:0:0:
320,192,53694,1,0,0:0:0:0:
448,192,53717,1,0,0:0:0:0:
192,192,53763,1,0,0:0:0:0:
320,192,53808,1,0,0:0:0:0:
64,192,53831,1,0,0:0:0:0:
192,192,53854,1,0,0:0:0:0:
448,192,53900,1,0,0:0:0:0:
64,192,53946,1,0,0:0:0:0:
320,192,53968,1,0,0:0:0:0:
448,192,53991,1,0,0:0:0:0:
192,192,54037,1,0,0:0:0:0:
320,192,54083,1,0,0:0:0:0:
64,192,54106,1,0,0:0:0:0:
448,192,54129,1,0,0:0:0:0:
320,192,54174,1,0,0:0:0:0:
64,192,54220,1,0,0:0:0:0:
192,192,54243,1,0,0:0:0:0:
448,192,54266,1,0,0:0:0:0:
320,192,54312,1,0,0:0:0:0:
192,192,54357,1,0,0:0:0:0:
448,192,54380,1,0,0:0:0:0:
64,192,54403,1,0,0:0:0:0:
320,192,54449,1,0,0:0:0:0:
448,192,54495,1,0,0:0:0:0:
64,192,54518,1,0,0:0:0:0:
320,192,54541,1,0,0:0:0:0:
192,0,54586,128,0,54621:1:0:0:0:
448,0,54586,128,0,54621:1:0:0:0:
64,0,54655,128,0,54689:1:0:0:0:
320,0,54655,128,0,54689:1:0:0:0:
192,0,54724,128,0,54758:1:0:0:0:
448,0,54724,128,0,54758:1:0:0:0:
320,192,54792,1,0,0:0:0:0:
64,0,54861,128,0,54895:1:0:0:0:
192,0,54861,128,0,54895:1:0:0:0:
320,192,54929,1,0,0:0:0:0:
448,192,54998,1,0,0:0:0:0:
320,192,55044,1,0,0:0:0:0:
192,192,55067,1,0,0:0:0:0:
448,192,55090,1,0,0:0:0:0:
64,192,55135,1,0,0:0:0:0:
192,192,55181,1,0,0:0:0:0:
448,192,55204,1,0,0:0:0:0:
320,192,55227,1,0,0:0:0:0:
64,192,55273,1,0,0:0:0:0:
448,192,55318,1,0,0:0:0:0:
192,192,55341,1,0,0:0:0:0:
320,192,55364,1,0,0:0:0:0:
64,192,55410,1,0,0:0:0:0:
192,192,55456,1,0,0:0:0:0:
320,192,55479,1,0,0:0:0:0:
448,192,55502,1,0,0:0:0:0:
64,192,55547,1,0,0:0:0:0:
448,192,55593,1,0,0:0:0:0:
192,192,55616,1,0,0:0:0:0:
320,192,55639,1,0,0:0:0:0:
64,192,55685,1,0,0:0:0:0:
192,192,55730,1,0,0:0:0:0:
320,192,55753,1,0,0:0:0:0:
448,192,55776,1,0,0:0:0:0:
64,192,55822,1,0,0:0:0:0:
448,192,55868,1,0,0:0:0:0:
320,192,55891,1,0,0:0:0:0:
192,192,55913,1,0,0:0:0:0:
64,192,55959,1,0,0:0:0:0:
320,192,56005,1,0,0:0:0:0:
192,192,56028,1,0,0:0:0:0:
448,192,56051,1,0,0:0:0:0:
64,0,56096,128,0,56131:1:0:0:0:
320,0,56096,128,0,56131:1:0:0:0:
192,192,56142,1,0,0:0:0:0:
448,192,56165,1,0,0:0:0:0:
320,192,56188,1,0,0:0:0:0:
64,192,56234,1,0,0:0:0:0:
448,192,56280,1,0,0:0:0:0:
192,192,56302,1,0,0:0:0:0:
64,192,56325,1,0,0:0:0:0:
320,0,56371,128,0,56405:1:0:0:0:
448,0,56371,128,0,56405:1:0:0:0:
192,192,56417,1,0,0:0:0:0:
64,192,56440,1,0,0:0:0:0:
320,192,56508,1,0,0:0:0:0:
192,192,56554,1,0,0:0:0:0:
448,192,56577,1,0,0:0:0:0:
320,192,56600,1,0,0:0:0:0:
64,0,56646,128,0,56680:1:0:0:0:
192,0,56646,128,0,56680:1:0:0:0:
64,192,56783,1,0,0:0:0:0:
192,192,56783,1,0,0:0:0:0:
64,192,56852,1,0,0:0:0:0:
192,192,56852,1,0,0:0:0:0:
64,0,56920,128,0,56989:1:0:0:0:
192,0,56920,128,0,56989:1:0:0:0:
320,0,56920,128,0,57057:1:0:0:0:
448,0,56920,128,0,57057:1:0:0:0:
64,192,57057,1,0,0:0:0:0:
192,192,57057,1,0,0:0:0:0:
64,0,57195,128,0,57229:1:0:0:0:
192,0,57195,128,0,57229:1:0:0:0:
320,192,57229,1,0,0:0:0:0:
448,192,57263,1,0,0:0:0:0:
64,192,57298,1,0,0:0:0:0:
192,192,57332,1,0,0:0:0:0:
448,192,57366,1,0,0:0:0:0:
320,192,57401,1,0,0:0:0:0:
64,192,57435,1,0,0:0:0:0:
192,192,57469,1,0,0:0:0:0:
320,192,57504,1,0,0:0:0:0:
448,192,57538,1,0,0:0:0:0:
192,192,57572,1,0,0:0:0:0:
320,192,57607,1,0,0:0:0:0:
64,192,57641,1,0,0:0:0:0:
192,192,57675,1,0,0:0:0:0:
320,192,57710,1,0,0:0:0:0:
448,192,57744,1,0,0:0:0:0:
64,192,57778,1,0,0:0:0:0:
192,192,57813,1,0,0:0:0:0:
320,192,57847,1,0,0:0:0:0:
64,192,57881,1,0,0:0:0:0:
192,192,57916,1,0,0:0:0:0:
448,192,57950,1,0,0:0:0:0:
320,192,57984,1,0,0:0:0:0:
64,192,58018,1,0,0:0:0:0:
192,192,58053,1,0,0:0:0:0:
320,192,58087,1,0,0:0:0:0:
448,192,58121,1,0,0:0:0:0:
64,192,58156,1,0,0:0:0:0:
320,192,58190,1,0,0:0:0:0:
192,192,58224,1,0,0:0:0:0:
448,192,58259,1,0,0:0:0:0:
320,192,58293,1,0,0:0:0:0:
192,192,58327,1,0,0:0:0:0:
64,192,58362,1,0,0:0:0:0:
448,192,58396,1,0,0:0:0:0:
320,192,58430,1,0,0:0:0:0:
192,192,58465,1,0,0:0:0:0:
448,192,58499,1,0,0:0:0:0:
64,192,58533,1,0,0:0:0:0:
320,192,58568,1,0,0:0:0:0:
192,192,58602,1,0,0:0:0:0:
64,192,58636,1,0,0:0:0:0:
448,192,58671,1,0,0:0:0:0:
320,192,58705,1,0,0:0:0:0:
192,192,58739,1,0,0:0:0:0:
448,192,58774,1,0,0:0:0:0:
320,192,58808,1,0,0:0:0:0:
192,192,58842,1,0,0:0:0:0:
64,192,58877,1,0,0:0:0:0:
448,192,58911,1,0,0:0:0:0:
64,192,58945,1,0,0:0:0:0:
192,192,58980,1,0,0:0:0:0:
320,192,59014,1,0,0:0:0:0:
64,192,59048,1,0,0:0:0:0:
192,192,59082,1,0,0:0:0:0:
320,192,59117,1,0,0:0:0:0:
448,192,59151,1,0,0:0:0:0:
64,192,59185,1,0,0:0:0:0:
320,192,59220,1,0,0:0:0:0:
192,192,59254,1,0,0:0:0:0:
448,192,59288,1,0,0:0:0:0:
320,192,59323,1,0,0:0:0:0:
64,192,59357,1,0,0:0:0:0:
192,192,59391,1,0,0:0:0:0:
320,192,59426,1,0,0:0:0:0:
448,192,59460,1,0,0:0:0:0:
192,192,59494,1,0,0:0:0:0:
320,192,59529,1,0,0:0:0:0:
64,192,59563,1,0,0:0:0:0:
192,192,59597,1,0,0:0:0:0:
320,192,59632,1,0,0:0:0:0:
448,192,59666,1,0,0:0:0:0:
64,192,59700,1,0,0:0:0:0:
320,192,59735,1,0,0:0:0:0:
192,192,59769,1,0,0:0:0:0:
64,192,59803,1,0,0:0:0:0:
448,192,59838,1,0,0:0:0:0:
320,192,59872,1,0,0:0:0:0:
192,192,59906,1,0,0:0:0:0:
448,192,59941,1,0,0:0:0:0:
320,192,59975,1,0,0:0:0:0:
192,192,60009,1,0,0:0:0:0:
64,192,60044,1,0,0:0:0:0:
320,192,60078,1,0,0:0:0:0:
192,192,60112,1,0,0:0:0:0:
64,192,60146,1,0,0:0:0:0:
448,192,60181,1,0,0:0:0:0:
320,192,60215,1,0,0:0:0:0:
64,192,60249,1,0,0:0:0:0:
192,192,60284,1,0,0:0:0:0:
320,192,60318,1,0,0:0:0:0:
448,192,60352,1,0,0:0:0:0:
192,192,60387,1,0,0:0:0:0:
320,192,60421,1,0,0:0:0:0:
448,192,60455,1,0,0:0:0:0:
64,192,60490,1,0,0:0:0:0:
192,192,60524,1,0,0:0:0:0:
448,192,60558,1,0,0:0:0:0:
320,192,60593,1,0,0:0:0:0:
64,192,60627,1,0,0:0:0:0:
448,192,60661,1,0,0:0:0:0:
192,192,60696,1,0,0:0:0:0:
320,192,60730,1,0,0:0:0:0:
64,192,60764,1,0,0:0:0:0:
192,192,60799,1,0,0:0:0:0:
320,192,60833,1,0,0:0:0:0:
448,192,60867,1,0,0:0:0:0:
64,192,60902,1,0,0:0:0:0:
192,192,60936,1,0,0:0:0:0:
448,192,60970,1,0,0:0:0:0:
64,192,61005,1,0,0:0:0:0:
192,192,61039,1,0,0:0:0:0:
320,192,61073,1,0,0:0:0:0:
448,192,61108,1,0,0:0:0:0:
192,192,61142,1,0,0:0:0:0:
320,192,61176,1,0,0:0:0:0:
64,192,61210,1,0,0:0:0:0:
448,192,61245,1,0,0:0:0:0:
320,192,61279,1,0,0:0:0:0:
192,192,61313,1,0,0:0:0:0:
64,192,61348,1,0,0:0:0:0:
320,192,61382,1,0,0:0:0:0:
192,192,61416,1,0,0:0:0:0:
448,192,61451,1,0,0:0:0:0:
320,192,61485,1,0,0:0:0:0:
192,192,61519,1,0,0:0:0:0:
64,192,61554,1,0,0:0:0:0:
320,0,61588,128,0,61622:1:0:0:0:
448,0,61588,128,0,61622:1:0:0:0:
192,192,61622,1,0,0:0:0:0:
64,192,61657,1,0,0:0:0:0:
448,192,61691,1,0,0:0:0:0:
320,192,61725,1,0,0:0:0:0:
192,192,61760,1,0,0:0:0:0:
448,192,61794,1,0,0:0:0:0:
320,192,61828,1,0,0:0:0:0:
64,192,61863,1,0,0:0:0:0:
192,192,61897,1,0,0:0:0:0:
320,192,61931,1,0,0:0:0:0:
448,192,61966,1,0,0:0:0:0:
64,192,62000,1,0,0:0:0:0:
192,192,62034,1,0,0:0:0:0:
448,192,62069,1,0,0:0:0:0:
64,192,62103,1,0,0:0:0:0:
320,192,62137,1,0,0:0:0:0:
192,192,62171,1,0,0:0:0:0:
448,192,62206,1,0,0:0:0:0:
64,192,62240,1,0,0:0:0:0:
192,192,62274,1,0,0:0:0:0:
320,192,62309,1,0,0:0:0:0:
448,192,62343,1,0,0:0:0:0:
192,192,62377,1,0,0:0:0:0:
320,192,62412,1,0,0:0:0:0:
64,192,62446,1,0,0:0:0:0:
192,192,62480,1,0,0:0:0:0:
320,192,62515,1,0,0:0:0:0:
448,192,62549,1,0,0:0:0:0:
64,192,62583,1,0,0:0:0:0:
320,192,62618,1,0,0:0:0:0:
192,192,62652,1,0,0:0:0:0:
64,192,62686,1,0,0:0:0:0:
448,192,62721,1,0,0:0:0:0:
320,192,62755,1,0,0:0:0:0:
192,192,62789,1,0,0:0:0:0:
448,192,62824,1,0,0:0:0:0:
320,192,62858,1,0,0:0:0:0:
192,192,62892,1,0,0:0:0:0:
64,192,62927,1,0,0:0:0:0:
448,192,62961,1,0,0:0:0:0:
192,192,62995,1,0,0:0:0:0:
320,192,63030,1,0,0:0:0:0:
64,192,63064,1,0,0:0:0:0:
192,192,63098,1,0,0:0:0:0:
448,192,63133,1,0,0:0:0:0:
320,192,63167,1,0,0:0:0:0:
64,192,63201,1,0,0:0:0:0:
192,192,63235,1,0,0:0:0:0:
320,192,63270,1,0,0:0:0:0:
448,192,63304,1,0,0:0:0:0:
64,192,63338,1,0,0:0:0:0:
192,192,63373,1,0,0:0:0:0:
448,192,63407,1,0,0:0:0:0:
320,192,63441,1,0,0:0:0:0:
192,192,63476,1,0,0:0:0:0:
64,192,63510,1,0,0:0:0:0:
320,192,63544,1,0,0:0:0:0:
192,192,63579,1,0,0:0:0:0:
64,192,63613,1,0,0:0:0:0:
448,192,63647,1,0,0:0:0:0:
320,192,63682,1,0,0:0:0:0:
192,192,63716,1,0,0:0:0:0:
64,192,63750,1,0,0:0:0:0:
320,192,63785,1,0,0:0:0:0:
448,192,63819,1,0,0:0:0:0:
192,192,63853,1,0,0:0:0:0:
320,192,63888,1,0,0:0:0:0:
64,192,63922,1,0,0:0:0:0:
192,192,63956,1,0,0:0:0:0:
448,192,63991,1,0,0:0:0:0:
320,192,64025,1,0,0:0:0:0:
192,192,64059,1,0,0:0:0:0:
448,192,64094,1,0,0:0:0:0:
64,192,64128,1,0,0:0:0:0:
320,192,64162,1,0,0:0:0:0:
448,192,64197,1,0,0:0:0:0:
64,192,64231,1,0,0:0:0:0:
192,192,64265,1,0,0:0:0:0:
320,192,64299,1,0,0:0:0:0:
448,192,64334,1,0,0:0:0:0:
192,192,64368,1,0,0:0:0:0:
64,192,64402,1,0,0:0:0:0:
448,192,64437,1,0,0:0:0:0:
320,192,64471,1,0,0:0:0:0:
192,192,64505,1,0,0:0:0:0:
448,192,64540,1,0,0:0:0:0:
320,192,64574,1,0,0:0:0:0:
192,192,64608,1,0,0:0:0:0:
64,192,64643,1,0,0:0:0:0:
320,192,64677,1,0,0:0:0:0:
192,192,64711,1,0,0:0:0:0:
64,192,64746,1,0,0:0:0:0:
448,192,64780,1,0,0:0:0:0:
320,192,64814,1,0,0:0:0:0:
64,192,64849,1,0,0:0:0:0:
192,192,64883,1,0,0:0:0:0:
448,192,64917,1,0,0:0:0:0:
320,192,64952,1,0,0:0:0:0:
192,192,64986,1,0,0:0:0:0:
448,192,65020,1,0,0:0:0:0:
192,192,65055,1,0,0:0:0:0:
320,192,65089,1,0,0:0:0:0:
64,192,65123,1,0,0:0:0:0:
192,192,65158,1,0,0:0:0:0:
320,192,65192,1,0,0:0:0:0:
448,192,65226,1,0,0:0:0:0:
64,192,65260,1,0,0:0:0:0:
320,192,65295,1,0,0:0:0:0:
448,192,65329,1,0,0:0:0:0:
64,192,65363,1,0,0:0:0:0:
192,192,65398,1,0,0:0:0:0:
320,0,65432,128,0,65707:1:0:0:0:
448,0,65707,128,0,65844:1:0:0:0:
64,192,65981,1,0,0:0:0:0:
448,192,65981,1,0,0:0:0:0:
192,192,66027,1,0,0:0:0:0:
320,192,66073,1,0,0:0:0:0:
192,192,66119,1,0,0:0:0:0:
320,192,66164,1,0,0:0:0:0:
448,192,66210,1,0,0:0:0:0:
64,192,66256,1,0,0:0:0:0:
192,192,66256,1,0,0:0:0:0:
448,192,66302,1,0,0:0:0:0:
320,192,66347,1,0,0:0:0:0:
192,192,66393,1,0,0:0:0:0:
448,192,66439,1,0,0:0:0:0:
64,192,66485,1,0,0:0:0:0:
192,192,66530,1,0,0:0:0:0:
320,192,66530,1,0,0:0:0:0:
448,192,66576,1,0,0:0:0:0:
64,192,66622,1,0,0:0:0:0:
192,192,66668,1,0,0:0:0:0:
448,192,66713,1,0,0:0:0:0:
320,192,66759,1,0,0:0:0:0:
64,192,66805,1,0,0:0:0:0:
192,192,66805,1,0,0:0:0:0:
320,192,66851,1,0,0:0:0:0:
448,192,66897,1,0,0:0:0:0:
64,192,66942,1,0,0:0:0:0:
320,192,66988,1,0,0:0:0:0:
192,192,67034,1,0,0:0:0:0:
320,192,67080,1,0,0:0:0:0:
448,192,67080,1,0,0:0:0:0:
192,192,67125,1,0,0:0:0:0:
64,192,67171,1,0,0:0:0:0:
448,192,67217,1,0,0:0:0:0:
320,192,67263,1,0,0:0:0:0:
192,192,67308,1,0,0:0:0:0:
64,192,67354,1,0,0:0:0:0:
448,192,67354,1,0,0:0:0:0:
320,192,67400,1,0,0:0:0:0:
192,192,67446,1,0,0:0:0:0:
320,192,67491,1,0,0:0:0:0:
192,192,67537,1,0,0:0:0:0:
64,192,67583,1,0,0:0:0:0:
320,192,67629,1,0,0:0:0:0:
448,192,67629,1,0,0:0:0:0:
64,192,67674,1,0,0:0:0:0:
192,192,67720,1,0,0:0:0:0:
320,0,67766,128,0,67800:1:0:0:0:
448,0,67766,128,0,67800:1:0:0:0:
64,0,67835,128,0,67869:1:0:0:0:
192,0,67835,128,0,67869:1:0:0:0:
320,0,67903,128,0,67938:1:0:0:0:
448,0,67903,128,0,67938:1:0:0:0:
192,192,67972,1,0,0:0:0:0:
64,0,68041,128,0,68075:1:0:0:0:
448,0,68041,128,0,68075:1:0:0:0:
320,192,68109,1,0,0:0:0:0:
64,192,68178,1,0,0:0:0:0:
192,192,68178,1,0,0:0:0:0:
448,192,68224,1,0,0:0:0:0:
320,192,68269,1,0,0:0:0:0:
64,192,68315,1,0,0:0:0:0:
192,192,68315,1,0,0:0:0:0:
448,192,68361,1,0,0:0:0:0:
320,192,68407,1,0,0:0:0:0:
192,192,68452,1,0,0:0:0:0:
320,192,68498,1,0,0:0:0:0:
192,192,68544,1,0,0:0:0:0:
64,192,68590,1,0,0:0:0:0:
448,192,68590,1,0,0:0:0:0:
320,192,68636,1,0,0:0:0:0:
192,192,68681,1,0,0:0:0:0:
320,192,68727,1,0,0:0:0:0:
448,192,68727,1,0,0:0:0:0:
64,192,68773,1,0,0:0:0:0:
192,192,68819,1,0,0:0:0:0:
320,192,68864,1,0,0:0:0:0:
64,192,68910,1,0,0:0:0:0:
192,192,68956,1,0,0:0:0:0:
64,192,69002,1,0,0:0:0:0:
448,192,69002,1,0,0:0:0:0:
320,192,69047,1,0,0:0:0:0:
192,192,69093,1,0,0:0:0:0:
448,192,69139,1,0,0:0:0:0:
320,192,69185,1,0,0:0:0:0:
64,192,69230,1,0,0:0:0:0:
192,192,69276,1,0,0:0:0:0:
320,192,69276,1,0,0:0:0:0:
448,192,69322,1,0,0:0:0:0:
64,192,69368,1,0,0:0:0:0:
192,192,69413,1,0,0:0:0:0:
320,192,69413,1,0,0:0:0:0:
448,192,69459,1,0,0:0:0:0:
64,192,69505,1,0,0:0:0:0:
192,192,69551,1,0,0:0:0:0:
448,192,69597,1,0,0:0:0:0:
320,192,69642,1,0,0:0:0:0:
64,192,69688,1,0,0:0:0:0:
448,192,69688,1,0,0:0:0:0:
320,192,69734,1,0,0:0:0:0:
192,192,69780,1,0,0:0:0:0:
64,192,69825,1,0,0:0:0:0:
448,192,69825,1,0,0:0:0:0:
320,192,69871,1,0,0:0:0:0:
192,192,69917,1,0,0:0:0:0:
64,192,69963,1,0,0:0:0:0:
448,192,69963,1,0,0:0:0:0:
192,192,70008,1,0,0:0:0:0:
320,192,70054,1,0,0:0:0:0:
64,192,70100,1,0,0:0:0:0:
448,192,70100,1,0,0:0:0:0:
192,192,70146,1,0,0:0:0:0:
320,192,70191,1,0,0:0:0:0:
448,192,70237,1,0,0:0:0:0:
64,192,70283,1,0,0:0:0:0:
192,192,70329,1,0,0:0:0:0:
320,192,70375,1,0,0:0:0:0:
448,192,70375,1,0,0:0:0:0:
64,192,70420,1,0,0:0:0:0:
192,192,70466,1,0,0:0:0:0:
320,192,70512,1,0,0:0:0:0:
192,192,70558,1,0,0:0:0:0:
320,192,70603,1,0,0:0:0:0:
64,192,70649,1,0,0:0:0:0:
448,192,70649,1,0,0:0:0:0:
192,192,70695,1,0,0:0:0:0:
448,192,70741,1,0,0:0:0:0:
192,192,70786,1,0,0:0:0:0:
448,192,70832,1,0,0:0:0:0:
320,192,70878,1,0,0:0:0:0:
64,192,70924,1,0,0:0:0:0:
192,192,70924,1,0,0:0:0:0:
448,192,70969,1,0,0:0:0:0:
320,192,71015,1,0,0:0:0:0:
192,192,71061,1,0,0:0:0:0:
448,192,71107,1,0,0:0:0:0:
64,192,71152,1,0,0:0:0:0:
192,192,71198,1,0,0:0:0:0:
320,192,71198,1,0,0:0:0:0:
448,192,71244,1,0,0:0:0:0:
64,192,71290,1,0,0:0:0:0:
320,192,71336,1,0,0:0:0:0:
192,192,71381,1,0,0:0:0:0:
64,192,71427,1,0,0:0:0:0:
320,192,71473,1,0,0:0:0:0:
448,192,71473,1,0,0:0:0:0:
64,192,71519,1,0,0:0:0:0:
192,192,71564,1,0,0:0:0:0:
320,192,71610,1,0,0:0:0:0:
448,192,71656,1,0,0:0:0:0:
64,192,71702,1,0,0:0:0:0:
192,192,71747,1,0,0:0:0:0:
448,192,71747,1,0,0:0:0:0:
320,192,71793,1,0,0:0:0:0:
64,192,71839,1,0,0:0:0:0:
192,192,71885,1,0,0:0:0:0:
448,192,71930,1,0,0:0:0:0:
320,192,71976,1,0,0:0:0:0:
64,192,72022,1,0,0:0:0:0:
192,192,72022,1,0,0:0:0:0:
448,192,72068,1,0,0:0:0:0:
320,192,72114,1,0,0:0:0:0:
64,0,72159,128,0,72194:1:0:0:0:
448,0,72159,128,0,72194:1:0:0:0:
192,0,72228,128,0,72262:1:0:0:0:
320,0,72228,128,0,72262:1:0:0:0:
64,0,72297,128,0,72331:1:0:0:0:
448,0,72297,128,0,72331:1:0:0:0:
192,192,72365,1,0,0:0:0:0:
320,0,72434,128,0,72468:1:0:0:0:
448,0,72434,128,0,72468:1:0:0:0:
64,192,72502,1,0,0:0:0:0:
192,192,72571,1,0,0:0:0:0:
448,192,72571,1,0,0:0:0:0:
320,192,72617,1,0,0:0:0:0:
192,192,72663,1,0,0:0:0:0:
320,192,72708,1,0,0:0:0:0:
448,192,72708,1,0,0:0:0:0:
192,192,72754,1,0,0:0:0:0:
64,192,72800,1,0,0:0:0:0:
448,192,72846,1,0,0:0:0:0:
320,192,72891,1,0,0:0:0:0:
192,192,72937,1,0,0:0:0:0:
64,192,72983,1,0,0:0:0:0:
448,192,72983,1,0,0:0:0:0:
320,192,73029,1,0,0:0:0:0:
192,192,73075,1,0,0:0:0:0:
320,192,73120,1,0,0:0:0:0:
448,192,73120,1,0,0:0:0:0:
64,192,73166,1,0,0:0:0:0:
192,192,73212,1,0,0:0:0:0:
320,192,73258,1,0,0:0:0:0:
192,192,73303,1,0,0:0:0:0:
320,192,73349,1,0,0:0:0:0:
64,192,73395,1,0,0:0:0:0:
448,192,73395,1,0,0:0:0:0:
192,192,73441,1,0,0:0:0:0:
448,192,73486,1,0,0:0:0:0:
320,192,73532,1,0,0:0:0:0:
192,192,73578,1,0,0:0:0:0:
64,192,73624,1,0,0:0:0:0:
320,192,73669,1,0,0:0:0:0:
448,192,73669,1,0,0:0:0:0:
64,192,73715,1,0,0:0:0:0:
192,192,73761,1,0,0:0:0:0:
320,192,73807,1,0,0:0:0:0:
448,192,73853,1,0,0:0:0:0:
320,192,73898,1,0,0:0:0:0:
64,192,73944,1,0,0:0:0:0:
192,192,73944,1,0,0:0:0:0:
448,192,73990,1,0,0:0:0:0:
320,192,74036,1,0,0:0:0:0:
192,192,74081,1,0,0:0:0:0:
64,192,74127,1,0,0:0:0:0:
448,192,74173,1,0,0:0:0:0:
192,192,74219,1,0,0:0:0:0:
320,192,74219,1,0,0:0:0:0:
192,0,74493,128,0,74630:1:0:0:0:
320,0,74493,128,0,74630:1:0:0:0:
320,0,74768,128,0,74802:1:0:0:0:
448,0,74768,128,0,74802:1:0:0:0:
64,192,74802,1,0,0:0:0:0:
192,192,74836,1,0,0:0:0:0:
448,192,74871,1,0,0:0:0:0:
64,192,74905,1,0,0:0:0:0:
192,192,74939,1,0,0:0:0:0:
320,192,74974,1,0,0:0:0:0:
448,192,75008,1,0,0:0:0:0:
64,192,75042,1,0,0:0:0:0:
192,192,75042,1,0,0:0:0:0:
320,192,75077,1,0,0:0:0:0:
448,192,75111,1,0,0:0:0:0:
192,192,75145,1,0,0:0:0:0:
64,192,75180,1,0,0:0:0:0:
320,192,75214,1,0,0:0:0:0:
192,192,75248,1,0,0:0:0:0:
448,192,75283,1,0,0:0:0:0:
320,192,75317,1,0,0:0:0:0:
192,192,75351,1,0,0:0:0:0:
64,192,75386,1,0,0:0:0:0:
448,192,75420,1,0,0:0:0:0:
320,192,75454,1,0,0:0:0:0:
64,192,75489,1,0,0:0:0:0:
192,192,75523,1,0,0:0:0:0:
320,192,75557,1,0,0:0:0:0:
64,192,75591,1,0,0:0:0:0:
448,192,75591,1,0,0:0:0:0:
192,192,75626,1,0,0:0:0:0:
320,192,75660,1,0,0:0:0:0:
64,192,75694,1,0,0:0:0:0:
192,192,75729,1,0,0:0:0:0:
320,192,75763,1,0,0:0:0:0:
448,192,75797,1,0,0:0:0:0:
192,192,75832,1,0,0:0:0:0:
320,192,75866,1,0,0:0:0:0:
448,192,75900,1,0,0:0:0:0:
64,192,75935,1,0,0:0:0:0:
192,192,75969,1,0,0:0:0:0:
448,192,76003,1,0,0:0:0:0:
320,192,76038,1,0,0:0:0:0:
192,192,76072,1,0,0:0:0:0:
64,192,76106,1,0,0:0:0:0:
320,192,76141,1,0,0:0:0:0:
448,192,76141,1,0,0:0:0:0:
192,192,76175,1,0,0:0:0:0:
64,192,76209,1,0,0:0:0:0:
448,192,76244,1,0,0:0:0:0:
320,192,76278,1,0,0:0:0:0:
64,192,76312,1,0,0:0:0:0:
448,192,76347,1,0,0:0:0:0:
320,192,76381,1,0,0:0:0:0:
192,192,76415,1,0,0:0:0:0:
64,192,76450,1,0,0:0:0:0:
448,192,76484,1,0,0:0:0:0:
320,192,76518,1,0,0:0:0:0:
64,192,76553,1,0,0:0:0:0:
192,192,76587,1,0,0:0:0:0:
320,192,76621,1,0,0:0:0:0:
448,192,76655,1,0,0:0:0:0:
64,192,76690,1,0,0:0:0:0:
192,192,76690,1,0,0:0:0:0:
320,192,76724,1,0,0:0:0:0:
448,192,76758,1,0,0:0:0:0:
64,192,76793,1,0,0:0:0:0:
320,192,76827,1,0,0:0:0:0:
192,192,76861,1,0,0:0:0:0:
64,192,76896,1,0,0:0:0:0:
448,192,76930,1,0,0:0:0:0:
320,192,76964,1,0,0:0:0:0:
192,192,76999,1,0,0:0:0:0:
64,192,77033,1,0,0:0:0:0:
448,192,77067,1,0,0:0:0:0:
320,192,77102,1,0,0:0:0:0:
64,192,77136,1,0,0:0:0:0:
192,192,77170,1,0,0:0:0:0:
448,192,77205,1,0,0:0:0:0:
64,192,77239,1,0,0:0:0:0:
320,192,77239,1,0,0:0:0:0:
192,192,77273,1,0,0:0:0:0:
448,192,77308,1,0,0:0:0:0:
64,192,77342,1,0,0:0:0:0:
192,192,77376,1,0,0:0:0:0:
320,192,77411,1,0,0:0:0:0:
448,192,77445,1,0,0:0:0:0:
192,192,77479,1,0,0:0:0:0:
320,192,77514,1,0,0:0:0:0:
448,192,77548,1,0,0:0:0:0:
64,192,77582,1,0,0:0:0:0:
192,192,77617,1,0,0:0:0:0:
320,192,77651,1,0,0:0:0:0:
64,192,77685,1,0,0:0:0:0:
448,192,77719,1,0,0:0:0:0:
192,192,77754,1,0,0:0:0:0:
64,192,77788,1,0,0:0:0:0:
320,192,77788,1,0,0:0:0:0:
448,192,77822,1,0,0:0:0:0:
192,192,77857,1,0,0:0:0:0:
320,192,77891,1,0,0:0:0:0:
64,192,77925,1,0,0:0:0:0:
192,192,77960,1,0,0:0:0:0:
320,192,77994,1,0,0:0:0:0:
448,192,78028,1,0,0:0:0:0:
64,192,78063,1,0,0:0:0:0:
192,192,78097,1,0,0:0:0:0:
448,192,78131,1,0,0:0:0:0:
320,192,78166,1,0,0:0:0:0:
192,192,78200,1,0,0:0:0:0:
64,192,78234,1,0,0:0:0:0:
448,192,78269,1,0,0:0:0:0:
320,192,78303,1,0,0:0:0:0:
64,192,78337,1,0,0:0:0:0:
192,192,78337,1,0,0:0:0:0:
448,192,78372,1,0,0:0:0:0:
320,192,78406,1,0,0:0:0:0:
64,192,78440,1,0,0:0:0:0:
448,192,78475,1,0,0:0:0:0:
192,192,78509,1,0,0:0:0:0:
64,192,78543,1,0,0:0:0:0:
448,192,78578,1,0,0:0:0:0:
320,192,78612,1,0,0:0:0:0:
192,192,78646,1,0,0:0:0:0:
64,192,78681,1,0,0:0:0:0:
448,192,78715,1,0,0:0:0:0:
192,192,78749,1,0,0:0:0:0:
64,192,78783,1,0,0:0:0:0:
448,192,78818,1,0,0:0:0:0:
320,192,78852,1,0,0:0:0:0:
64,192,78886,1,0,0:0:0:0:
192,192,78886,1,0,0:0:0:0:
448,192,78921,1,0,0:0:0:0:
320,192,78955,1,0,0:0:0:0:
192,192,78989,1,0,0:0:0:0:
64,192,79024,1,0,0:0:0:0:
320,192,79058,1,0,0:0:0:0:
448,192,79092,1,0,0:0:0:0:
64,192,79127,1,0,0:0:0:0:
192,0,79161,128,0,79195:1:0:0:0:
320,0,79161,128,0,79195:1:0:0:0:
448,192,79195,1,0,0:0:0:0:
64,192,79230,1,0,0:0:0:0:
192,192,79264,1,0,0:0:0:0:
320,192,79298,1,0,0:0:0:0:
448,192,79333,1,0,0:0:0:0:
192,192,79367,1,0,0:0:0:0:
320,192,79401,1,0,0:0:0:0:
64,192,79436,1,0,0:0:0:0:
448,192,79436,1,0,0:0:0:0:
192,192,79470,1,0,0:0:0:0:
320,192,79504,1,0,0:0:0:0:
64,192,79539,1,0,0:0:0:0:
192,192,79573,1,0,0:0:0:0:
320,192,79607,1,0,0:0:0:0:
448,192,79642,1,0,0:0:0:0:
64,192,79676,1,0,0:0:0:0:
192,192,79710,1,0,0:0:0:0:
448,192,79744,1,0,0:0:0:0:
320,192,79779,1,0,0:0:0:0:
192,192,79813,1,0,0:0:0:0:
64,192,79847,1,0,0:0:0:0:
448,192,79882,1,0,0:0:0:0:
320,192,79916,1,0,0:0:0:0:
192,192,79950,1,0,0:0:0:0:
64,192,79985,1,0,0:0:0:0:
448,192,79985,1,0,0:0:0:0:
320,192,80019,1,0,0:0:0:0:
192,192,80053,1,0,0:0:0:0:
448,192,80088,1,0,0:0:0:0:
320,192,80122,1,0,0:0:0:0:
64,192,80156,1,0,0:0:0:0:
448,192,80191,1,0,0:0:0:0:
320,192,80225,1,0,0:0:0:0:
192,192,80259,1,0,0:0:0:0:
64,192,80294,1,0,0:0:0:0:
320,192,80328,1,0,0:0:0:0:
192,192,80362,1,0,0:0:0:0:
64,192,80397,1,0,0:0:0:0:
448,192,80431,1,0,0:0:0:0:
320,192,80465,1,0,0:0:0:0:
192,192,80500,1,0,0:0:0:0:
64,192,80534,1,0,0:0:0:0:
448,192,80534,1,0,0:0:0:0:
320,192,80568,1,0,0:0:0:0:
192,192,80603,1,0,0:0:0:0:
448,192,80637,1,0,0:0:0:0:
64,192,80671,1,0,0:0:0:0:
192,192,80706,1,0,0:0:0:0:
320,192,80740,1,0,0:0:0:0:
64,192,80774,1,0,0:0:0:0:
192,192,80808,1,0,0:0:0:0:
320,192,80843,1,0,0:0:0:0:
448,192,80877,1,0,0:0:0:0:
192,192,80911,1,0,0:0:0:0:
320,192,80946,1,0,0:0:0:0:
448,192,80980,1,0,0:0:0:0:
64,192,81014,1,0,0:0:0:0:
192,192,81049,1,0,0:0:0:0:
320,192,81083,1,0,0:0:0:0:
448,192,81083,1,0,0:0:0:0:
64,192,81117,1,0,0:0:0:0:
192,192,81152,1,0,0:0:0:0:
448,192,81186,1,0,0:0:0:0:
320,192,81220,1,0,0:0:0:0:
192,192,81255,1,0,0:0:0:0:
448,192,81289,1,0,0:0:0:0:
320,192,81323,1,0,0:0:0:0:
64,192,81358,1,0,0:0:0:0:
192,192,81392,1,0,0:0:0:0:
448,192,81426,1,0,0:0:0:0:
320,192,81461,1,0,0:0:0:0:
192,192,81495,1,0,0:0:0:0:
64,192,81529,1,0,0:0:0:0:
320,192,81564,1,0,0:0:0:0:
192,192,81598,1,0,0:0:0:0:
64,192,81632,1,0,0:0:0:0:
448,192,81632,1,0,0:0:0:0:
320,192,81701,1,0,0:0:0:0:
192,192,81735,1,0,0:0:0:0:
448,192,81770,1,0,0:0:0:0:
320,192,81804,1,0,0:0:0:0:
64,192,81838,1,0,0:0:0:0:
192,192,81872,1,0,0:0:0:0:
320,192,81907,1,0,0:0:0:0:
448,192,81941,1,0,0:0:0:0:
64,192,81975,1,0,0:0:0:0:
192,192,82010,1,0,0:0:0:0:
320,192,82044,1,0,0:0:0:0:
64,192,82078,1,0,0:0:0:0:
192,192,82113,1,0,0:0:0:0:
320,192,82147,1,0,0:0:0:0:
64,192,82181,1,0,0:0:0:0:
448,192,82181,1,0,0:0:0:0:
192,192,82216,1,0,0:0:0:0:
320,192,82250,1,0,0:0:0:0:
64,192,82284,1,0,0:0:0:0:
448,192,82319,1,0,0:0:0:0:
320,192,82353,1,0,0:0:0:0:
192,192,82387,1,0,0:0:0:0:
64,192,82422,1,0,0:0:0:0:
448,192,82456,1,0,0:0:0:0:
320,192,82490,1,0,0:0:0:0:
192,192,82525,1,0,0:0:0:0:
448,192,82559,1,0,0:0:0:0:
320,192,82593,1,0,0:0:0:0:
192,192,82628,1,0,0:0:0:0:
64,192,82662,1,0,0:0:0:0:
320,192,82696,1,0,0:0:0:0:
192,192,82731,1,0,0:0:0:0:
448,192,82731,1,0,0:0:0:0:
64,192,82765,1,0,0:0:0:0:
320,192,82799,1,0,0:0:0:0:
192,192,82833,1,0,0:0:0:0:
448,192,82868,1,0,0:0:0:0:
320,192,82902,1,0,0:0:0:0:
64,192,82936,1,0,0:0:0:0:
192,192,82971,1,0,0:0:0:0:
448,0,83005,128,0,83280:1:0:0:0:
320,0,83280,128,0,83417:1:0:0:0:
64,0,83554,128,0,83589:1:0:0:0:
192,0,83554,128,0,83589:1:0:0:0:
64,192,83692,1,0,0:0:0:0:
448,192,83692,1,0,0:0:0:0:
320,192,83726,1,0,0:0:0:0:
192,192,83760,1,0,0:0:0:0:
448,192,83795,1,0,0:0:0:0:
320,192,83829,1,0,0:0:0:0:
192,192,83863,1,0,0:0:0:0:
64,192,83897,1,0,0:0:0:0:
320,192,83932,1,0,0:0:0:0:
192,192,83966,1,0,0:0:0:0:
448,192,83966,1,0,0:0:0:0:
64,192,84000,1,0,0:0:0:0:
320,192,84035,1,0,0:0:0:0:
448,192,84069,1,0,0:0:0:0:
64,192,84103,1,0,0:0:0:0:
192,192,84138,1,0,0:0:0:0:
320,192,84172,1,0,0:0:0:0:
448,192,84206,1,0,0:0:0:0:
64,192,84241,1,0,0:0:0:0:
192,192,84241,1,0,0:0:0:0:
320,192,84275,1,0,0:0:0:0:
448,192,84309,1,0,0:0:0:0:
64,192,84344,1,0,0:0:0:0:
192,192,84378,1,0,0:0:0:0:
320,192,84412,1,0,0:0:0:0:
64,192,84447,1,0,0:0:0:0:
192,192,84481,1,0,0:0:0:0:
320,192,84515,1,0,0:0:0:0:
448,192,84515,1,0,0:0:0:0:
64,192,84550,1,0,0:0:0:0:
192,192,84584,1,0,0:0:0:0:
448,192,84618,1,0,0:0:0:0:
320,192,84653,1,0,0:0:0:0:
64,192,84687,1,0,0:0:0:0:
448,192,84721,1,0,0:0:0:0:
320,192,84756,1,0,0:0:0:0:
64,192,84790,1,0,0:0:0:0:
192,192,84790,1,0,0:0:0:0:
448,192,84824,1,0,0:0:0:0:
320,192,84859,1,0,0:0:0:0:
192,192,84893,1,0,0:0:0:0:
448,192,84927,1,0,0:0:0:0:
320,192,84961,1,0,0:0:0:0:
192,192,84996,1,0,0:0:0:0:
64,192,85030,1,0,0:0:0:0:
320,192,85064,1,0,0:0:0:0:
448,192,85064,1,0,0:0:0:0:
192,192,85099,1,0,0:0:0:0:
64,192,85133,1,0,0:0:0:0:
448,192,85167,1,0,0:0:0:0:
320,192,85202,1,0,0:0:0:0:
192,192,85236,1,0,0:0:0:0:
64,192,85270,1,0,0:0:0:0:
448,192,85305,1,0,0:0:0:0:
192,192,85339,1,0,0:0:0:0:
320,192,85339,1,0,0:0:0:0:
64,192,85373,1,0,0:0:0:0:
448,192,85408,1,0,0:0:0:0:
320,192,85442,1,0,0:0:0:0:
64,192,85476,1,0,0:0:0:0:
192,192,85511,1,0,0:0:0:0:
320,192,85545,1,0,0:0:0:0:
448,192,85579,1,0,0:0:0:0:
64,192,85614,1,0,0:0:0:0:
192,192,85614,1,0,0:0:0:0:
320,192,85648,1,0,0:0:0:0:
448,192,85682,1,0,0:0:0:0:
64,192,85717,1,0,0:0:0:0:
320,192,85751,1,0,0:0:0:0:
448,192,85785,1,0,0:0:0:0:
64,192,85820,1,0,0:0:0:0:
192,192,85854,1,0,0:0:0:0:
320,192,85888,1,0,0:0:0:0:
448,192,85888,1,0,0:0:0:0:
64,192,85923,1,0,0:0:0:0:
192,192,85957,1,0,0:0:0:0:
320,192,85991,1,0,0:0:0:0:
448,192,86025,1,0,0:0:0:0:
64,192,86060,1,0,0:0:0:0:
192,192,86094,1,0,0:0:0:0:
320,192,86128,1,0,0:0:0:0:
64,192,86163,1,0,0:0:0:0:
448,192,86163,1,0,0:0:0:0:
192,192,86197,1,0,0:0:0:0:
320,192,86231,1,0,0:0:0:0:
64,192,86266,1,0,0:0:0:0:
192,192,86300,1,0,0:0:0:0:
320,192,86334,1,0,0:0:0:0:
448,192,86369,1,0,0:0:0:0:
192,192,86403,1,0,0:0:0:0:
64,192,86437,1,0,0:0:0:0:
320,192,86437,1,0,0:0:0:0:
448,192,86472,1,0,0:0:0:0:
192,192,86506,1,0,0:0:0:0:
64,192,86540,1,0,0:0:0:0:
448,192,86575,1,0,0:0:0:0:
320,192,86609,1,0,0:0:0:0:
192,192,86643,1,0,0:0:0:0:
448,192,86678,1,0,0:0:0:0:
64,192,86712,1,0,0:0:0:0:
320,192,86712,1,0,0:0:0:0:
192,192,86746,1,0,0:0:0:0:
448,192,86781,1,0,0:0:0:0:
320,192,86815,1,0,0:0:0:0:
192,192,86849,1,0,0:0:0:0:
64,192,86884,1,0,0:0:0:0:
448,192,86918,1,0,0:0:0:0:
320,192,86952,1,0,0:0:0:0:
64,192,86986,1,0,0:0:0:0:
192,192,86986,1,0,0:0:0:0:
448,192,87021,1,0,0:0:0:0:
320,192,87055,1,0,0:0:0:0:
192,192,87089,1,0,0:0:0:0:
64,192,87124,1,0,0:0:0:0:
448,192,87158,1,0,0:0:0:0:
192,192,87192,1,0,0:0:0:0:
320,192,87227,1,0,0:0:0:0:
64,192,87261,1,0,0:0:0:0:
448,192,87261,1,0,0:0:0:0:
192,192,87295,1,0,0:0:0:0:
320,192,87330,1,0,0:0:0:0:
64,192,87364,1,0,0:0:0:0:
192,192,87398,1,0,0:0:0:0:
320,192,87433,1,0,0:0:0:0:
448,192,87467,1,0,0:0:0:0:
192,192,87501,1,0,0:0:0:0:
64,192,87536,1,0,0:0:0:0:
320,192,87536,1,0,0:0:0:0:
448,192,87570,1,0,0:0:0:0:
192,192,87604,1,0,0:0:0:0:
64,192,87639,1,0,0:0:0:0:
448,192,87673,1,0,0:0:0:0:
320,192,87707,1,0,0:0:0:0:
192,192,87742,1,0,0:0:0:0:
64,192,87776,1,0,0:0:0:0:
320,192,87810,1,0,0:0:0:0:
448,192,87810,1,0,0:0:0:0:
192,192,87845,1,0,0:0:0:0:
64,192,87879,1,0,0:0:0:0:
448,192,87913,1,0,0:0:0:0:
192,0,87948,128,0,87982:1:0:0:0:
320,0,87948,128,0,87982:1:0:0:0:
64,192,87982,1,0,0:0:0:0:
448,192,88016,1,0,0:0:0:0:
320,192,88050,1,0,0:0:0:0:
64,192,88085,1,0,0:0:0:0:
192,192,88085,1,0,0:0:0:0:
448,192,88119,1,0,0:0:0:0:
320,192,88153,1,0,0:0:0:0:
64,192,88188,1,0,0:0:0:0:
192,192,88222,1,0,0:0:0:0:
448,192,88256,1,0,0:0:0:0:
64,192,88291,1,0,0:0:0:0:
192,192,88325,1,0,0:0:0:0:
320,192,88359,1,0,0:0:0:0:
448,192,88359,1,0,0:0:0:0:
64,192,88394,1,0,0:0:0:0:
192,192,88428,1,0,0:0:0:0:
320,192,88462,1,0,0:0:0:0:
64,192,88497,1,0,0:0:0:0:
192,192,88531,1,0,0:0:0:0:
320,192,88565,1,0,0:0:0:0:
448,192,88600,1,0,0:0:0:0:
64,192,88634,1,0,0:0:0:0:
192,192,88634,1,0,0:0:0:0:
320,192,88668,1,0,0:0:0:0:
448,192,88703,1,0,0:0:0:0:
64,192,88737,1,0,0:0:0:0:
192,192,88771,1,0,0:0:0:0:
320,192,88806,1,0,0:0:0:0:
448,192,88840,1,0,0:0:0:0:
64,192,88874,1,0,0:0:0:0:
192,192,88909,1,0,0:0:0:0:
320,192,88909,1,0,0:0:0:0:
448,192,88943,1,0,0:0:0:0:
64,192,88977,1,0,0:0:0:0:
192,192,89012,1,0,0:0:0:0:
448,192,89046,1,0,0:0:0:0:
320,192,89080,1,0,0:0:0:0:
192,192,89114,1,0,0:0:0:0:
64,192,89149,1,0,0:0:0:0:
320,192,89183,1,0,0:0:0:0:
448,192,89183,1,0,0:0:0:0:
192,192,89217,1,0,0:0:0:0:
64,192,89252,1,0,0:0:0:0:
448,192,89286,1,0,0:0:0:0:
192,192,89320,1,0,0:0:0:0:
64,192,89355,1,0,0:0:0:0:
448,192,89389,1,0,0:0:0:0:
320,192,89423,1,0,0:0:0:0:
64,192,89458,1,0,0:0:0:0:
192,192,89458,1,0,0:0:0:0:
448,192,89492,1,0,0:0:0:0:
320,192,89526,1,0,0:0:0:0:
192,192,89561,1,0,0:0:0:0:
64,192,89595,1,0,0:0:0:0:
448,192,89629,1,0,0:0:0:0:
320,192,89664,1,0,0:0:0:0:
192,192,89698,1,0,0:0:0:0:
64,192,89732,1,0,0:0:0:0:
448,192,89732,1,0,0:0:0:0:
320,192,89767,1,0,0:0:0:0:
192,192,89801,1,0,0:0:0:0:
448,192,89835,1,0,0:0:0:0:
320,192,89870,1,0,0:0:0:0:
192,192,89904,1,0,0:0:0:0:
64,192,89938,1,0,0:0:0:0:
320,192,89973,1,0,0:0:0:0:
192,192,90007,1,0,0:0:0:0:
448,192,90007,1,0,0:0:0:0:
64,192,90041,1,0,0:0:0:0:
320,192,90075,1,0,0:0:0:0:
448,192,90110,1,0,0:0:0:0:
64,192,90144,1,0,0:0:0:0:
192,192,90178,1,0,0:0:0:0:
320,192,90213,1,0,0:0:0:0:
64,192,90247,1,0,0:0:0:0:
192,192,90281,1,0,0:0:0:0:
448,192,90281,1,0,0:0:0:0:
320,192,90316,1,0,0:0:0:0:
64,192,90350,1,0,0:0:0:0:
192,192,90384,1,0,0:0:0:0:
320,192,90419,1,0,0:0:0:0:
448,192,90453,1,0,0:0:0:0:
64,192,90487,1,0,0:0:0:0:
192,192,90522,1,0,0:0:0:0:
320,192,90556,1,0,0:0:0:0:
448,192,90556,1,0,0:0:0:0:
64,192,90590,1,0,0:0:0:0:
192,192,90625,1,0,0:0:0:0:
448,192,90659,1,0,0:0:0:0:
320,192,90693,1,0,0:0:0:0:
192,192,90728,1,0,0:0:0:0:
448,192,90762,1,0,0:0:0:0:
320,192,90796,1,0,0:0:0:0:
64,192,90831,1,0,0:0:0:0:
192,192,90831,1,0,0:0:0:0:
448,192,90865,1,0,0:0:0:0:
320,192,90899,1,0,0:0:0:0:
64,192,90934,1,0,0:0:0:0:
192,192,90968,1,0,0:0:0:0:
448,192,91002,1,0,0:0:0:0:
320,192,91037,1,0,0:0:0:0:
192,192,91071,1,0,0:0:0:0:
64,192,91105,1,0,0:0:0:0:
448,192,91105,1,0,0:0:0:0:
320,192,91139,1,0,0:0:0:0:
192,192,91174,1,0,0:0:0:0:
448,192,91208,1,0,0:0:0:0:
320,192,91242,1,0,0:0:0:0:
192,192,91277,1,0,0:0:0:0:
64,192,91311,1,0,0:0:0:0:
448,192,91345,1,0,0:0:0:0:
192,192,91380,1,0,0:0:0:0:
320,192,91380,1,0,0:0:0:0:
64,192,91414,1,0,0:0:0:0:
448,192,91448,1,0,0:0:0:0:
320,192,91483,1,0,0:0:0:0:
64,192,91517,1,0,0:0:0:0:
192,192,91551,1,0,0:0:0:0:
320,192,91586,1,0,0:0:0:0:
448,192,91620,1,0,0:0:0:0:
64,192,91654,1,0,0:0:0:0:
192,192,91654,1,0,0:0:0:0:
320,192,91689,1,0,0:0:0:0:
448,192,91723,1,0,0:0:0:0:
64,192,91757,1,0,0:0:0:0:
192,192,91792,1,0,0:0:0:0:
320,192,91826,1,0,0:0:0:0:
64,192,91860,1,0,0:0:0:0:
192,192,91895,1,0,0:0:0:0:
320,192,91929,1,0,0:0:0:0:
448,192,91929,1,0,0:0:0:0:
192,0,92066,128,0,92158:1:0:0:0:
320,0,92066,128,0,92158:1:0:0:0:
64,192,92203,1,0,0:0:0:0:
192,192,92203,1,0,0:0:0:0:
320,192,92341,1,0,0:0:0:0:
64,192,92615,1,0,0:0:0:0:
192,192,92821,1,0,0:0:0:0:
320,192,92890,1,0,0:0:0:0:
448,192,93165,1,0,0:0:0:0:
320,192,93439,1,0,0:0:0:0:
192,192,93714,1,0,0:0:0:0:
64,192,93988,1,0,0:0:0:0:
64,0,94263,128,0,94297:1:0:0:0:
192,0,94331,128,0,94366:1:0:0:0:
320,0,94400,128,0,94434:1:0:0:0:
448,0,94469,128,0,94503:1:0:0:0:
320,0,94537,128,0,94572:1:0:0:0:
320,0,94675,128,0,94709:1:0:0:0:
320,0,94949,128,0,94984:1:0:0:0:
320,0,95087,128,0,95292:1:0:0:0:
192,0,95361,128,0,95395:1:0:0:0:
64,192,95636,1,0,0:0:0:0:
448,0,95636,128,0,95670:1:0:0:0:
64,192,95910,1,0,0:0:0:0:
320,0,95910,128,0,95945:1:0:0:0:
64,192,96185,1,0,0:0:0:0:
192,0,96185,128,0,96219:1:0:0:0:
