osu file format v14

[General]
AudioFilename: H.mp3
AudioLeadIn: 0
PreviewTime: 29251
Countdown: 0
SampleSet: Normal
StackLeniency: 0.7
Mode: 1
LetterboxInBreaks: 0
WidescreenStoryboard: 1

[Editor]
Bookmarks: 1970,7551,18714,29876,41388,52202
DistanceSpacing: 0.8
BeatDivisor: 2
GridSize: 32
TimelineZoom: 1.75

[Metadata]
Title:yukai young
TitleUnicode:yukai young
Artist:jan Misali
ArtistUnicode:jan Misali
Creator:yenmaster
Version:oni
Source:涼宮ハルヒの憂鬱
Tags:novelty english pop ke$ha kesha Die Young suzumiya Haruhi Aya Hirano 平野綾 ハレ晴レユカイ hare hare yukai mashup the melancholy of haruhi suzumiya anime
BeatmapID:3295423
BeatmapSetID:1614152

[Difficulty]
HPDrainRate:6
CircleSize:9.2
OverallDifficulty:5
ApproachRate:10
SliderMultiplier:1.4
SliderTickRate:1

[Events]
//Background and Video events
0,0,"jpg.jpg",0,-10
//Break Periods
//Storyboard Layer 0 (Background)
//Storyboard Layer 1 (Fail)
//Storyboard Layer 2 (Pass)
//Storyboard Layer 3 (Foreground)
//Storyboard Layer 4 (Overlay)
//Storyboard Sound Samples

[TimingPoints]
1970,348.837209302325,4,1,0,70,1,0
6058,-98.0392156862745,4,1,0,70,0,0
6233,-96.1538461538461,4,1,0,70,0,0
6582,-92.5925925925926,4,1,0,70,0,0
6930,-89.2857142857143,4,1,0,70,0,0
7105,-87.719298245614,4,1,0,70,0,0
7279,-86.2068965517241,4,1,0,70,0,0
7454,-84.7457627118644,4,1,0,70,0,0
7628,-105.263157894737,4,1,0,60,0,0
17308,-104.166666666667,4,1,0,61,0,0
17657,-103.092783505155,4,1,0,63,0,0
18006,-102.040816326531,4,1,0,65,0,0
18355,-101.010101010101,4,1,0,67,0,0
18704,-100,4,1,0,69,0,0
18791,-105.263157894737,4,1,0,60,0,0
24557,-103.092783505155,4,1,0,60,0,0
24808,-101.010101010101,4,1,0,70,0,0
25080,-102.040816326531,4,1,0,70,0,0
25254,-100,4,1,0,70,0,0
25506,-98.0392156862745,4,1,0,70,0,0
25680,-103.092783505155,4,1,0,70,0,0
25778,-100,4,1,0,70,0,0
25952,-97.0873786407767,4,1,0,70,0,0
26204,-94.3396226415094,4,1,0,70,0,0
26475,-101.010101010101,4,1,0,70,0,0
26650,-100,4,1,0,70,0,0
28384,-99.009900990099,4,1,0,70,0,0
28558,-98.0392156862745,4,1,0,70,0,0
28907,-96.1538461538461,4,1,0,70,0,0
29082,-95.2380952380952,4,1,0,70,0,0
29876,-90.9090909090909,4,1,0,80,0,1
41039,-91.52190222462,4,1,0,80,0,0
41388,-90.9090909090909,4,1,0,80,0,1
51146,-89.086859688196,4,1,0,80,0,1
51320,-88.2028665931643,4,1,0,80,0,1
51494,-87.719298245614,4,1,0,80,0,1
51582,-86.909288430201,4,1,0,80,0,1
51669,-86.4864864864865,4,1,0,80,0,1
51756,-86.0677783754707,4,1,0,80,0,1
51843,-85.6531049250535,4,1,0,80,0,1
52279,-90.9090909090909,4,1,0,75,0,1
52512,-100,4,1,0,80,0,1
56388,-100,4,1,0,80,0,0
56901,-100,4,1,0,65,0,0
60215,-100,4,1,0,70,0,0
61795,-97.5609756097561,4,1,0,70,0,0
61969,-96.3855421686747,4,1,0,70,0,0
62144,-95.2380952380952,4,1,0,70,0,0
62493,-93.0232558139535,4,1,0,70,0,0
62667,-91.9540229885058,4,1,0,70,0,0
62842,-90.9090909090909,4,1,0,70,0,0
63190,-88.8888888888889,4,1,0,70,0,0
63539,-86.9565217391304,4,1,0,70,0,0

[HitObjects]
256,512,574,5,12,0:0:0:0:
256,512,749,1,0,0:0:0:0:
256,512,836,1,0,0:0:0:0:
256,512,923,1,8,0:0:0:0:
256,512,1097,1,8,0:0:0:0:
256,512,1272,1,0,0:0:0:0:
256,512,1359,1,0,0:0:0:0:
256,512,1446,1,8,0:0:0:0:
256,512,1533,1,8,0:0:0:0:
256,512,1621,1,0,0:0:0:0:
256,512,1795,1,8,0:0:0:0:
256,512,1970,1,4,0:0:0:0:
256,512,2318,1,8,0:0:0:0:
256,512,2493,1,0,0:0:0:0:
256,512,2842,1,8,0:0:0:0:
256,512,2929,1,8,0:0:0:0:
256,512,3016,1,8,0:0:0:0:
256,512,3190,1,0,0:0:0:0:
256,512,3365,1,12,0:0:0:0:
256,512,3714,1,8,0:0:0:0:
256,512,3888,1,4,0:0:0:0:
256,512,4237,1,0,0:0:0:0:
256,512,4324,1,0,0:0:0:0:
256,512,4411,1,0,0:0:0:0:
256,512,4586,1,0,0:0:0:0:
256,512,4760,1,12,0:0:0:0:
256,512,4935,1,0,0:0:0:0:
256,512,5022,1,0,0:0:0:0:
256,512,5109,1,8,0:0:0:0:
256,512,5283,1,0,0:0:0:0:
256,512,5458,1,8,0:0:0:0:
256,512,5807,1,8,0:0:0:0:
256,512,5981,1,4,0:0:0:0:
256,512,6330,1,4,0:0:0:0:
256,512,6679,1,12,0:0:0:0:
256,512,7028,1,12,0:0:0:0:
256,512,7202,1,4,0:0:0:0:
256,512,7376,1,4,0:0:0:0:
256,512,7551,1,12,0:0:0:0:
256,512,7900,1,0,0:0:0:0:
256,512,8249,1,8,0:0:0:0:
256,512,8336,1,8,0:0:0:0:
256,512,8423,1,8,0:0:0:0:
256,512,8597,1,0,0:0:0:0:
256,512,8946,1,0,0:0:0:0:
256,512,9121,1,8,0:0:0:0:
256,512,9295,1,0,0:0:0:0:
256,512,9469,1,0,0:0:0:0:
256,512,9644,1,8,0:0:0:0:
256,512,9731,1,8,0:0:0:0:
256,512,9818,1,0,0:0:0:0:
256,512,9993,1,8,0:0:0:0:
256,512,10342,1,8,0:0:0:0:
256,512,10516,1,0,0:0:0:0:
256,512,10690,1,8,0:0:0:0:
256,512,10778,1,8,0:0:0:0:
256,512,10865,1,8,0:0:0:0:
256,512,11039,1,0,0:0:0:0:
256,512,11214,1,8,0:0:0:0:
256,512,11388,1,0,0:0:0:0:
256,512,11737,1,8,0:0:0:0:
256,512,11911,1,0,0:0:0:0:
256,512,12086,1,8,0:0:0:0:
256,512,12260,1,0,0:0:0:0:
256,512,12435,1,8,0:0:0:0:
256,512,12522,1,0,0:0:0:0:
256,512,12609,1,8,0:0:0:0:
256,512,12783,1,0,0:0:0:0:
256,512,13132,1,12,0:0:0:0:
256,512,13307,1,0,0:0:0:0:
256,512,13481,1,8,0:0:0:0:
256,512,13656,1,8,0:0:0:0:
256,512,13830,1,0,0:0:0:0:
256,512,13917,1,0,0:0:0:0:
256,512,14004,1,8,0:0:0:0:
256,512,14179,1,0,0:0:0:0:
256,512,14528,1,8,0:0:0:0:
256,512,14789,1,8,0:0:0:0:
256,512,14876,1,8,0:0:0:0:
256,512,15051,1,0,0:0:0:0:
256,512,15400,1,0,0:0:0:0:
256,512,15574,1,8,0:0:0:0:
256,512,15661,1,8,0:0:0:0:
256,512,15749,1,8,0:0:0:0:
256,512,15923,1,0,0:0:0:0:
256,512,16272,1,8,0:0:0:0:
256,512,16446,1,8,0:0:0:0:
256,512,16621,1,0,0:0:0:0:
256,512,16708,1,0,0:0:0:0:
256,512,16795,1,0,0:0:0:0:
256,512,16969,1,0,0:0:0:0:
256,512,17318,1,4,0:0:0:0:
256,512,17667,1,12,0:0:0:0:
256,512,18016,1,4,0:0:0:0:
256,512,18365,1,12,0:0:0:0:
256,512,18714,1,4,0:0:0:0:
256,512,19237,1,8,0:0:0:0:
256,512,19411,1,0,0:0:0:0:
256,512,19760,1,0,0:0:0:0:
256,512,20109,1,8,0:0:0:0:
256,512,20283,1,8,0:0:0:0:
256,512,20458,1,0,0:0:0:0:
256,512,20632,1,8,0:0:0:0:
256,512,21156,1,0,0:0:0:0:
256,512,21504,1,0,0:0:0:0:
256,512,21679,1,8,0:0:0:0:
256,512,22028,1,8,0:0:0:0:
256,512,22202,1,0,0:0:0:0:
256,512,22551,1,8,0:0:0:0:
256,512,22900,1,0,0:0:0:0:
256,512,23074,1,0,0:0:0:0:
256,512,23249,1,8,0:0:0:0:
256,512,23423,1,0,0:0:0:0:
256,512,23946,1,8,0:0:0:0:
256,512,24295,1,4,0:0:0:0:
256,512,24644,1,8,0:0:0:0:
256,512,24818,1,4,0:0:0:0:
256,512,25167,1,0,0:0:0:0:
256,512,25342,1,8,0:0:0:0:
256,512,25516,1,4,0:0:0:0:
256,512,25865,1,0,0:0:0:0:
256,512,26039,1,0,0:0:0:0:
256,512,26214,1,12,0:0:0:0:
256,512,26563,1,0,0:0:0:0:
256,512,26737,1,0,0:0:0:0:
256,512,27086,1,4,0:0:0:0:
256,512,27260,1,8,0:0:0:0:
256,512,27609,1,8,0:0:0:0:
256,512,27783,1,0,0:0:0:0:
256,512,28132,1,8,0:0:0:0:
256,512,28307,1,4,0:0:0:0:
256,512,28656,1,4,0:0:0:0:
256,512,29004,1,4,0:0:0:0:
256,512,29179,1,12,0:0:0:0:
256,512,29876,1,12,0:0:0:0:
256,512,30051,1,0,0:0:0:0:
256,512,30225,1,8,0:0:0:0:
256,512,30574,1,8,0:0:0:0:
256,512,30749,1,8,0:0:0:0:
256,512,30923,1,0,0:0:0:0:
256,512,31010,1,0,0:0:0:0:
256,512,31097,1,8,0:0:0:0:
256,512,31272,1,0,0:0:0:0:
256,512,31446,1,8,0:0:0:0:
256,512,31533,1,8,0:0:0:0:
256,512,31621,1,0,0:0:0:0:
256,512,31795,1,8,0:0:0:0:
256,512,32144,1,0,0:0:0:0:
256,512,32318,1,8,0:0:0:0:
256,512,32667,1,4,0:0:0:0:
256,512,32842,1,0,0:0:0:0:
256,512,32929,1,0,0:0:0:0:
256,512,33016,1,8,0:0:0:0:
256,512,33190,1,0,0:0:0:0:
256,512,33365,1,8,0:0:0:0:
256,512,33714,1,0,0:0:0:0:
256,512,33801,1,0,0:0:0:0:
256,512,33888,1,0,0:0:0:0:
256,512,34063,1,8,0:0:0:0:
256,512,34237,1,0,0:0:0:0:
256,512,34411,1,8,0:0:0:0:
256,512,34760,1,0,0:0:0:0:
256,512,34935,1,0,0:0:0:0:
256,512,35109,1,8,0:0:0:0:
256,512,35458,1,12,0:0:0:0:
256,512,35632,1,0,0:0:0:0:
256,512,35807,1,0,0:0:0:0:
256,512,35981,1,8,0:0:0:0:
256,512,36330,1,0,0:0:0:0:
256,512,36504,1,8,0:0:0:0:
256,512,36592,1,8,0:0:0:0:
256,512,36679,1,0,0:0:0:0:
256,512,36853,1,12,0:0:0:0:
256,512,37028,1,0,0:0:0:0:
256,512,37115,1,0,0:0:0:0:
256,512,37202,1,8,0:0:0:0:
256,512,37376,1,4,0:0:0:0:
256,512,37725,1,8,0:0:0:0:
256,512,37900,1,0,0:0:0:0:
224,288,38074,1,0,0:0:0:0:
256,512,38249,1,12,0:0:0:0:
256,512,38423,1,8,0:0:0:0:
256,512,38510,1,8,0:0:0:0:
256,512,38597,1,0,0:0:0:0:
256,512,38772,1,8,0:0:0:0:
256,512,38946,1,0,0:0:0:0:
256,512,39295,1,8,0:0:0:0:
256,512,39469,1,4,0:0:0:0:
256,512,39818,1,12,0:0:0:0:
256,512,40167,1,12,0:0:0:0:
256,512,40516,1,12,0:0:0:0:
256,512,40690,1,8,0:0:0:0:
256,512,41388,1,12,0:0:0:0:
256,512,41737,1,8,0:0:0:0:
256,512,41911,1,8,0:0:0:0:
256,512,42086,1,0,0:0:0:0:
256,512,42173,1,0,0:0:0:0:
256,512,42260,1,8,0:0:0:0:
256,512,42435,1,0,0:0:0:0:
256,512,42609,1,8,0:0:0:0:
256,512,42696,1,8,0:0:0:0:
256,512,42784,1,0,0:0:0:0:
256,512,42958,1,8,0:0:0:0:
256,512,43307,1,0,0:0:0:0:
256,512,43481,1,8,0:0:0:0:
256,512,43830,1,4,0:0:0:0:
256,512,44004,1,8,0:0:0:0:
256,512,44092,1,8,0:0:0:0:
256,512,44179,1,0,0:0:0:0:
256,512,44353,1,8,0:0:0:0:
256,512,44528,1,0,0:0:0:0:
256,512,44876,1,0,0:0:0:0:
256,512,44964,1,0,0:0:0:0:
256,512,45051,1,8,0:0:0:0:
256,512,45225,1,0,0:0:0:0:
256,512,45400,1,8,0:0:0:0:
256,512,45574,1,0,0:0:0:0:
256,512,45923,1,8,0:0:0:0:
256,512,46097,1,0,0:0:0:0:
256,512,46272,1,8,0:0:0:0:
256,512,46621,1,12,0:0:0:0:
256,512,46795,1,0,0:0:0:0:
256,512,46969,1,0,0:0:0:0:
256,512,47144,1,8,0:0:0:0:
256,512,47493,1,8,0:0:0:0:
256,512,47667,1,0,0:0:0:0:
256,512,47754,1,0,0:0:0:0:
256,512,47842,1,8,0:0:0:0:
256,512,48016,1,4,0:0:0:0:
256,512,48190,1,8,0:0:0:0:
256,512,48278,1,8,0:0:0:0:
256,512,48365,1,8,0:0:0:0:
256,512,48539,1,4,0:0:0:0:
256,512,48888,1,8,0:0:0:0:
256,512,49063,1,0,0:0:0:0:
256,512,49411,1,12,0:0:0:0:
256,512,49586,1,0,0:0:0:0:
256,512,49760,1,8,0:0:0:0:
256,512,49847,1,8,0:0:0:0:
256,512,49935,1,0,0:0:0:0:
256,512,50109,1,8,0:0:0:0:
256,512,50458,1,0,0:0:0:0:
256,512,50545,1,0,0:0:0:0:
256,512,50632,1,8,0:0:0:0:
256,512,50807,1,0,0:0:0:0:
256,512,51156,1,0,0:0:0:0:
256,512,51330,1,8,0:0:0:0:
256,512,51504,1,8,0:0:0:0:
256,512,51592,1,0,0:0:0:0:
256,512,51679,1,0,0:0:0:0:
256,512,51766,1,0,0:0:0:0:
256,512,51853,1,8,0:0:0:0:
256,512,52202,1,12,0:0:0:0:
256,512,52551,1,0,0:0:0:0:
256,512,52725,1,8,0:0:0:0:
256,512,52900,1,0,0:0:0:0:
256,512,53249,1,0,0:0:0:0:
256,512,53423,1,8,0:0:0:0:
256,512,53597,1,0,0:0:0:0:
256,512,53946,1,0,0:0:0:0:
256,512,54121,1,8,0:0:0:0:
256,512,54295,1,8,0:0:0:0:
256,512,54382,1,8,0:0:0:0:
256,512,54469,1,8,0:0:0:0:
256,512,54644,1,0,0:0:0:0:
256,512,54993,1,12,0:0:0:0:
256,512,55342,1,8,0:0:0:0:
256,512,55516,1,0,0:0:0:0:
256,512,55690,1,8,0:0:0:0:
256,512,56039,1,8,0:0:0:0:
256,512,56214,1,0,0:0:0:0:
256,512,56388,1,8,0:0:0:0:
256,512,57260,1,8,0:0:0:0:
256,512,57435,1,0,0:0:0:0:
256,512,57609,1,8,0:0:0:0:
256,512,57958,1,8,0:0:0:0:
256,512,58132,1,0,0:0:0:0:
256,512,58481,1,8,0:0:0:0:
256,512,58830,1,8,0:0:0:0:
256,512,59179,1,0,0:0:0:0:
256,512,59353,1,8,0:0:0:0:
256,512,59528,1,0,0:0:0:0:
256,512,59702,1,8,0:0:0:0:
256,512,59876,1,0,0:0:0:0:
256,512,60225,1,12,0:0:0:0:
256,512,60749,1,4,0:0:0:0:
256,512,61097,1,8,0:0:0:0:
256,512,61272,1,0,0:0:0:0:
256,512,61446,1,12,0:0:0:0:
256,512,61795,1,4,0:0:0:0:
256,512,61969,1,4,0:0:0:0:
256,512,62144,1,4,0:0:0:0:
256,512,62493,1,12,0:0:0:0:
256,512,62667,1,12,0:0:0:0:
256,512,62842,1,12,0:0:0:0:
256,512,63190,1,12,0:0:0:0:
256,512,63539,1,4,0:0:0:0:
