osu file format v14

[General]
AudioFilename: H.mp3
AudioLeadIn: 0
PreviewTime: 29251
Countdown: 0
SampleSet: Normal
StackLeniency: 0.7
Mode: 1
LetterboxInBreaks: 0
WidescreenStoryboard: 1

[Editor]
Bookmarks: 1970,7551,18714,29876,41388,52202
DistanceSpacing: 0.8
BeatDivisor: 4
GridSize: 32
TimelineZoom: 1.15

[Metadata]
Title:yukai young
TitleUnicode:yukai young
Artist:jan Misali
ArtistUnicode:jan Misali
Creator:yenmaster
Version:muzukashii
Source:涼宮ハルヒの憂鬱
Tags:novelty english pop ke$ha kesha Die Young suzumiya Haruhi Aya Hirano 平野綾 ハレ晴レユカイ hare hare yukai mashup the melancholy of haruhi suzumiya anime
BeatmapID:3295422
BeatmapSetID:1614152

[Difficulty]
HPDrainRate:7
CircleSize:0
OverallDifficulty:4
ApproachRate:0
SliderMultiplier:1.4
SliderTickRate:1

[Events]
//Background and Video events
0,0,"jpg.jpg",0,-10
//Break Periods
//Storyboard Layer 0 (Background)
//Storyboard Layer 1 (Fail)
//Storyboard Layer 2 (Pass)
//Storyboard Layer 3 (Foreground)
//Storyboard Layer 4 (Overlay)
//Storyboard Sound Samples

[TimingPoints]
1970,348.837209302325,4,1,0,70,1,0
7628,-105.263157894737,4,1,0,60,0,0
17308,-104.166666666667,4,1,0,61,0,0
17657,-103.092783505155,4,1,0,63,0,0
18006,-102.040816326531,4,1,0,65,0,0
18355,-101.010101010101,4,1,0,67,0,0
18704,-100,4,1,0,69,0,0
18791,-105.263157894737,4,1,0,60,0,0
24208,-102.040816326531,4,1,0,70,0,0
29876,-90.9090909090909,4,1,0,80,0,1
41039,-90.9090909090909,4,1,0,80,0,0
41388,-90.9090909090909,4,1,0,80,0,1
52279,-90.9090909090909,4,1,0,75,0,1
56388,-90.9090909090909,4,1,0,80,0,0
56901,-100,4,1,0,65,0,0

[HitObjects]
256,192,574,5,12,0:0:0:0:
256,192,923,1,8,0:0:0:0:
256,192,1097,1,0,0:0:0:0:
256,192,1272,1,8,0:0:0:0:
256,192,1359,1,8,0:0:0:0:
256,192,1446,1,8,0:0:0:0:
256,192,1621,1,0,0:0:0:0:
256,192,1795,1,8,0:0:0:0:
256,192,1970,1,4,0:0:0:0:
256,192,2318,1,8,0:0:0:0:
256,192,2493,1,0,0:0:0:0:
256,192,2842,1,8,0:0:0:0:
256,192,3365,1,12,0:0:0:0:
256,192,3714,1,8,0:0:0:0:
256,192,3888,1,4,0:0:0:0:
256,192,4237,1,0,0:0:0:0:
256,192,4586,1,0,0:0:0:0:
256,192,4760,1,12,0:0:0:0:
256,192,4935,1,0,0:0:0:0:
256,192,5022,1,0,0:0:0:0:
256,192,5109,1,0,0:0:0:0:
256,192,5283,1,0,0:0:0:0:
256,192,5458,1,8,0:0:0:0:
256,192,5807,1,8,0:0:0:0:
256,192,5981,1,4,0:0:0:0:
256,192,6330,1,4,0:0:0:0:
256,192,6679,1,12,0:0:0:0:
256,192,7028,1,12,0:0:0:0:
256,192,7551,1,12,0:0:0:0:
256,192,7900,1,0,0:0:0:0:
256,192,8249,1,8,0:0:0:0:
256,192,8336,1,8,0:0:0:0:
256,192,8423,1,8,0:0:0:0:
256,192,8597,1,0,0:0:0:0:
256,192,8946,1,0,0:0:0:0:
256,192,9121,1,8,0:0:0:0:
256,192,9295,1,0,0:0:0:0:
256,192,9644,1,8,0:0:0:0:
256,192,9818,1,8,0:0:0:0:
256,192,9993,1,8,0:0:0:0:
256,192,10342,1,8,0:0:0:0:
256,192,10690,1,0,0:0:0:0:
256,192,11039,1,0,0:0:0:0:
256,192,11214,1,8,0:0:0:0:
256,192,11388,1,0,0:0:0:0:
256,192,11737,1,8,0:0:0:0:
256,192,11824,1,8,0:0:0:0:
256,192,11911,1,8,0:0:0:0:
256,192,12086,1,0,0:0:0:0:
256,192,12435,1,8,0:0:0:0:
256,192,12609,1,8,0:0:0:0:
256,192,12783,1,0,0:0:0:0:
256,192,13132,1,12,0:0:0:0:
256,192,13481,1,8,0:0:0:0:
256,192,13656,1,8,0:0:0:0:
256,192,13830,1,0,0:0:0:0:
256,192,14004,1,0,0:0:0:0:
256,192,14179,1,8,0:0:0:0:
256,192,14528,1,8,0:0:0:0:
256,192,14789,1,8,0:0:0:0:
256,192,14876,1,8,0:0:0:0:
256,192,15051,1,0,0:0:0:0:
256,192,15574,1,8,0:0:0:0:
256,192,15923,1,0,0:0:0:0:
256,192,16097,1,0,0:0:0:0:
256,192,16272,1,8,0:0:0:0:
256,192,16621,1,0,0:0:0:0:
256,192,16795,1,0,0:0:0:0:
256,192,16969,1,0,0:0:0:0:
256,192,17318,1,4,0:0:0:0:
256,192,17667,1,12,0:0:0:0:
256,192,18016,1,4,0:0:0:0:
256,192,18365,1,12,0:0:0:0:
256,192,18714,1,4,0:0:0:0:
256,192,19237,1,8,0:0:0:0:
256,192,19411,1,0,0:0:0:0:
256,192,19760,1,0,0:0:0:0:
256,192,20109,1,8,0:0:0:0:
256,192,20458,1,0,0:0:0:0:
256,192,20632,1,8,0:0:0:0:
256,192,21156,1,0,0:0:0:0:
256,192,21504,1,0,0:0:0:0:
256,192,21679,1,8,0:0:0:0:
256,192,22028,1,8,0:0:0:0:
256,192,22202,1,0,0:0:0:0:
256,192,22551,1,8,0:0:0:0:
256,192,22900,1,0,0:0:0:0:
256,192,23249,1,8,0:0:0:0:
256,192,23423,1,0,0:0:0:0:
256,192,23946,1,8,0:0:0:0:
256,192,24295,1,4,0:0:0:0:
256,192,24644,1,8,0:0:0:0:
256,192,24818,1,4,0:0:0:0:
256,192,25167,1,0,0:0:0:0:
256,192,25342,1,8,0:0:0:0:
256,192,25516,1,4,0:0:0:0:
256,192,25865,1,0,0:0:0:0:
256,192,26039,1,0,0:0:0:0:
256,192,26214,1,12,0:0:0:0:
256,192,26737,1,0,0:0:0:0:
256,192,27086,1,4,0:0:0:0:
256,192,27260,1,8,0:0:0:0:
256,192,27609,1,8,0:0:0:0:
256,192,27783,1,8,0:0:0:0:
256,192,28132,1,8,0:0:0:0:
256,192,28307,1,4,0:0:0:0:
256,192,28656,1,4,0:0:0:0:
256,192,29004,1,4,0:0:0:0:
256,192,29179,1,12,0:0:0:0:
256,192,29876,1,12,0:0:0:0:
256,192,30051,1,0,0:0:0:0:
256,192,30225,1,8,0:0:0:0:
256,192,30574,1,8,0:0:0:0:
256,192,30923,1,0,0:0:0:0:
256,192,31010,1,0,0:0:0:0:
256,192,31097,1,0,0:0:0:0:
256,192,31272,1,0,0:0:0:0:
256,192,31446,1,8,0:0:0:0:
256,192,31795,1,8,0:0:0:0:
256,192,32144,1,0,0:0:0:0:
256,192,32318,1,8,0:0:0:0:
256,192,32667,1,4,0:0:0:0:
256,192,32842,1,8,0:0:0:0:
256,192,32929,1,8,0:0:0:0:
256,192,33016,1,8,0:0:0:0:
256,192,33190,1,0,0:0:0:0:
256,192,33365,1,8,0:0:0:0:
256,192,33714,1,0,0:0:0:0:
256,192,33888,1,0,0:0:0:0:
256,192,34063,1,8,0:0:0:0:
256,192,34411,1,8,0:0:0:0:
256,192,34760,1,0,0:0:0:0:
256,192,35109,1,8,0:0:0:0:
256,192,35458,1,12,0:0:0:0:
256,192,35807,1,0,0:0:0:0:
256,192,35981,1,8,0:0:0:0:
256,192,36330,1,0,0:0:0:0:
256,192,36504,1,8,0:0:0:0:
256,192,36592,1,8,0:0:0:0:
256,192,36679,1,8,0:0:0:0:
256,192,36853,1,12,0:0:0:0:
256,192,37202,1,0,0:0:0:0:
256,192,37376,1,12,0:0:0:0:
256,192,37725,1,0,0:0:0:0:
256,192,38249,1,12,0:0:0:0:
256,192,38423,1,0,0:0:0:0:
256,192,38510,1,0,0:0:0:0:
256,192,38597,1,0,0:0:0:0:
256,192,38772,1,8,0:0:0:0:
256,192,38946,1,0,0:0:0:0:
256,192,39295,1,8,0:0:0:0:
256,192,39469,1,4,0:0:0:0:
256,192,39818,1,12,0:0:0:0:
256,192,40167,1,12,0:0:0:0:
256,192,40516,1,12,0:0:0:0:
256,192,40690,1,8,0:0:0:0:
256,192,41388,1,12,0:0:0:0:
256,192,41737,1,8,0:0:0:0:
256,192,42086,1,8,0:0:0:0:
256,192,42173,1,8,0:0:0:0:
256,192,42260,1,8,0:0:0:0:
256,192,42435,1,0,0:0:0:0:
256,192,42609,1,8,0:0:0:0:
256,192,42958,1,0,0:0:0:0:
256,192,43307,1,8,0:0:0:0:
256,192,43481,1,0,0:0:0:0:
256,192,43830,1,4,0:0:0:0:
256,192,44004,1,8,0:0:0:0:
256,192,44092,1,8,0:0:0:0:
256,192,44179,1,8,0:0:0:0:
256,192,44353,1,8,0:0:0:0:
256,192,44528,1,0,0:0:0:0:
256,192,44876,1,0,0:0:0:0:
256,192,45051,1,8,0:0:0:0:
256,192,45225,1,0,0:0:0:0:
256,192,45574,1,0,0:0:0:0:
256,192,45923,1,8,0:0:0:0:
256,192,46272,1,8,0:0:0:0:
256,192,46621,1,4,0:0:0:0:
256,192,46969,1,0,0:0:0:0:
256,192,47144,1,8,0:0:0:0:
256,192,47493,1,8,0:0:0:0:
256,192,47667,1,0,0:0:0:0:
256,192,47754,1,0,0:0:0:0:
256,192,47842,1,0,0:0:0:0:
256,192,48016,1,4,0:0:0:0:
256,192,48365,1,8,0:0:0:0:
256,192,48539,1,4,0:0:0:0:
256,192,48888,1,0,0:0:0:0:
256,192,49411,1,12,0:0:0:0:
256,192,49586,1,0,0:0:0:0:
256,192,49760,1,8,0:0:0:0:
256,192,49847,1,8,0:0:0:0:
256,192,49935,1,8,0:0:0:0:
256,192,50109,1,8,0:0:0:0:
256,192,50458,1,0,0:0:0:0:
256,192,50632,1,8,0:0:0:0:
256,192,50807,1,0,0:0:0:0:
256,192,51156,1,0,0:0:0:0:
256,192,51330,1,0,0:0:0:0:
256,192,51504,1,8,0:0:0:0:
256,192,51592,1,8,0:0:0:0:
256,192,51679,1,8,0:0:0:0:
256,192,51853,1,8,0:0:0:0:
256,192,52202,1,12,0:0:0:0:
256,192,52551,1,0,0:0:0:0:
256,192,52900,1,0,0:0:0:0:
256,192,53249,1,0,0:0:0:0:
256,192,53597,1,8,0:0:0:0:
256,192,54121,1,0,0:0:0:0:
256,192,54295,1,8,0:0:0:0:
256,192,54382,1,8,0:0:0:0:
256,192,54469,1,8,0:0:0:0:
256,192,54644,1,8,0:0:0:0:
256,192,54993,1,12,0:0:0:0:
256,192,55342,1,0,0:0:0:0:
256,192,55690,1,0,0:0:0:0:
256,192,56039,1,0,0:0:0:0:
256,192,56388,1,8,0:0:0:0:
256,192,57260,1,8,0:0:0:0:
256,192,57435,1,0,0:0:0:0:
256,192,57609,1,8,0:0:0:0:
256,192,57958,1,8,0:0:0:0:
256,192,58132,1,0,0:0:0:0:
256,192,58481,1,8,0:0:0:0:
256,192,58830,1,8,0:0:0:0:
256,192,59179,1,0,0:0:0:0:
256,192,59528,1,0,0:0:0:0:
256,192,59702,1,8,0:0:0:0:
256,192,59876,1,0,0:0:0:0:
256,192,60225,1,12,0:0:0:0:
256,192,60749,1,4,0:0:0:0:
256,192,61446,1,12,0:0:0:0:
256,192,61795,1,4,0:0:0:0:
256,192,61969,1,4,0:0:0:0:
256,192,62144,1,4,0:0:0:0:
256,192,62493,1,12,0:0:0:0:
256,192,62667,1,12,0:0:0:0:
256,192,62842,1,12,0:0:0:0:
256,192,63190,1,12,0:0:0:0:
256,192,63539,1,4,0:0:0:0:
